osu file format v14

[General]
AudioFilename: audio.mp3
AudioLeadIn: 0
PreviewTime: 61935
Countdown: 0
SampleSet: Normal
StackLeniency: 0.7
Mode: 1
LetterboxInBreaks: 0
WidescreenStoryboard: 0

[Editor]
Bookmarks: 5685,10685,20685,30685,40685,45685,55997,73185
DistanceSpacing: 1.4
BeatDivisor: 4
GridSize: 16
TimelineZoom: 1.1

[Metadata]
Title:Born to be
TitleUnicode:Born to be
Artist:nano
ArtistUnicode:ナノ
Creator:-Sh1n1-
Version:Muzukashii
Source:魔法戦争
Tags:Magical Warfare ending mahou sensou WEST GROUND Masato Kouda TV Size shini Volta Flying_Pan xtrem3x
BeatmapID:1458983
BeatmapSetID:689184

[Difficulty]
HPDrainRate:5
CircleSize:4
OverallDifficulty:5
ApproachRate:5
SliderMultiplier:1.4
SliderTickRate:1

[Events]
//Background and Video events
0,0,"BG.jpg",0,35
//Break Periods
//Storyboard Layer 0 (Background)
//Storyboard Layer 1 (Fail)
//Storyboard Layer 2 (Pass)
//Storyboard Layer 3 (Foreground)
//Storyboard Sound Samples

[TimingPoints]
685,312.5,4,1,0,95,1,0
63185,-100,4,1,0,95,0,1
83185,-100,4,1,0,95,0,0

[HitObjects]
256,192,4435,5,8,0:0:0:0:
240,176,4747,1,8,0:0:0:0:
256,192,5060,1,8,0:0:0:0:
256,192,5216,1,0,0:0:0:0:
256,192,5372,1,8,0:0:0:0:
256,192,5685,1,4,0:0:0:0:
256,192,5841,1,0,0:0:0:0:
256,192,6153,1,0,0:0:0:0:
256,192,6310,1,8,0:0:0:0:
256,192,6622,1,8,0:0:0:0:
256,192,6778,1,0,0:0:0:0:
256,192,7091,1,0,0:0:0:0:
256,192,7247,1,8,0:0:0:0:
256,192,7560,1,0,0:0:0:0:
256,192,7716,1,0,0:0:0:0:
256,192,7872,1,8,0:0:0:0:
256,192,8028,1,8,0:0:0:0:
256,192,8185,1,4,0:0:0:0:
256,192,8497,1,8,0:0:0:0:
256,192,8810,1,0,0:0:0:0:
256,192,8966,1,8,0:0:0:0:
256,192,9122,1,8,0:0:0:0:
256,192,9278,1,0,0:0:0:0:
256,192,9591,1,0,0:0:0:0:
256,192,9747,1,8,0:0:0:0:
256,192,10060,1,0,0:0:0:0:
256,192,10216,1,0,0:0:0:0:
256,192,10372,1,8,0:0:0:0:
256,192,10685,1,4,0:0:0:0:
256,192,10841,1,0,0:0:0:0:
256,192,11153,1,0,0:0:0:0:
256,192,11310,1,8,0:0:0:0:
256,192,11622,1,8,0:0:0:0:
256,192,11778,1,0,0:0:0:0:
256,192,12091,1,0,0:0:0:0:
256,192,12247,1,8,0:0:0:0:
256,192,12560,1,0,0:0:0:0:
256,192,12716,1,0,0:0:0:0:
256,192,12872,1,8,0:0:0:0:
256,192,13028,1,8,0:0:0:0:
256,192,13185,1,4,0:0:0:0:
256,192,13497,1,8,0:0:0:0:
256,192,13810,1,0,0:0:0:0:
256,192,13966,1,8,0:0:0:0:
256,192,14122,1,8,0:0:0:0:
256,192,14278,1,0,0:0:0:0:
256,192,14591,1,0,0:0:0:0:
256,192,14747,1,8,0:0:0:0:
256,192,15060,1,0,0:0:0:0:
256,192,15216,1,0,0:0:0:0:
256,192,15372,1,8,0:0:0:0:
256,192,15685,12,8,17872,0:0:0:0:
256,192,18185,5,8,0:0:0:0:
256,192,18810,1,8,0:0:0:0:
256,192,19435,1,8,0:0:0:0:
256,192,19747,1,0,0:0:0:0:
256,192,19903,1,8,0:0:0:0:
256,192,20060,1,8,0:0:0:0:
256,192,20216,1,0,0:0:0:0:
256,192,20372,1,8,0:0:0:0:
256,192,20685,1,4,0:0:0:0:
256,192,21310,1,8,0:0:0:0:
256,192,21622,1,8,0:0:0:0:
256,192,21778,1,0,0:0:0:0:
256,192,22091,1,0,0:0:0:0:
256,192,22247,1,8,0:0:0:0:
256,192,22560,1,8,0:0:0:0:
256,192,22872,1,8,0:0:0:0:
256,192,23028,1,8,0:0:0:0:
256,192,23185,1,0,0:0:0:0:
256,192,23497,1,0,0:0:0:0:
256,192,23653,1,0,0:0:0:0:
256,192,23810,1,8,0:0:0:0:
256,192,24122,1,8,0:0:0:0:
256,192,24278,1,0,0:0:0:0:
256,192,24591,1,0,0:0:0:0:
256,192,24747,1,8,0:0:0:0:
256,192,25060,1,8,0:0:0:0:
256,192,25216,1,0,0:0:0:0:
256,192,25372,1,8,0:0:0:0:
256,192,25528,1,8,0:0:0:0:
256,192,25685,1,4,0:0:0:0:
256,192,26310,1,8,0:0:0:0:
256,192,26622,1,8,0:0:0:0:
256,192,26778,1,0,0:0:0:0:
256,192,27091,1,0,0:0:0:0:
256,192,27247,1,8,0:0:0:0:
256,192,27560,1,8,0:0:0:0:
256,192,27872,1,8,0:0:0:0:
256,192,28028,1,8,0:0:0:0:
256,192,28185,1,0,0:0:0:0:
256,192,28497,1,0,0:0:0:0:
256,192,28653,1,0,0:0:0:0:
256,192,28810,1,8,0:0:0:0:
256,192,29122,1,8,0:0:0:0:
256,192,29278,1,0,0:0:0:0:
256,192,29591,1,0,0:0:0:0:
256,192,29747,1,8,0:0:0:0:
256,192,30060,1,8,0:0:0:0:
256,192,30216,1,0,0:0:0:0:
256,192,30372,1,8,0:0:0:0:
256,192,30528,1,8,0:0:0:0:
256,192,30685,1,4,0:0:0:0:
256,192,31310,1,0,0:0:0:0:
256,192,31622,1,8,0:0:0:0:
256,192,31935,1,0,0:0:0:0:
256,192,32091,1,8,0:0:0:0:
256,192,32247,1,0,0:0:0:0:
256,192,32560,1,8,0:0:0:0:
256,192,32716,1,0,0:0:0:0:
256,192,32872,1,8,0:0:0:0:
256,192,33185,1,0,0:0:0:0:
256,192,33810,1,0,0:0:0:0:
256,192,34122,1,8,0:0:0:0:
256,192,34435,1,8,0:0:0:0:
256,192,34591,1,8,0:0:0:0:
256,192,34747,1,0,0:0:0:0:
256,192,35060,1,0,0:0:0:0:
256,192,35216,1,0,0:0:0:0:
256,192,35372,1,8,0:0:0:0:
256,192,35685,1,4,0:0:0:0:
256,192,36310,1,0,0:0:0:0:
256,192,36622,1,8,0:0:0:0:
256,192,36935,1,0,0:0:0:0:
256,192,37091,1,8,0:0:0:0:
256,192,37247,1,0,0:0:0:0:
256,192,37560,1,8,0:0:0:0:
256,192,37716,1,0,0:0:0:0:
256,192,37872,1,8,0:0:0:0:
256,192,38185,1,0,0:0:0:0:
256,192,38497,1,8,0:0:0:0:
256,192,38653,1,8,0:0:0:0:
256,192,38810,1,0,0:0:0:0:
256,192,39122,1,0,0:0:0:0:
256,192,39278,1,8,0:0:0:0:
256,192,39591,1,0,0:0:0:0:
256,192,39747,1,8,0:0:0:0:
256,192,39903,1,8,0:0:0:0:
256,192,40060,1,0,0:0:0:0:
256,192,40138,1,0,0:0:0:0:
256,192,40216,1,0,0:0:0:0:
256,192,40372,1,8,0:0:0:0:
256,192,40685,5,4,0:0:0:0:
256,192,40997,1,8,0:0:0:0:
256,192,41310,1,0,0:0:0:0:
256,192,41466,1,0,0:0:0:0:
256,192,41622,1,8,0:0:0:0:
256,192,41935,1,0,0:0:0:0:
256,192,42247,1,8,0:0:0:0:
256,192,42560,1,0,0:0:0:0:
256,192,42716,1,0,0:0:0:0:
256,192,42872,1,8,0:0:0:0:
256,192,43028,1,8,0:0:0:0:
256,192,43185,1,4,0:0:0:0:
256,192,43497,1,8,0:0:0:0:
256,192,43653,1,0,0:0:0:0:
256,192,43966,1,0,0:0:0:0:
256,192,44122,1,8,0:0:0:0:
256,192,44435,1,0,0:0:0:0:
256,192,44747,1,8,0:0:0:0:
256,192,45060,1,0,0:0:0:0:
256,192,45216,1,0,0:0:0:0:
256,192,45372,1,8,0:0:0:0:
256,192,45685,1,4,0:0:0:0:
256,192,45997,1,8,0:0:0:0:
256,192,46310,1,0,0:0:0:0:
256,192,46466,1,0,0:0:0:0:
256,192,46622,1,8,0:0:0:0:
256,192,46935,1,0,0:0:0:0:
256,192,47247,1,8,0:0:0:0:
256,192,47560,1,8,0:0:0:0:
256,192,47716,1,0,0:0:0:0:
256,192,47872,1,8,0:0:0:0:
256,192,48185,1,4,0:0:0:0:
256,192,48497,1,8,0:0:0:0:
256,192,48653,1,0,0:0:0:0:
256,192,48966,1,0,0:0:0:0:
256,192,49122,1,8,0:0:0:0:
256,192,49435,1,0,0:0:0:0:
256,192,49591,1,0,0:0:0:0:
256,192,49747,1,8,0:0:0:0:
256,192,50060,1,8,0:0:0:0:
256,192,50216,1,0,0:0:0:0:
256,192,50372,1,8,0:0:0:0:
256,192,50528,1,8,0:0:0:0:
256,192,50606,1,8,0:0:0:0:
256,192,50685,1,8,0:0:0:0:
256,192,50997,1,0,0:0:0:0:
256,192,51310,1,8,0:0:0:0:
256,192,51466,1,8,0:0:0:0:
256,192,51778,1,0,0:0:0:0:
256,192,52091,1,8,0:0:0:0:
256,192,52403,1,0,0:0:0:0:
256,192,52560,1,8,0:0:0:0:
256,192,52872,1,8,0:0:0:0:
256,192,53028,1,8,0:0:0:0:
256,192,53185,1,4,0:0:0:0:
256,192,53497,1,0,0:0:0:0:
256,192,53810,1,8,0:0:0:0:
256,192,53966,1,8,0:0:0:0:
256,192,54278,1,0,0:0:0:0:
256,192,54591,1,8,0:0:0:0:
256,192,54903,1,0,0:0:0:0:
256,192,55060,1,8,0:0:0:0:
256,192,55372,1,8,0:0:0:0:
256,192,55528,1,8,0:0:0:0:
256,192,55685,1,4,0:0:0:0:
256,192,55997,1,0,0:0:0:0:
256,192,56310,1,0,0:0:0:0:
256,192,56622,1,0,0:0:0:0:
256,192,56935,1,12,0:0:0:0:
256,192,57247,1,0,0:0:0:0:
256,192,57560,1,8,0:0:0:0:
256,192,57872,1,8,0:0:0:0:
256,192,58185,1,4,0:0:0:0:
256,192,58497,1,8,0:0:0:0:
256,192,58653,1,0,0:0:0:0:
256,192,58810,1,8,0:0:0:0:
256,192,59122,1,0,0:0:0:0:
256,192,59435,1,0,0:0:0:0:
256,192,59591,1,0,0:0:0:0:
256,192,59747,1,8,0:0:0:0:
256,192,59903,1,0,0:0:0:0:
256,192,60060,1,8,0:0:0:0:
256,192,60216,1,0,0:0:0:0:
256,192,60294,1,0,0:0:0:0:
256,192,60372,1,0,0:0:0:0:
256,192,60528,1,8,0:0:0:0:
256,192,61935,1,8,0:0:0:0:
256,192,62560,1,8,0:0:0:0:
256,192,63185,5,4,0:0:0:0:
256,192,63497,1,8,0:0:0:0:
256,192,63810,1,0,0:0:0:0:
256,192,63966,1,8,0:0:0:0:
256,192,64122,1,0,0:0:0:0:
256,192,64278,1,8,0:0:0:0:
256,192,64435,1,0,0:0:0:0:
256,192,64747,1,8,0:0:0:0:
256,192,64903,1,8,0:0:0:0:
256,192,65060,1,0,0:0:0:0:
256,192,65216,1,0,0:0:0:0:
256,192,65372,1,8,0:0:0:0:
256,192,65685,1,4,0:0:0:0:
256,192,65997,1,8,0:0:0:0:
256,192,66310,1,0,0:0:0:0:
256,192,66466,1,0,0:0:0:0:
256,192,66622,1,8,0:0:0:0:
256,192,66778,1,0,0:0:0:0:
256,192,67091,1,0,0:0:0:0:
256,192,67247,1,8,0:0:0:0:
256,192,67403,1,0,0:0:0:0:
256,192,67481,1,0,0:0:0:0:
256,192,67560,1,0,0:0:0:0:
256,192,67716,1,0,0:0:0:0:
256,192,67872,1,8,0:0:0:0:
256,192,68185,1,4,0:0:0:0:
256,192,68810,1,0,0:0:0:0:
256,192,68966,1,0,0:0:0:0:
256,192,69122,1,8,0:0:0:0:
256,192,69278,1,0,0:0:0:0:
256,192,69591,1,0,0:0:0:0:
256,192,69747,1,8,0:0:0:0:
256,192,70060,1,0,0:0:0:0:
256,192,70216,1,0,0:0:0:0:
256,192,70372,1,8,0:0:0:0:
256,192,70528,1,0,0:0:0:0:
256,192,70841,1,0,0:0:0:0:
256,192,70997,1,8,0:0:0:0:
256,192,71310,1,8,0:0:0:0:
256,192,71466,1,8,0:0:0:0:
256,192,71544,1,8,0:0:0:0:
256,192,71622,1,8,0:0:0:0:
256,192,71778,1,12,0:0:0:0:
256,192,72091,1,0,0:0:0:0:
256,192,72247,1,0,0:0:0:0:
256,192,72403,1,12,0:0:0:0:
256,192,72716,1,0,0:0:0:0:
256,192,72872,1,8,0:0:0:0:
256,192,73185,1,4,0:0:0:0:
256,192,73497,1,8,0:0:0:0:
256,192,73810,1,0,0:0:0:0:
256,192,73966,1,0,0:0:0:0:
256,192,74122,1,8,0:0:0:0:
256,192,74278,1,0,0:0:0:0:
256,192,74435,1,8,0:0:0:0:
256,192,74747,1,8,0:0:0:0:
256,192,74903,1,8,0:0:0:0:
256,192,75060,1,0,0:0:0:0:
256,192,75216,1,0,0:0:0:0:
256,192,75372,1,8,0:0:0:0:
256,192,75685,1,4,0:0:0:0:
256,192,75997,1,8,0:0:0:0:
256,192,76310,1,0,0:0:0:0:
256,192,76466,1,0,0:0:0:0:
256,192,76622,1,8,0:0:0:0:
256,192,76778,1,0,0:0:0:0:
256,192,77091,1,0,0:0:0:0:
256,192,77247,1,8,0:0:0:0:
256,192,77403,1,0,0:0:0:0:
256,192,77481,1,0,0:0:0:0:
256,192,77560,1,0,0:0:0:0:
256,192,77716,1,0,0:0:0:0:
256,192,77872,1,8,0:0:0:0:
256,192,78185,1,4,0:0:0:0:
256,192,78810,1,0,0:0:0:0:
256,192,78966,1,0,0:0:0:0:
256,192,79122,1,8,0:0:0:0:
256,192,79278,1,0,0:0:0:0:
256,192,79591,1,0,0:0:0:0:
256,192,79747,1,8,0:0:0:0:
256,192,80060,1,0,0:0:0:0:
256,192,80216,1,0,0:0:0:0:
256,192,80372,1,8,0:0:0:0:
256,192,80528,1,0,0:0:0:0:
256,192,80685,1,4,0:0:0:0:
256,192,80997,1,8,0:0:0:0:
256,192,81153,1,0,0:0:0:0:
256,192,81310,1,8,0:0:0:0:
256,192,81388,1,8,0:0:0:0:
256,192,81466,1,8,0:0:0:0:
256,192,81622,1,8,0:0:0:0:
256,192,81778,1,0,0:0:0:0:
256,192,81935,1,4,0:0:0:0:
256,192,83185,1,4,0:0:0:0:
256,192,83653,1,0,0:0:0:0:
256,192,83810,1,8,0:0:0:0:
256,192,83966,1,0,0:0:0:0:
256,192,84122,1,8,0:0:0:0:
256,192,84278,1,0,0:0:0:0:
256,192,84747,1,0,0:0:0:0:
256,192,84903,1,8,0:0:0:0:
256,192,85060,1,8,0:0:0:0:
256,192,85216,1,0,0:0:0:0:
256,192,85685,1,4,0:0:0:0:
256,192,86153,1,0,0:0:0:0:
256,192,86310,1,8,0:0:0:0:
256,192,86466,1,0,0:0:0:0:
256,192,86622,1,8,0:0:0:0:
256,192,86778,1,0,0:0:0:0:
256,192,87247,1,8,0:0:0:0:
256,192,87403,1,0,0:0:0:0:
256,192,87560,1,0,0:0:0:0:
256,192,87716,1,8,0:0:0:0:
256,192,87872,1,8,0:0:0:0:
256,192,88028,1,4,0:0:0:0:
