osu file format v14

[General]
AudioFilename: nano - Born to Be192.mp3
AudioLeadIn: 0
PreviewTime: 62008
Countdown: 0
SampleSet: Normal
StackLeniency: 0.7
Mode: 0
LetterboxInBreaks: 0
WidescreenStoryboard: 0

[Editor]
DistanceSpacing: 1.2
BeatDivisor: 4
GridSize: 4
TimelineZoom: 4.099999

[Metadata]
Title:Born to Be
TitleUnicode:Born to Be
Artist:nano
ArtistUnicode:ナノ
Creator:theramdans
Version:Normal
Source:
Tags:Akali Haruto- Haruto Aizawa Battle
BeatmapID:761493
BeatmapSetID:343708

[Difficulty]
HPDrainRate:3
CircleSize:3
OverallDifficulty:4
ApproachRate:5
SliderMultiplier:1.05
SliderTickRate:1

[Events]
//Background and Video events
0,0,"nanobtb.jpg",0,0
//Break Periods
2,83614,92215
2,103458,107215
2,160925,169715
//Storyboard Layer 0 (Background)
//Storyboard Layer 1 (Fail)
//Storyboard Layer 2 (Pass)
//Storyboard Layer 3 (Foreground)
//Storyboard Sound Samples

[TimingPoints]
915,312.5,4,2,1,40,1,0
5290,-100,4,1,1,40,0,0
5915,-100,4,1,1,50,0,0
20915,-100,4,1,1,50,0,0
30915,-100,4,2,1,40,0,0
40915,-100,4,1,1,50,0,0
61071,-100,4,2,1,40,0,0
62165,-100,4,2,1,30,0,0
63415,-100,4,1,1,60,0,1
83415,-100,4,1,1,50,0,0
103258,-100,4,2,1,40,0,0
108415,-100,4,1,1,50,0,0
138415,-100,4,2,1,40,0,0
147790,-100,4,1,1,50,0,0
158415,-100,4,1,1,40,0,0
159665,-100,4,2,1,30,0,0
170915,-100,4,2,1,40,0,0
180915,-100,4,2,1,30,0,0
182165,-100,4,1,1,60,0,1
200915,-100,4,1,1,50,0,0
202165,-100,4,1,1,60,0,1
202477,-100,4,1,1,50,0,0

[Colours]
Combo1 : 191,0,191
Combo2 : 140,0,0
Combo3 : 168,84,0
Combo4 : 0,232,0

[HitObjects]
60,294,915,6,0,P|110:278|162:281,1,105,4|0,0:3|0:0,0:0:0:0:
271,217,1540,2,0,L|257:112,1,105,8|4,0:3|0:3,0:0:0:0:
298,64,2008,2,0,B|347:69|388:39|388:39|418:42|448:78,1,157.5,4|0,0:3|0:0,0:0:0:0:
434,197,2790,1,8,0:3:0:0:
376,308,3102,1,4,0:3:0:0:
249,313,3415,6,0,B|216:331|216:331|146:331,1,105,4|0,0:3|0:0,0:0:0:0:
65,233,4040,2,0,P|39:189|44:138,1,105,8|4,0:3|0:3,0:0:0:0:
88,92,4508,2,0,B|119:99|119:99|139:83|139:83|186:93|239:72,1,157.5,4|4,0:3|0:3,0:0:0:0:
363,68,5290,2,0,L|370:13,2,52.5,8|0|8,0:0|0:0|0:0,0:0:0:0:
420,180,5915,6,0,P|405:247|380:278,1,105,4|8,0:0|0:0,0:0:0:0:
271,334,6540,1,2,0:2:0:0:
165,264,6852,1,8,0:0:0:0:
209,145,7165,2,0,L|217:37,2,105,2|8|2,0:2|0:0|0:2,0:0:0:0:
165,264,8102,1,8,0:0:0:0:
271,334,8415,5,2,0:2:0:0:
386,283,8727,2,0,L|496:309,2,105,8|2|8,0:0|0:2|0:0,0:0:0:0:
363,158,9665,2,0,P|318:130|267:130,1,105,2|8,0:2|0:0,0:0:0:0:
177,219,10290,2,0,L|199:331,1,105,2|8,0:2|0:0,0:0:0:0:
71,330,10915,5,4,0:0:0:0:
47,206,11227,2,0,B|28:153|46:103,1,105,8|2,0:0|0:2,0:0:0:0:
166,63,11852,1,8,0:0:0:0:
291,73,12165,2,0,P|339:92|390:86,1,105,2|8,0:2|0:0,0:0:0:0:
470,183,12790,2,0,L|452:289,1,105,2|8,0:2|0:0,0:0:0:0:
329,314,13415,6,0,B|266:330|266:330|227:317,1,105,2|8,0:2|0:0,0:0:0:0:
153,217,14040,1,2,0:2:0:0:
178,93,14352,1,8,0:0:0:0:
60,45,14665,2,0,B|47:83|47:83|63:146,2,105,2|8|6,0:2|0:0|0:2,0:0:0:0:
178,93,15602,1,8,0:0:0:0:
300,61,15915,1,4,0:0:0:0:
256,192,16071,12,2,18415,2:3:0:0:
465,258,19977,5,2,0:2:0:0:
465,258,20290,1,8,0:0:0:0:
465,258,20602,1,2,0:2:0:0:
381,163,20915,6,0,B|331:185|289:161|289:161|255:166|241:197,1,157.5,6|2,0:2|0:2,0:0:0:0:
206,248,21540,2,0,P|153:257|97:246,1,105,8|0,0:0|0:0,0:0:0:0:
62,201,22008,2,0,L|77:93,1,105,2|8,0:2|0:0,0:0:0:0:
127,59,22477,1,2,0:2:0:0:
252,66,22790,2,0,L|308:57,2,52.5,8|2|2,0:2|0:2|0:2,0:0:0:0:
188,175,23415,6,0,L|207:280,1,105,2|0,0:2|0:0,0:0:0:0:
313,345,24040,2,0,B|392:349|392:349|419:336,1,105,8|0,0:0|0:0,0:0:0:0:
466,299,24508,2,0,P|474:249|450:203,1,105,2|8,0:2|0:2,0:0:0:0:
398,168,24977,1,2,0:0:0:0:
319,68,25290,2,0,L|317:13,2,52.5,8|2|2,0:0|0:2|0:2,0:0:0:0:
214,140,25915,6,0,B|129:137|129:137|58:171,1,157.5,6|2,0:2|0:2,0:0:0:0:
30,222,26540,2,0,L|35:327,1,105,8|0,0:0|0:0,0:0:0:0:
95,343,27008,2,0,B|141:357|141:357|197:341,1,105,2|8,0:2|0:0,0:0:0:0:
254,317,27477,1,2,0:2:0:0:
346,229,27790,2,0,P|354:205|358:179,2,52.5,8|2|2,0:0|0:2|0:2,0:0:0:0:
220,217,28415,2,0,P|179:185|127:183,1,105,6|0,0:2|0:0,0:0:0:0:
71,70,29040,2,0,P|111:38|163:36,1,105,8|0,0:0|0:0,0:0:0:0:
219,65,29508,6,0,B|275:90|275:90|334:84,1,105,2|8,0:2|0:0,0:0:0:0:
379,103,29977,2,0,P|393:129|414:148,1,52.5,2|0,0:2|0:0,0:0:0:0:
449,193,30290,2,0,P|476:197|507:195,2,52.5,8|2|2,0:0|0:2|0:2,0:0:0:0:
366,288,30915,2,0,L|251:273,1,105,2|0,0:0|0:0,0:0:0:0:
193,168,31540,6,0,P|117:148|41:166,2,157.5,2|0|0,0:0|0:0|0:0,0:0:0:0:
317,146,32790,1,2,0:0:0:0:
317,146,33102,5,0,0:0:0:0:
317,146,33415,2,0,P|391:143|426:209,1,157.5,2|0,0:0|0:0,0:0:0:0:
413,271,34040,2,0,L|251:286,2,157.5,2|0|2,0:0|0:0|0:0,0:0:0:0:
486,168,35290,6,0,P|473:117|442:75,1,105,2|0,0:0|0:0,0:0:0:0:
320,45,35915,2,0,L|211:48,1,105,6|0,0:2|0:0,0:0:0:0:
114,123,36540,2,0,B|81:186|145:208|112:278,2,157.5,2|0|0,0:0|0:0|0:0,0:0:0:0:
237,150,37790,1,2,0:0:0:0:
360,126,38102,1,0,0:0:0:0:
415,239,38415,6,0,L|392:346,1,105,2|0,0:0|0:0,0:0:0:0:
266,346,39040,2,0,L|288:243,1,105,2|0,0:0|0:0,0:0:0:0:
181,175,39665,2,0,P|138:181|112:174,2,70,8|8|8,0:0|0:0|0:0,0:0:0:0:
240,115,40290,2,0,B|294:124|294:124|343:114,1,105,2|8,0:0|0:0,0:0:0:0:
462,156,40915,5,4,0:0:0:0:
392,259,41227,2,0,P|387:312|398:363,2,105,8|2|8,0:0|0:2|0:0,0:0:0:0:
462,156,42165,1,2,0:2:0:0:
381,57,42477,2,0,P|337:31|286:37,1,105,8|2,0:0|0:2,0:0:0:0:
175,97,43102,1,8,0:0:0:0:
86,187,43415,6,0,L|101:299,1,105,2|8,0:2|0:0,0:0:0:0:
159,313,43883,2,0,B|208:336|261:314,1,105
288,257,44352,2,0,B|296:206|296:206|286:135,1,105,8|2,0:0|0:2,0:0:0:0:
368,54,44977,2,0,P|418:44|468:59,2,105,8|2|8,0:0|0:2|0:0,0:0:0:0:
245,84,45915,1,6,0:2:0:0:
124,46,46227,6,0,P|76:59|17:46,2,105,8|2|8,0:0|0:2|0:0,0:0:0:0:
185,60,47008,2,0,L|290:104,1,105
335,134,47477,1,8,0:0:0:0:
410,234,47790,2,0,P|420:257|420:283,2,52.5,2|0|8,0:2|0:0|0:0,0:0:0:0:
287,260,48415,6,0,B|227:251|227:251|216:263|188:272,1,105,2|8,0:2|0:0,0:0:0:0:
135,239,48883,2,0,P|109:193|102:141,1,105
187,47,49508,2,0,L|312:39,1,105
351,61,49977,1,8,0:0:0:0:
442,147,50290,2,0,P|444:199|437:251,1,105,2|8,0:2|0:0,0:0:0:0:
311,245,50915,6,0,P|222:200|150:267,1,210,6|8,0:2|0:0,0:0:0:0:
104,311,51696,2,0,B|54:318|54:318|-8:311,2,105,2|0|8,0:2|0:0|0:0,0:0:0:0:
63,191,52633,1,2,0:2:0:0:
63,191,52790,2,0,P|75:140|65:89,1,105,8|0,0:0|0:0,0:0:0:0:
180,36,53415,6,0,B|231:9|302:82|385:43,1,210,6|8,0:2|0:0,0:0:0:0:
437,78,54196,2,0,L|458:192,1,105,2|0,0:2|0:0,0:0:0:0:
371,274,54821,2,0,L|351:170,1,105,8|2,0:0|0:2,0:0:0:0:
295,141,55290,1,8,0:0:0:0:
196,218,55602,1,8,0:3:0:0:
95,142,55915,6,0,L|107:32,2,105,6|0|2,0:2|0:0|0:2,0:0:0:0:
196,218,56852,1,0,0:0:0:0:
249,103,57165,2,0,P|297:121|347:109,1,105,2|0,0:2|0:0,0:0:0:0:
463,158,57790,2,0,P|451:208|463:258,1,105,2|0,0:2|0:0,0:0:0:0:
361,333,58415,6,0,P|314:352|262:346,1,105,2|0,0:2|0:0,0:0:0:0:
218,299,58883,2,0,L|222:183,1,105
173,154,59352,1,0,0:0:0:0:
62,211,59665,2,0,L|58:315,2,105,2|0|0,0:2|0:0|0:0,0:0:0:0:
34,152,60446,2,0,P|29:127|34:101,2,52.5,8|8|8,0:0|0:0|0:0,0:0:0:0:
256,192,60915,12,0,62165,0:0:0:0:
371,145,63415,6,0,P|378:94|367:43,2,105,4|8|2,0:0|0:0|0:2,0:0:0:0:
251,185,64352,1,8,0:0:0:0:
148,110,64665,2,0,L|38:127,1,105,2|8,0:2|0:0,0:0:0:0:
54,251,65290,2,0,L|157:234,1,105,2|8,0:2|0:0,0:0:0:0:
276,277,65915,6,0,B|312:314|312:314|380:331,1,105,2|8,0:2|0:0,0:0:0:0:
467,253,66540,2,0,P|478:203|464:153,1,105,2|8,0:2|0:0,0:0:0:0:
362,78,67165,1,2,0:2:0:0:
239,48,67477,2,0,L|125:49,2,105,8|2|8,0:0|0:2|0:0,0:0:0:0:
362,78,68415,6,0,P|396:174|356:268,1,210,2|2,0:2|0:2,0:0:0:0:
235,306,69352,1,8,0:0:0:0:
116,263,69665,2,0,L|11:274,2,105,2|8|2,0:2|0:0|0:2,0:0:0:0:
168,148,70602,1,8,0:0:0:0:
272,75,70915,6,0,B|354:66|354:66|388:83,1,105,2|8,0:2|0:0,0:0:0:0:
432,187,71540,2,0,P|463:193|492:188,2,52.5,2|2|10,0:2|0:2|0:2,0:0:0:0:
377,220,72008,2,0,P|344:260|333:310,1,105,6|0,0:2|0:0,0:0:0:0:
207,311,72633,2,0,P|195:260|162:220,1,105,6|0,0:2|0:0,0:0:0:0:
77,50,73415,6,0,P|124:71|174:58,1,105,4|8,0:0|0:0,0:0:0:0:
299,43,74040,1,2,0:2:0:0:
404,112,74352,1,8,0:0:0:0:
352,227,74665,2,0,L|318:341,1,105,2|8,0:2|0:0,0:0:0:0:
198,355,75290,1,2,0:2:0:0:
75,326,75602,1,8,0:0:0:0:
88,199,75915,6,0,P|97:148|84:98,1,105,2|8,0:2|0:0,0:0:0:0:
199,46,76540,2,0,P|250:55|300:42,1,105,2|8,0:2|0:0,0:0:0:0:
418,87,77165,1,2,0:2:0:0:
456,206,77477,2,0,B|465:262|465:262|457:317,2,105,8|2|8,0:0|0:2|0:0,0:0:0:0:
334,169,78415,6,0,B|301:195|262:192|262:192|259:232|259:232|210:217|170:248,1,210,6|2,0:2|0:2,0:0:0:0:
66,177,79352,1,8,0:0:0:0:
137,72,79665,2,0,B|219:69|219:69|248:52,1,105,2|8,0:2|0:0,0:0:0:0:
331,143,80290,2,0,B|334:225|334:225|351:254,1,105,2|8,0:2|0:0,0:0:0:0:
267,344,80915,5,2,0:2:0:0:
168,265,81227,2,0,P|124:235|70:235,1,105,8|2,0:0|0:2,0:0:0:0:
54,109,81852,1,8,0:0:0:0:
107,76,82008,1,2,0:0:0:0:
162,45,82165,2,0,B|232:15|244:75|341:51|341:51|317:174|369:174|421:221|481:166,1,420,4|6,0:0|0:2,0:0:0:0:
46,136,93415,6,0,P|95:122|142:143,1,105,4|8,0:0|0:0,0:0:0:0:
212,248,94040,1,2,0:2:0:0:
319,314,94352,2,0,B|389:305|389:305|423:278,1,105,8|2,0:0|0:2,0:0:0:0:
462,166,94977,2,0,L|483:39,2,105,8|2|8,0:0|0:2|0:0,0:0:0:0:
336,183,95915,5,2,0:2:0:0:
249,90,96227,2,0,P|201:108|149:105,1,105,8|2,0:0|0:2,0:0:0:0:
63,197,96852,1,8,0:0:0:0:
96,318,97165,2,0,P|133:356|192:362,1,105,2|8,0:2|0:0,0:0:0:0:
302,325,97790,2,0,L|310:220,1,105,2|8,0:2|0:0,0:0:0:0:
229,123,98415,5,4,0:0:0:0:
150,221,98727,1,8,0:0:0:0:
33,173,99040,2,0,B|33:87|33:87|50:67,1,105,2|8,0:2|0:0,0:0:0:0:
168,43,99665,2,0,P|220:43|262:73,2,105,2|8|2,0:2|0:0|0:2,0:0:0:0:
142,166,100602,1,8,0:0:0:0:
200,277,100915,6,0,B|254:285|254:285|313:273,1,105,2|8,0:2|0:0,0:0:0:0:
416,219,101540,1,2,0:2:0:0:
444,96,101852,1,8,0:0:0:0:
324,54,102165,6,0,B|276:62|276:62|215:53,1,105,2|8,0:2|0:0,0:0:0:0:
103,101,102790,2,0,P|91:74|88:43,2,52.5,8|8|8,0:0|0:0|0:0,0:0:0:0:
138,152,103258,1,8,0:0:0:0:
302,249,108415,5,4,0:0:0:0:
222,150,108727,2,0,P|228:99|221:47,2,105,8|2|8,0:0|0:2|0:0,0:0:0:0:
170,188,109508,2,0,L|61:203,1,105,2|0,0:2|0:0,0:0:0:0:
27,252,109977,1,8,0:0:0:0:
118,338,110290,2,0,L|225:323,1,105,2|8,0:2|0:0,0:0:0:0:
313,236,110915,5,2,0:2:0:0:
396,141,111227,2,0,P|448:137|499:145,2,105,8|2|8,0:0|0:2|0:0,0:0:0:0:
356,91,112008,2,0,P|306:104|256:93,1,105,2|0,0:2|0:0,0:0:0:0:
199,66,112477,1,8,0:0:0:0:
76,95,112790,2,0,L|67:209,1,105,2|8,0:2|0:0,0:0:0:0:
129,309,113415,5,6,0:2:0:0:
230,246,113727,1,8,0:0:0:0:
343,301,114040,2,0,P|394:305|438:279,1,105,2|8,0:2|0:0,0:0:0:0:
474,227,114508,2,0,B|448:118,1,105,2|0,0:2|0:0,0:0:0:0:
430,64,114977,1,8,0:0:0:0:
304,48,115290,2,0,P|252:41|209:68,1,105,2|8,0:2|0:0,0:0:0:0:
223,193,115915,1,2,0:2:0:0:
127,275,116227,6,0,B|72:281|72:281|23:270,2,105,8|2|8,0:0|0:2|0:0,0:0:0:0:
183,304,117008,2,0,P|223:336|274:337,1,105,2|0,0:2|0:0,0:0:0:0:
332,312,117477,1,8,0:0:0:0:
441,248,117790,1,2,0:2:0:0:
390,132,118102,1,8,0:0:0:0:
277,189,118415,5,6,0:2:0:0:
168,125,118727,2,0,B|84:119|84:119|69:104,2,105,8|2|8,0:0|0:2|0:0,0:0:0:0:
214,83,119508,2,0,P|247:60|314:73,1,105,2|0,0:2|0:0,0:0:0:0:
357,110,119977,1,8,0:0:0:0:
425,215,120290,2,0,B|410:294|410:294|377:330,1,105,2|8,0:2|0:0,0:0:0:0:
273,351,120915,1,2,0:2:0:0:
152,314,121227,6,0,B|110:300|110:300|40:330,2,105,8|2|8,0:0|0:2|0:0,0:0:0:0:
208,285,122008,2,0,P|223:255|225:178,1,105,2|0,0:2|0:0,0:0:0:0:
202,126,122477,1,8,0:0:0:0:
299,45,122790,2,0,P|340:26|401:37,1,105,2|8,0:2|0:0,0:0:0:0:
455,147,123415,5,6,0:2:0:0:
403,261,123727,2,0,P|402:314|422:367,2,105,8|2|8,0:0|0:2|0:0,0:0:0:0:
371,204,124508,2,0,P|328:177|276:180,1,105,2|0,0:2|0:0,0:0:0:0:
226,218,124977,1,8,0:0:0:0:
143,313,125290,1,2,0:2:0:0:
33,251,125602,1,8,0:0:0:0:
30,124,125915,6,0,B|97:136|97:136|135:119,1,105,2|8,0:2|0:0,0:0:0:0:
236,52,126540,2,0,P|268:92|274:143,1,105,2|8,0:2|0:0,0:0:0:0:
321,185,127008,2,0,P|351:202|424:193,1,105,2|0,0:2|0:0,0:0:0:0:
479,176,127477,1,8,0:0:0:0:
444,54,127790,1,8,0:0:0:0:
319,36,128102,1,8,0:0:0:0:
206,93,128415,1,6,0:2:0:0:
94,33,128727,5,8,0:0:0:0:
35,144,129040,2,0,P|43:194|14:236,1,105,2|8,0:0|0:0,0:0:0:0:
50,357,129665,2,0,B|98:331|158:356|158:356|146:318|146:318|183:329|213:321,1,210,2|2,0:0|0:0,0:0:0:0:
324,358,130602,1,8,0:0:0:0:
405,262,130915,6,0,P|454:276|513:262,2,105,6|8|2,0:2|0:0|0:0,0:0:0:0:
281,285,131852,1,8,0:0:0:0:
156,262,132165,2,0,B|102:217|102:217|137:139|88:86,1,210,2|2,0:0|0:0,0:0:0:0:
202,33,133102,1,8,0:0:0:0:
325,59,133415,6,0,B|385:64|385:64|430:46,1,105,6|8,0:2|0:0,0:0:0:0:
484,159,134040,2,0,L|466:264,1,105,2|8,0:0|0:0,0:0:0:0:
363,335,134665,1,2,0:0:0:0:
243,295,134977,2,0,P|191:291|149:321,2,105,8|2|8,0:0|0:0|0:0,0:0:0:0:
336,210,135915,6,0,B|345:173|376:160|376:160|470:161|462:66,1,210,6|2,0:2|0:0,0:0:0:0:
336,69,136852,1,8,0:0:0:0:
236,146,137165,2,0,P|209:187|201:263,1,105,2|8,0:0|0:0,0:0:0:0:
102,322,137790,2,0,P|75:280|67:205,1,105,8|8,0:3|0:3,0:0:0:0:
53,99,138415,6,0,B|100:126|157:107|157:107|181:145|181:145|207:132|236:145,1,210,4|0,0:2|0:0,0:0:0:0:
339,73,139352,1,0,0:0:0:0:
460,106,139665,2,0,B|424:174|499:216|466:312,1,210
342,331,140602,1,0,0:0:0:0:
215,330,140915,2,0,L|56:358,2,157.5
61,100,143415,6,0,L|41:211,1,105,6|0,0:0|0:0,0:0:0:0:
80,324,144040,2,0,B|131:335|131:335|194:325,1,105
226,280,144508,2,0,P|275:264|324:280,1,105
434,341,145133,2,0,B|418:289|458:257|458:257|434:221|454:177,1,157.5
445,69,145915,6,0,L|468:22,2,52.5
391,104,146383,2,0,P|340:111|287:106,1,105
163,84,147008,2,0,B|137:99|103:88|103:88|129:147|107:178,1,157.5
29,281,147790,2,0,P|22:303|27:338,2,52.5,8|8|8,0:0|0:0|0:0,0:0:0:0:
91,282,148258,1,2,0:0:0:0:
153,269,148415,6,0,B|185:281|221:272|221:272|245:310,1,105,4|0,0:0|0:0,0:0:0:0:
353,358,149040,2,0,B|430:355|430:355|449:331,1,105,8|0,0:0|0:0,0:0:0:0:
486,283,149508,2,0,P|474:231|481:180,1,105,2|8,0:2|0:0,0:0:0:0:
488,117,149977,1,2,0:2:0:0:
379,49,150290,2,0,P|331:31|279:33,1,105,8|2,0:0|0:2,0:0:0:0:
200,131,150915,5,6,0:2:0:0:
76,105,151227,1,2,0:2:0:0:
26,221,151540,2,0,B|22:274|22:274|53:327,1,105,8|0,0:0|0:0,0:0:0:0:
101,352,152008,2,0,L|230:344,1,105,2|8,0:2|0:0,0:0:0:0:
257,309,152477,1,2,0:2:0:0:
382,318,152790,2,0,P|409:274|401:215,1,105,8|8,0:3|0:3,0:0:0:0:
346,111,153415,6,0,L|448:74,1,105,6|0,0:2|0:0,0:0:0:0:
338,6,154040,2,0,L|239:41,1,105,2|0,0:0|0:0,0:0:0:0:
200,162,154665,1,2,0:0:0:0:
246,278,154977,2,0,P|266:324|251:374,2,105,0|2|0,0:0|0:0|0:0,0:0:0:0:
127,234,155915,6,0,B|93:207|33:231|33:231|11:176|34:105,1,210,2|2,0:0|0:0,0:0:0:0:
144,71,156852,1,0,0:0:0:0:
261,117,157165,2,0,B|315:98|370:120|370:120|346:180|373:214,1,210,2|2,0:0|0:0,0:0:0:0:
427,246,157946,2,0,P|460:254|478:249,2,52.5,8|8|8,0:0|0:0|0:0,0:0:0:0:
256,192,158415,12,6,159665,0:0:0:0:
46,116,170915,6,0,B|80:101|116:116|116:116|150:85|150:85|189:98|248:85,1,210,6|2,0:0|0:3,0:0:0:0:
344,159,171852,1,0,0:0:0:0:
444,235,172165,2,0,P|420:329|323:327,1,210
305,75,173415,6,0,P|218:34|170:116,1,210,2|2,0:0|0:3,0:0:0:0:
198,239,174352,1,0,0:0:0:0:
261,350,174665,2,0,P|362:330|461:362,1,210
459,110,175915,6,0,B|397:106|366:131|366:131|314:105|314:105|287:128|241:127,1,210,2|2,0:0|0:3,0:0:0:0:
20,71,177165,2,0,P|36:148|5:289,1,210
255,338,178415,6,0,B|317:357|368:338|368:338|379:317|385:280|384:234,1,210,2|2,0:0|0:3,0:0:0:0:
245,34,179665,6,0,L|238:87,1,52.5,4|4,0:3|0:3,0:0:0:0:
120,131,180133,2,0,P|93:137|65:132,2,52.5,8|4|4,0:3|0:3|0:3,0:0:0:0:
157,182,180602,2,0,P|182:178|208:184,1,52.5,8|2,0:3|0:3,0:0:0:0:
265,212,180915,6,0,P|362:239|442:178,1,210
235,34,182165,5,4,0:0:0:0:
117,78,182477,2,0,L|124:189,1,105,8|2,0:0|0:0,0:0:0:0:
196,286,183102,1,8,0:0:0:0:
305,222,183415,2,0,P|344:232|413:220,1,105,2|8,0:0|0:0,0:0:0:0:
431,98,184040,2,0,P|379:87|328:98,1,105,2|8,0:0|0:0,0:0:0:0:
217,157,184665,6,0,B|205:244|205:244|187:266,1,105,2|8,0:0|0:0,0:0:0:0:
79,310,185290,1,2,0:0:0:0:
18,199,185602,2,0,P|56:164|107:154,1,105,8|2,0:0|0:0,0:0:0:0:
165,42,186227,1,8,0:0:0:0:
289,60,186540,2,0,B|353:78|353:78|390:70,1,105,2|8,0:0|0:0,0:0:0:0:
453,180,187165,6,0,P|441:277|345:290,1,210,6|2,0:2|0:0,0:0:0:0:
263,192,188102,1,8,0:0:0:0:
263,192,188415,2,0,L|251:76,2,105,2|8|2,0:0|0:0|0:0,0:0:0:0:
353,278,189352,1,8,0:0:0:0:
463,216,189665,6,0,P|453:163|461:108,1,105,6|8,0:2|0:0,0:0:0:0:
349,51,190290,2,0,P|356:23|350:-3,2,52.5,2|0|8,0:0|0:0|0:0,0:0:0:0:
300,91,190758,2,0,L|192:99,1,105,6|0,0:2|0:0,0:0:0:0:
147,215,191383,2,0,P|161:266|154:319,1,105,6|0,0:2|0:0,0:0:0:0:
344,327,192165,5,4,0:0:0:0:
434,239,192477,2,0,B|447:184|447:184|436:125,2,105,8|2|8,0:0|0:0|0:0,0:0:0:0:
310,214,193415,2,0,P|259:204|205:221,1,105,2|8,0:0|0:0,0:0:0:0:
89,179,194040,2,0,P|76:133|96:73,1,105,2|8,0:0|0:0,0:0:0:0:
212,42,194665,5,2,0:0:0:0:
329,86,194977,2,0,B|414:103|414:103|433:95,1,105,8|2,0:0|0:0,0:0:0:0:
440,221,195602,1,8,0:0:0:0:
352,311,195915,2,0,P|299:311|250:328,1,105,2|8,0:0|0:0,0:0:0:0:
129,363,196540,1,2,0:0:0:0:
29,286,196852,1,8,0:0:0:0:
70,166,197165,6,0,B|119:150|169:167|169:167|205:139|205:139|242:153|272:138,1,210,6|2,0:2|0:0,0:0:0:0:
384,95,198102,1,8,0:0:0:0:
469,188,198415,2,0,B|476:240|476:240|462:292,1,105,2|8,0:0|0:0,0:0:0:0:
342,330,199040,2,0,B|328:279|328:279|335:227,1,105,2|8,0:0|0:0,0:0:0:0:
316,102,199665,5,6,0:2:0:0:
202,48,199977,2,0,P|150:36|101:46,2,105,8|2|8,0:0|0:0|0:0,0:0:0:0:
316,102,200915,2,0,B|361:119|424:102|424:102|489:118|478:192,1,210,6|0,0:2|0:0,0:0:0:0:
286,337,202165,6,0,B|175:354|175:354|129:335,1,157.5,4|2,0:0|0:0,0:0:0:0:
92,288,202790,2,0,P|81:236|89:185,1,105,8|0,0:0|0:0,0:0:0:0:
134,141,203258,2,0,B|164:152|189:141|189:141|210:164|210:164|248:150|278:161,1,157.5,2|2,0:0|0:0,0:0:0:0:
335,48,204040,2,0,P|386:47|428:77,1,105,8|2,0:0|0:0,0:0:0:0:
484,191,204665,6,0,B|483:291|483:291|441:341,1,157.5,2|2,0:0|0:0,0:0:0:0:
382,336,205290,2,0,P|331:324|280:337,1,105,8|0,0:0|0:0,0:0:0:0:
228,298,205758,2,0,P|208:251|211:199,1,105,2|2,0:0|0:0,0:0:0:0:
228,138,206227,1,8,0:0:0:0:
142,45,206540,2,0,L|78:53,2,52.5,2|8|8,0:0|0:2|0:2,0:0:0:0:
202,27,207008,5,4,0:0:0:0:
