osu file format v12

[General]
AudioFilename: Born To Be.mp3
AudioLeadIn: 1000
PreviewTime: 61935
Countdown: 0
SampleSet: Normal
StackLeniency: 0.7
Mode: 0
LetterboxInBreaks: 0
WidescreenStoryboard: 0

[Editor]
DistanceSpacing: 1.2
BeatDivisor: 4
GridSize: 4
TimelineZoom: 1.4

[Metadata]
Title:Born To Be (TV size)
TitleUnicode:Born To Be (TV size)
Artist:nano
ArtistUnicode:ナノ
Creator:Snow Lover
Version:Hard
Source:魔法戦争
Tags:ed anime Mahou Sensou Magical Warfare
BeatmapID:370239
BeatmapSetID:149947

[Difficulty]
HPDrainRate:4
CircleSize:4
OverallDifficulty:5
ApproachRate:7
SliderMultiplier:1.6
SliderTickRate:1

[Events]
//Background and Video events
0,0,"BG.jpg",0,0
Video,0,"video.avi"
//Break Periods
//Storyboard Layer 0 (Background)
//Storyboard Layer 1 (Fail)
//Storyboard Layer 2 (Pass)
//Storyboard Layer 3 (Foreground)
//Storyboard Sound Samples
//Background Colour Transformations
3,100,163,162,255

[TimingPoints]
685,312.5,4,1,1,60,1,0
685,-166.666666666667,4,1,2,25,0,0
2247,-166.666666666667,4,1,2,30,0,0
3497,-166.666666666667,4,1,2,35,0,0
4669,-166.666666666667,4,3,0,45,0,0
5060,-166.666666666667,4,1,1,55,0,0
5685,-125,4,1,1,70,0,0
15685,-125,4,2,0,40,0,0
17794,-125,4,2,0,5,0,0
18185,-200,4,3,0,60,0,0
18810,-200,4,3,0,55,0,0
19747,-125,4,1,1,80,0,0
20685,-125,4,1,1,70,0,0
30685,-100,4,1,1,70,0,0
30997,-125,4,1,1,70,0,0
33185,-100,4,1,1,70,0,0
33497,-125,4,1,1,70,0,0
35685,-100,4,1,1,70,0,0
35997,-125,4,1,1,70,0,0
38185,-100,4,1,1,70,0,0
38497,-125,4,1,1,70,0,0
39278,-125,4,1,1,80,0,0
40060,-100,4,1,1,80,0,0
40685,-125,4,1,1,70,0,0
50841,-200,4,3,1,55,0,0
55060,-200,4,3,1,65,0,0
55685,-166.666666666667,4,1,1,70,0,0
56935,-142.857142857143,4,1,1,70,0,0
58185,-125,4,1,1,70,0,0
59435,-111.111111111111,4,1,1,80,0,0
60841,-111.111111111111,4,1,2,60,0,0
61935,-166.666666666667,4,2,0,30,0,0
63185,-100,4,1,1,80,0,1
81935,-142.857142857143,4,1,1,70,0,0

[HitObjects]
112,152,685,6,0,P|156:132|212:132,1,95.9999970703126,2|0,0:0|0:0,0:0:0:0:
336,220,1310,2,0,P|383:218|427:198,1,95.9999970703126,2|0,0:0|0:0,0:0:0:0:
396,80,1778,6,0,P|348:81|304:101,1,95.9999970703126,2|0,0:0|0:0,0:0:0:0:
280,192,2247,2,0,L|300:296,1,95.9999970703126,2|2,0:0|0:0,0:0:0:0:
224,332,2716,2,0,L|216:280,1,47.9999985351563
140,324,3028,2,0,L|148:376,1,47.9999985351563,0|2,0:0|0:0,0:0:0:0:
40,224,3497,5,2,0:0:0:0:
168,176,3810,1,2,0:0:0:0:
112,60,4122,1,2,0:0:0:0:
112,60,4278,1,0,0:0:0:0:
112,60,4435,2,0,P|148:68|212:40,1,95.9999970703126,2|2,0:0|0:0,0:0:0:0:
376,44,5060,6,0,L|370:93,1,47.9999985351563,8|0,0:0|0:0,0:0:0:0:
356,208,5372,1,4,0:0:0:0:
356,208,5685,6,0,P|312:232|228:220,1,128,0|8,0:0|0:0,0:0:0:0:
180,144,6153,2,0,L|168:76,1,64,0|0,0:0|0:0,0:0:0:0:
138,231,6622,2,0,L|126:294,2,64,8|0|0,0:0|0:0|0:0,0:0:0:0:
288,140,7247,2,0,L|268:12,1,128,8|0,0:0|0:0,0:0:0:0:
432,204,7872,6,0,P|380:236|312:224,1,128,4|0,0:0|0:0,0:0:0:0:
224,208,8340,2,0,L|152:220,1,64,0|0,0:0|0:0,0:0:0:0:
56,140,8653,2,0,L|128:128,1,64,0|0,0:0|0:0,0:0:0:0:
208,20,8965,2,0,L|136:32,1,64,0|0,0:0|0:0,0:0:0:0:
50,219,9435,6,0,P|42:283|78:339,1,128,4|0,0:0|0:0,0:0:0:0:
240,232,10060,2,0,P|248:168|212:112,1,128,0|0,0:0|0:0,0:0:0:0:
332,64,10685,6,0,L|480:48,1,128,4|8,0:0|0:0,0:0:0:0:
494,130,11153,2,0,L|510:206,1,64,0|0,0:0|0:0,0:0:0:0:
332,228,11622,2,0,L|288:176,2,64,8|0|0,0:0|0:0|0:0,0:0:0:0:
288,348,12247,2,0,B|228:368|228:368|160:352,1,128,8|0,0:0|0:0,0:0:0:0:
56,228,12872,6,0,L|36:96,1,128,4|0,0:0|0:0,0:0:0:0:
144,40,13341,2,0,L|128:112,1,64
220,136,13653,2,0,L|261:87,1,64,0|0,0:0|0:0,0:0:0:0:
328,196,13966,2,0,L|260:212,1,64
164,160,14278,5,0,0:0:0:0:
164,160,14435,2,0,P|104:168|40:188,1,128,4|0,0:0|0:0,0:0:0:0:
76,336,15060,2,0,P|136:328|200:308,1,128,0|0,0:0|0:0,0:0:0:0:
256,192,15685,12,0,17872,0:0:0:0:
280,292,18185,6,0,P|324:304|428:264,2,160,2|2|2,0:0|0:0|0:0,0:0:0:0:
256,188,19747,1,10,0:0:0:0:
192,100,19903,2,0,L|200:68,2,32
100,160,20216,5,2,0:0:0:0:
100,160,20372,1,6,0:0:0:0:
164,252,20528,1,2,0:0:0:0:
164,252,20685,1,6,0:0:0:0:
272,332,20997,5,0,0:0:0:0:
360,292,21153,2,0,L|388:324,2,32,0|0|2,0:0|0:0|0:0,0:0:0:0:
412,212,21466,2,0,P|436:156|424:92,2,128
248,220,22403,1,0,0:0:0:0:
248,220,22560,2,0,L|236:140,1,64,2|0,0:0|0:0,0:0:0:0:
176,92,22872,2,0,P|128:88|52:136,1,128,0|6,0:0|0:0,0:0:0:0:
144,316,23497,6,0,L|224:308,1,64
288,344,23810,2,0,L|368:348,1,64,2|0,0:0|0:0,0:0:0:0:
452,304,24278,2,0,P|484:236|476:184,1,128
352,116,24903,2,0,L|296:128,2,32,0|0|2,0:0|0:0|0:0,0:0:0:0:
352,200,25216,1,0,0:0:0:0:
272,216,25372,2,0,P|248:272|272:336,2,128,0|6|0,0:0|0:0|0:0,0:0:0:0:
352,200,26153,5,0,0:0:0:0:
352,200,26310,2,0,L|420:196,1,64,2|0,0:0|0:0,0:0:0:0:
344,64,26778,1,0,0:0:0:0:
156,128,27091,1,0,0:0:0:0:
312,212,27403,1,0,0:0:0:0:
312,212,27560,2,0,L|296:288,2,64,2|0|0,0:0|0:0|0:0,0:0:0:0:
148,328,28185,6,0,B|116:332|84:316|84:316|64:256,1,128,6|0,0:0|0:0,0:0:0:0:
80,172,28653,1,0,0:0:0:0:
80,172,28810,2,0,P|88:136|76:88,1,64,2|0,0:0|0:0,0:0:0:0:
200,56,29278,5,0,0:0:0:0:
308,140,29591,1,0,0:0:0:0:
192,216,29903,1,0,0:0:0:0:
192,216,30060,2,0,B|188:252|188:252|208:284,1,64,2|10,0:0|0:0,0:0:0:0:
256,336,30372,2,0,B|228:352|228:352|192:352,1,64,10|6,0:0|0:0,0:0:0:0:
120,332,30685,6,0,B|88:328|64:344|64:344|80:280|24:248,1,160,4|2,0:0|0:0,0:0:0:0:
84,168,31153,5,0,0:0:0:0:
84,168,31310,2,0,P|100:136|104:100,1,64,2|0,0:0|0:0,0:0:0:0:
204,156,31622,2,0,P|200:120|184:84,1,64,2|0,0:0|0:0,0:0:0:0:
296,76,31935,2,0,P|272:48|240:28,1,64,2|0,0:0|0:0,0:0:0:0:
152,40,32247,2,0,L|64:48,1,64,2|0,0:0|0:0,0:0:0:0:
44,164,32560,2,0,L|132:156,1,64,2|0,0:0|0:0,0:0:0:0:
168,268,32872,2,0,L|80:276,1,64,2|0,0:0|0:0,0:0:0:0:
44,164,33185,6,0,P|12:128|76:44,1,160,4|2,0:0|0:0,0:0:0:0:
140,124,33653,5,0,0:0:0:0:
156,212,33810,2,0,L|172:288,1,64,2|0,0:0|0:0,0:0:0:0:
248,224,34122,2,0,L|232:148,1,64,2|0,0:0|0:0,0:0:0:0:
312,108,34435,2,0,L|325:170,1,64,2|0,0:0|0:0,0:0:0:0:
404,120,34747,2,0,L|390:57,1,64,2|0,0:0|0:0,0:0:0:0:
288,28,35060,2,0,P|224:24|160:68,1,128,2|2,0:0|0:0,0:0:0:0:
280,192,35685,6,0,B|288:252|240:280|240:280|308:312,1,160,4|2,0:0|0:0,0:0:0:0:
376,340,36153,5,0,0:0:0:0:
452,288,36310,2,0,P|468:264|472:228,1,64,2|0,0:0|0:0,0:0:0:0:
424,160,36622,2,0,P|400:144|364:140,1,64,2|0,0:0|0:0,0:0:0:0:
300,188,36935,2,0,P|284:212|280:248,1,64,2|0,0:0|0:0,0:0:0:0:
324,316,37247,2,0,P|348:332|384:336,1,64,2|0,0:0|0:0,0:0:0:0:
448,276,37560,2,0,L|440:200,1,64,2|0,0:0|0:0,0:0:0:0:
296,160,37872,2,0,L|304:236,1,64,2|0,0:0|0:0,0:0:0:0:
192,316,38185,6,0,P|152:320|104:328,2,80,4|0|6,0:0|0:0|0:0,0:0:0:0:
300,280,38653,5,2,0:0:0:0:
216,328,38810,1,6,0:0:0:0:
168,244,38966,1,2,0:0:0:0:
252,196,39122,2,0,P|252:160|248:120,1,64,6|10,0:0|0:0,0:0:0:0:
140,36,39435,6,0,P|136:68|132:112,1,64,10|10,0:0|0:0,0:0:0:0:
98,199,39747,1,10,0:0:0:0:
212,168,39903,1,10,0:0:0:0:
296,248,40060,2,0,L|288:288,8,40
468,228,40997,6,0,L|520:168,2,64
380,224,41466,1,0,0:0:0:0:
316,164,41622,2,0,L|302:101,2,64,8|0|0,0:0|0:0|0:0,0:0:0:0:
296,248,42091,1,0,0:0:0:0:
220,288,42247,2,0,B|144:280|144:280|128:300|88:320,2,128,8|0|8,0:0|0:0|0:0,0:0:0:0:
332,356,43185,6,0,P|360:300|352:216,1,128,0|8,0:0|0:0,0:0:0:0:
284,184,43653,2,0,L|192:192,1,64
340,68,44122,2,0,P|400:96|484:84,1,128,8|0,0:0|0:0,0:0:0:0:
372,200,44747,2,0,L|384:264,1,64,8|0,0:0|0:0,0:0:0:0:
312,344,45060,2,0,P|248:336|176:356,2,128,0|8|0,0:0|0:0|0:0,0:0:0:0:
260,236,45997,6,0,P|248:212|248:172,1,64,8|0,0:0|0:0,0:0:0:0:
360,152,46310,2,0,P|372:176|372:216,1,64
268,144,46622,2,0,P|292:132|332:132,1,64,8|0,0:0|0:0,0:0:0:0:
352,244,46935,2,0,P|328:256|288:256,1,64
200,204,47247,2,0,P|140:204|84:240,1,128,8|0,0:0|0:0,0:0:0:0:
48,316,47716,2,0,L|68:392,1,64,0|8,0:0|0:0,0:0:0:0:
208,184,48185,6,0,P|212:148|208:120,2,64,0|0|8,0:0|0:0|0:0,0:0:0:0:
148,280,48653,2,0,P|144:316|148:344,1,64
296,324,48966,2,0,P|300:288|296:260,1,64,0|8,0:0|0:0,0:0:0:0:
232,164,49278,2,0,L|164:172,1,64
76,236,49591,2,0,L|8:244,1,64,0|8,0:0|0:0,0:0:0:0:
208,264,50060,5,0,0:0:0:0:
208,264,50216,1,0,0:0:0:0:
228,128,50372,2,0,L|232:96,4,32,0|0|0|0|4,0:0|0:0|0:0|0:0|0:0,0:0:0:0:
248,200,50997,6,0,L|256:256,2,40,0|0|8,0:0|0:0|0:0,0:0:0:0:
308,128,51466,2,0,P|344:116|392:124,1,80
428,188,52091,1,0,0:0:0:0:
428,188,52247,2,0,P|392:200|344:192,1,80,0|8,0:0|0:0,0:0:0:0:
280,144,52716,2,0,L|272:92,2,40
232,216,53185,6,0,P|196:232|148:228,1,80,8|0,0:0|0:0,0:0:0:0:
72,144,53810,1,8,0:0:0:0:
72,144,53966,2,0,B|56:52|56:52|56:52,1,80
200,48,54591,2,0,L|188:9,2,40
260,112,55060,2,0,L|248:152,1,40,8|8,0:0|0:0,0:0:0:0:
200,224,55372,2,0,L|212:264,1,40,8|8,0:0|0:0,0:0:0:0:
156,352,55685,6,0,L|132:296,1,47.9999985351563,2|0,0:0|0:0,0:0:0:0:
32,300,55997,2,0,L|49:255,1,47.9999985351563,2|0,0:0|0:0,0:0:0:0:
12,156,56310,2,0,L|80:152,1,47.9999985351563,2|0,0:0|0:0,0:0:0:0:
112,60,56622,2,0,L|44:64,1,47.9999985351563,2|0,0:0|0:0,0:0:0:0:
172,148,56935,6,0,L|296:140,1,111.999996582031,6|2,0:0|0:0,0:0:0:0:
380,208,57403,1,0,0:0:0:0:
296,148,57560,2,0,L|304:92,1,55.9999982910157,2|0,0:0|0:0,0:0:0:0:
452,108,57872,2,0,L|444:164,1,55.9999982910157,2|0,0:0|0:0,0:0:0:0:
368,248,58185,6,0,P|336:264|236:256,1,128,4|2,0:0|0:0,0:0:0:0:
208,168,58653,1,0,0:0:0:0:
240,72,58810,2,0,L|264:12,1,64,2|0,0:0|0:0,0:0:0:0:
140,96,59122,2,0,L|164:156,1,64,10|2,0:0|0:0,0:0:0:0:
256,192,59435,5,10,0:0:0:0:
279,283,59591,1,0,0:0:0:0:
212,348,59747,1,10,0:0:0:0:
122,323,59903,1,10,0:0:0:0:
99,232,60060,1,10,0:0:0:0:
167,167,60216,1,10,0:0:0:0:
145,77,60371,1,10,0:0:0:0:
55,52,60528,1,10,0:0:0:0:
168,100,60841,6,0,P|212:96|252:88,4,71.9999978027344,2|2|2|2|2,0:0|0:0|0:0|0:0|0:0,0:0:0:0:
388,240,61935,5,0,0:0:0:0:
388,240,62560,1,0,0:0:0:0:
388,240,63185,6,0,P|380:280|360:320,1,80,4|0,0:0|0:0,0:0:0:0:
264,348,63497,1,8,0:0:0:0:
164,336,63653,2,0,P|120:336|76:352,2,80
264,364,64122,2,0,L|280:276,1,80,8|0,0:0|0:0,0:0:0:0:
148,248,64435,6,0,L|132:160,1,80
192,80,64747,2,0,P|240:88|280:80,1,80,8|0,0:0|0:0,0:0:0:0:
352,20,65060,1,0,0:0:0:0:
380,128,65216,1,0,0:0:0:0:
444,40,65372,2,0,L|528:60,1,80,8|0,0:0|0:0,0:0:0:0:
368,156,65685,6,4,L|452:136,1,80
504,232,65997,2,0,P|512:276|496:320,1,80,8|0,0:0|0:0,0:0:0:0:
404,268,66310,2,0,P|396:224|412:180,2,80,0|0|8,0:0|0:0|0:0,0:0:0:0:
328,344,66778,6,0,P|292:360|168:344,1,160
92,240,67247,2,0,P|128:224|252:240,1,160,8|0,0:0|0:0,0:0:0:0:
288,344,67716,1,0,0:0:0:0:
388,284,67872,2,0,L|336:128,1,160,8|4,0:0|0:0,0:0:0:0:
376,24,68341,6,0,P|404:56|440:72,1,80,0|8,0:0|0:0,0:0:0:0:
312,116,68653,2,0,P|240:136|148:96,1,160
160,92,69122,1,8,0:0:0:0:
92,192,69278,6,0,P|164:212|256:172,1,160
296,84,69747,2,0,L|284:4,2,80,8|0|0,0:0|0:0|0:0,0:0:0:0:
400,132,70216,1,0,0:0:0:0:
400,132,70372,2,0,B|408:212|408:212|360:280,1,160,8|0,0:0|0:0,0:0:0:0:
288,360,70841,5,0,0:0:0:0:
188,316,70997,2,0,P|148:316|108:320,2,80,8|0|0,0:0|0:0|0:0,0:0:0:0:
296,352,71466,2,0,P|340:356|384:348,1,80,0|8,0:0|0:0,0:0:0:0:
452,272,71778,6,0,P|464:204|420:124,1,160
288,120,72247,1,8,0:0:0:0:
340,244,72403,6,0,B|220:260|220:260|240:224,1,160
284,152,72872,1,8,0:0:0:0:
288,64,73028,1,0,0:0:0:0:
216,12,73185,6,0,L|104:20,1,80
40,100,73497,2,0,P|48:144|48:196,1,80,8|0,0:0|0:0,0:0:0:0:
84,284,73810,1,0,0:0:0:0:
84,284,73966,1,0,0:0:0:0:
192,268,74122,2,0,P|236:260|284:264,1,80,8|0,0:0|0:0,0:0:0:0:
360,328,74435,5,0,0:0:0:0:
360,328,74591,1,0,0:0:0:0:
432,244,74747,2,0,B|452:164|452:164|408:92,1,160,8|0,0:0|0:0,0:0:0:0:
320,32,75216,1,0,0:0:0:0:
296,140,75372,2,0,P|214:148|128:148,1,160,8|0,0:0|0:0,0:0:0:0:
40,76,75841,5,0,0:0:0:0:
144,12,75997,2,0,P|184:8|228:8,2,80,8|0|0,0:0|0:0|0:0,0:0:0:0:
72,96,76466,1,0,0:0:0:0:
96,208,76622,2,0,P|96:264|84:296,1,80,8|0,0:0|0:0,0:0:0:0:
208,236,76935,6,0,P|208:180|196:148,1,80
328,216,77247,2,0,P|328:272|260:352,1,160,8|0,0:0|0:0,0:0:0:0:
124,344,77716,1,0,0:0:0:0:
32,240,77872,2,0,P|32:184|100:104,2,160,8|4|8,0:0|0:0|0:0,0:0:0:0:
96,316,78653,5,0,0:0:0:0:
188,284,78810,2,0,P|232:276|284:284,1,80
356,328,79122,2,0,P|395:324|434:332,1,80,8|0,0:0|0:0,0:0:0:0:
500,252,79435,5,0,0:0:0:0:
500,252,79591,1,0,0:0:0:0:
448,160,79747,2,0,B|448:128|460:100|460:100|420:84|372:48,1,160,8|0,0:0|0:0,0:0:0:0:
256,96,80216,1,0,0:0:0:0:
232,220,80372,2,0,B|172:260|92:224|92:224|108:200,1,160,8|0,0:0|0:0,0:0:0:0:
128,120,80841,6,0,P|136:88|128:24,2,80,0|8|0,0:0|0:0|0:0,0:0:0:0:
64,220,81310,1,0,0:0:0:0:
64,232,81388,1,0,0:0:0:0:
64,244,81466,1,0,0:0:0:0:
64,256,81544,1,0,0:0:0:0:
68,276,81622,2,0,L|100:332,4,40,8|0|0|0|4,0:0|0:0|0:0|0:0|0:0,0:0:0:0:
212,56,83185,6,0,P|256:48|328:72,1,111.999996582031,4|0,0:0|0:0,0:0:0:0:
344,160,83653,2,0,L|380:168,2,27.9999991455078,0|0|2,0:0|0:0|0:0,0:0:0:0:
300,248,83966,2,0,L|236:256,2,55.9999982910157
464,336,84591,6,0,P|480:284|468:224,1,111.999996582031
384,216,85060,1,0,0:0:0:0:
300,204,85216,2,0,L|232:212,2,55.9999982910157
360,132,85685,6,0,P|372:76|352:24,1,111.999996582031,4|0,0:0|0:0,0:0:0:0:
244,56,86153,1,0,0:0:0:0:
244,56,86310,2,0,L|168:52,1,55.9999982910157,0|0,0:0|0:0,0:0:0:0:
104,148,86622,2,0,L|180:152,2,55.9999982910157,0|0|0,0:0|0:0|0:0,0:0:0:0:
64,240,87091,2,0,L|-12:244,2,55.9999982910157
152,264,87560,1,4,0:0:0:0:
242,234,87716,1,0,0:0:0:0:
271,325,87872,1,0,0:0:0:0:
360,296,88028,1,0,0:0:0:0:
