osu file format v12

[General]
AudioFilename: Born To Be.mp3
AudioLeadIn: 1000
PreviewTime: 61935
Countdown: 0
SampleSet: Normal
StackLeniency: 0.7
Mode: 0
LetterboxInBreaks: 0
WidescreenStoryboard: 0

[Editor]
DistanceSpacing: 1.2
BeatDivisor: 2
GridSize: 4
TimelineZoom: 1

[Metadata]
Title:Born To Be (TV size)
TitleUnicode:Born To Be (TV size)
Artist:nano
ArtistUnicode:ナノ
Creator:Snow Lover
Version:Easy
Source:魔法戦争
Tags:ed anime Mahou Sensou Magical Warfare
BeatmapID:370354
BeatmapSetID:149947

[Difficulty]
HPDrainRate:2
CircleSize:3
OverallDifficulty:2
ApproachRate:2
SliderMultiplier:0.7
SliderTickRate:1

[Events]
//Background and Video events
0,0,"BG.jpg",0,0
Video,0,"video.avi"
//Break Periods
//Storyboard Layer 0 (Background)
//Storyboard Layer 1 (Fail)
//Storyboard Layer 2 (Pass)
//Storyboard Layer 3 (Foreground)
//Storyboard Sound Samples
//Background Colour Transformations
3,100,163,162,255

[TimingPoints]
685,312.5,4,1,1,60,1,0
685,-100,4,1,2,25,0,0
2247,-100,4,1,2,30,0,0
5060,-100,4,1,1,55,0,0
5685,-100,4,1,1,70,0,0
15685,-100,4,2,0,40,0,0
17247,-100,4,2,0,5,0,0
18185,-100,4,3,0,60,0,0
18810,-100,4,3,0,55,0,0
20685,-100,4,1,1,70,0,0
39278,-100,4,1,1,80,0,0
50841,-100,4,3,1,55,0,0
55685,-100,4,1,1,70,0,0
59435,-100,4,1,1,60,0,0
63185,-100,4,1,1,80,0,1
81935,-100,4,1,1,70,0,0

[HitObjects]
112,244,685,5,2,0:0:0:0:
212,108,1310,2,0,P|264:100|356:140,1,140,2|0,0:0|0:0,0:0:0:0:
356,296,2560,1,2,0:0:0:0:
256,192,3185,12,8,5060,0:0:0:0:
112,268,5685,6,0,L|100:124,1,140,4|0,0:0|0:0,0:0:0:0:
264,88,6935,2,0,L|276:232,1,140,0|0,0:0|0:0,0:0:0:0:
436,176,8185,2,0,L|424:36,1,140,4|0,0:0|0:0,0:0:0:0:
280,128,9435,2,0,P|216:148|140:124,1,140,0|0,0:0|0:0,0:0:0:0:
52,268,10685,6,0,P|116:248|184:268,1,140,4|0,0:0|0:0,0:0:0:0:
340,320,11935,2,0,B|412:336|412:336|480:316,1,140,0|0,0:0|0:0,0:0:0:0:
448,152,13185,2,0,B|350:136|350:136|312:168,1,140
188,268,14435,2,0,P|120:283|52:267,1,140,0|0,0:0|0:0,0:0:0:0:
256,192,15685,12,0,17560,0:0:0:0:
267,126,18185,6,0,P|332:144|400:120,2,140,2|2|2,0:0|0:0|0:0,0:0:0:0:
48,252,20685,6,0,B|68:324|68:324|88:348|148:348,1,140,6|0,0:0|0:0,0:0:0:0:
276,268,21935,2,0,P|352:268|416:316,1,140,0|2,0:0|0:0,0:0:0:0:
468,144,23185,2,0,B|460:40|460:40|408:44,1,140,6|0,0:0|0:0,0:0:0:0:
260,68,24435,2,0,L|276:240,1,140,2|0,0:0|0:0,0:0:0:0:
152,320,25685,6,0,B|36:340|36:340|72:300,1,140,6|0,0:0|0:0,0:0:0:0:
144,184,26935,1,0,0:0:0:0:
40,52,27560,2,0,L|192:32,1,140,2|0,0:0|0:0,0:0:0:0:
328,116,28810,2,0,P|356:180|344:252,1,140,2|0,0:0|0:0,0:0:0:0:
204,340,30060,1,10,0:0:0:0:
44,292,30685,5,4,0:0:0:0:
156,168,31310,2,0,P|96:140|36:184,1,140,2|0,0:0|0:0,0:0:0:0:
104,228,32247,2,0,P|168:256|224:208,1,140,2|0,0:0|0:0,0:0:0:0:
236,136,33185,5,4,0:0:0:0:
376,228,33810,2,0,B|425:233|425:233|469:217|476:164,2,140,2|0|2,0:0|0:0|0:0,0:0:0:0:
208,204,35685,5,4,0:0:0:0:
148,48,36310,2,0,B|76:36|76:36|32:92,2,140,2|0|2,0:0|0:0|0:0,0:0:0:0:
316,52,38185,6,0,L|376:64,2,35
260,116,38810,2,0,L|180:124,1,70,2|2,0:0|0:0,0:0:0:0:
132,184,39435,2,0,L|56:192,1,70,10|10,0:0|0:0,0:0:0:0:
40,272,40060,1,4,0:0:0:0:
200,328,40685,6,0,P|264:340|348:312,1,140,4|0,0:0|0:0,0:0:0:0:
372,156,41935,2,0,L|360:80,2,70,0|8|0,0:0|0:0|0:0,0:0:0:0:
288,164,42872,2,0,L|280:236,2,70,8|0|8,0:0|0:0|0:0,0:0:0:0:
456,176,44122,2,0,P|468:108|448:28,1,140,8|8,0:0|0:0,0:0:0:0:
284,44,45372,1,8,0:0:0:0:
288,212,45997,6,0,P|220:240|144:220,1,140,8|8,0:0|0:0,0:0:0:0:
76,80,47247,1,8,0:0:0:0:
68,248,47872,2,0,L|64:340,2,70,8|0|8,0:0|0:0|0:0,0:0:0:0:
128,92,49122,2,0,B|212:72|212:72|268:84,1,140,8|0,0:0|0:0,0:0:0:0:
332,136,50060,2,0,B|388:147|388:147|468:124,1,140,0|0,0:0|0:0,0:0:0:0:
324,36,51310,6,0,P|280:48|236:148,1,140,8|0,0:0|0:0,0:0:0:0:
380,208,52560,2,0,L|404:356,1,140,8|0,0:0|0:0,0:0:0:0:
256,260,53810,1,8,0:0:0:0:
112,348,54435,2,0,B|88:280|88:280|112:200,1,140,0|8,0:0|0:0,0:0:0:0:
208,80,55685,6,0,L|184:156,2,70,4|0|0,0:0|0:0|0:0,0:0:0:0:
288,52,56622,1,0,0:0:0:0:
292,136,56935,2,0,L|296:208,2,70,4|0|0,0:0|0:0|0:0,0:0:0:0:
288,52,57872,1,0,0:0:0:0:
372,60,58185,6,0,L|452:68,1,70,2|0,0:0|0:0,0:0:0:0:
468,148,58810,2,0,L|460:224,1,70,2|0,0:0|0:0,0:0:0:0:
256,192,59435,12,0,61466,0:0:0:0:
208,320,63185,6,0,P|156:332|72:300,1,140,4|0,0:0|0:0,0:0:0:0:
44,228,64122,1,8,0:0:0:0:
108,172,64435,2,0,L|140:28,1,140,2|0,0:0|0:0,0:0:0:0:
272,140,65685,2,0,P|316:148|412:108,1,140,6|0,0:0|0:0,0:0:0:0:
444,44,66622,2,0,L|468:212,1,140,8|0,0:0|0:0,0:0:0:0:
428,260,67560,2,0,L|388:324,1,70,2|0,0:0|0:0,0:0:0:0:
308,336,68185,6,0,P|252:328|228:244,1,140,4|0,0:0|0:0,0:0:0:0:
252,176,69122,2,0,L|324:164,2,70,0|0|8,0:0|0:0|0:0,0:0:0:0:
308,336,70372,2,0,P|256:352|164:304,1,140,8|0,0:0|0:0,0:0:0:0:
184,112,71778,2,0,P|172:148|148:180,1,70,4|0,0:0|0:0,0:0:0:0:
120,252,72403,2,0,P|132:288|156:320,1,70,0|0,0:0|0:0,0:0:0:0:
244,228,73185,6,0,P|296:208|388:228,1,140,0|0,0:0|0:0,0:0:0:0:
408,300,74122,1,8,0:0:0:0:
460,236,74435,2,0,B|472:168|472:168|436:96,1,140,2|0,0:0|0:0,0:0:0:0:
296,72,75685,6,0,L|200:88,2,70,0|8|0,0:0|0:0|0:0,0:0:0:0:
372,108,76622,2,0,L|404:32,2,70,8|0|8,0:0|0:0|0:0,0:0:0:0:
336,184,77560,2,0,L|344:264,1,70,0|8,0:0|0:0,0:0:0:0:
284,312,78185,6,0,P|244:332|148:328,2,140,4|0|0,0:0|0:0|0:0,0:0:0:0:
472,144,80372,2,0,L|464:64,1,70,8|0,0:0|0:0,0:0:0:0:
128,76,81935,1,4,0:0:0:0:
384,292,83185,6,0,P|324:304|244:268,1,140,2|0,0:0|0:0,0:0:0:0:
176,124,84435,2,0,L|204:56,2,70,2|0|0,0:0|0:0|0:0,0:0:0:0:
300,236,85685,2,0,P|328:192|320:92,1,140,4|0,0:0|0:0,0:0:0:0:
164,68,86935,2,0,L|80:76,1,70,2|0,0:0|0:0,0:0:0:0:
44,144,87560,2,0,P|56:196|40:256,1,105,4|0,0:0|0:0,0:0:0:0:
