osu file format v12

[General]
AudioFilename: Black Board.mp3
AudioLeadIn: 0
PreviewTime: 79515
Countdown: 0
SampleSet: Normal
StackLeniency: 0.7
Mode: 0
LetterboxInBreaks: 0
WidescreenStoryboard: 0

[Editor]
DistanceSpacing: 1
BeatDivisor: 4
GridSize: 4

[Metadata]
Title:Black Board
TitleUnicode:Black Board
Artist:nano
ArtistUnicode:ナノ
Creator:luxoDeh
Version:Hard
Source:
Tags:cover nano papiyon
BeatmapID:219313
BeatmapSetID:60732

[Difficulty]
HPDrainRate:6
CircleSize:4
OverallDifficulty:6
ApproachRate:7
SliderMultiplier:1.6
SliderTickRate:2

[Events]
//Background and Video events
0,0,"Black.Board.(Song).full.1083247 h g.jpg",0,0
Video,0,"black board official video.avi"
//Break Periods
2,37134,47647
2,95198,101841
2,147457,156034
2,197779,204421
//Storyboard Layer 0 (Background)
//Storyboard Layer 1 (Fail)
//Storyboard Layer 2 (Pass)
//Storyboard Layer 3 (Foreground)
//Storyboard Sound Samples
//Background Colour Transformations
3,100,163,162,255

[TimingPoints]
2096,483.870967741935,4,1,1,60,1,0
2337,-100,4,2,1,60,0,0
2579,-100,4,1,1,60,0,0
2821,-100,4,2,1,60,0,0
3063,-100,4,1,1,60,0,0
3547,-100,4,1,1,60,0,0
3789,-100,4,2,1,60,0,0
4031,-100,4,1,1,60,0,0
4273,-100,4,2,1,60,0,0
4515,-100,4,1,1,60,0,0
4636,-100,4,2,1,60,0,0
4999,-100,4,1,1,60,0,0
5241,-100,4,2,1,60,0,0
5483,-100,4,1,1,60,0,0
6208,-100,4,2,1,60,0,0
6450,-100,4,1,1,60,0,0
6692,-100,4,2,1,60,0,0
6934,-100,4,1,1,60,0,0
7176,-100,4,2,1,60,0,0
7418,-100,4,1,1,60,0,0
7660,-100,4,2,1,60,0,0
7902,-100,4,1,1,60,0,0
8507,-100,4,2,1,60,0,0
8870,-100,4,1,1,60,0,0
8991,-100,4,2,1,60,0,0
9354,-100,4,1,1,60,0,0
9595,-100,4,2,1,60,0,0
9837,-100,4,1,1,60,0,0
10079,-100,4,2,1,60,0,0
10321,-100,4,1,1,60,0,0
10442,-100,4,2,1,60,0,0
10805,-100,4,1,1,60,0,0
11047,-100,4,2,1,60,0,0
11289,-100,4,1,1,60,0,0
11894,-100,4,2,1,60,0,0
12257,-100,4,1,1,60,0,0
12378,-100,4,2,1,60,0,0
12741,-100,4,1,1,60,0,0
12983,-100,4,2,1,60,0,0
13225,-100,4,1,1,60,0,0
13466,-100,4,2,1,60,0,0
13708,-100,4,1,1,60,0,0
13950,-100,4,2,1,60,0,0
14192,-100,4,1,1,60,0,0
14313,-100,4,2,1,60,0,0
14676,-100,4,1,1,60,0,0
14797,-100,4,2,1,60,0,0
15160,-100,4,1,1,60,0,0
15281,-100,4,2,1,60,0,0
15644,-100,4,1,1,60,0,0
15765,-100,4,2,1,60,0,0
16128,-100,4,1,1,60,0,0
16249,-100,4,2,1,60,0,0
16612,-100,4,1,1,60,0,0
16733,-100,4,2,1,60,0,0
17095,-100,4,1,1,60,0,0
17821,-100,4,2,1,60,0,0
18063,-100,4,1,1,60,0,0
18305,-100,4,2,1,60,0,0
19031,-100,4,1,1,60,0,0
19273,-100,4,2,1,60,0,0
19515,-100,4,1,1,60,0,0
20725,-100,4,2,1,60,0,0
20966,-100,4,1,1,60,0,0
21692,-100,4,2,1,60,0,0
21934,-100,4,1,1,60,0,0
22055,-100,4,2,1,60,0,0
22418,-100,4,1,1,60,0,0
22660,-100,4,2,1,60,0,0
22902,-100,4,1,1,60,0,0
23144,-100,4,2,1,60,0,0
23386,-100,4,1,1,60,0,0
25684,-100,4,1,1,50,0,0
25926,-100,4,1,1,60,0,0
26652,-100,4,1,1,50,0,0
26894,-100,4,1,1,60,0,0
27620,-100,4,1,1,50,0,0
27862,-100,4,1,1,60,0,0
28587,-100,4,1,1,50,0,0
28829,-100,4,1,1,60,0,0
29555,-100,4,1,1,50,0,0
29797,-100,4,1,1,60,0,0
30523,-100,4,1,1,50,0,0
30765,-100,4,1,1,60,0,0
31491,-100,4,1,1,50,0,0
31733,-100,4,1,1,60,0,0
32458,-100,4,1,1,50,0,0
32700,-100,4,1,1,60,0,0
48789,-100,4,3,1,60,0,0
56289,-100,4,1,1,60,0,0
56531,-100,4,3,1,60,0,0
61612,-100,4,2,1,30,0,0
62095,-100,4,3,1,60,0,0
64031,-100,4,1,1,60,0,0
79515,-100,4,1,1,75,0,1
94999,-100,4,1,1,60,0,0
110483,-100,4,2,1,60,0,0
125966,-100,4,1,1,75,0,1
141450,-100,4,1,1,60,0,0
170483,-100,4,1,1,30,0,0
170604,-100,4,1,1,60,0,0
173144,-100,4,1,1,40,0,0
174354,-100,4,1,1,75,0,1
189837,-100,4,1,1,60,0,0
205563,-100,4,2,1,60,0,0
205805,-100,4,1,1,50,0,0
205926,-100,4,2,1,60,0,0
206289,-100,4,1,1,60,0,0
206531,-100,4,2,1,60,0,0
206773,-100,4,1,1,50,0,0
207015,-100,4,2,1,60,0,0
207257,-100,4,1,1,60,0,0
207499,-100,4,2,1,60,0,0
207741,-100,4,1,1,50,0,0
207862,-100,4,2,1,60,0,0
208225,-100,4,1,1,60,0,0
208466,-100,4,2,1,60,0,0
208708,-100,4,1,1,50,0,0
208950,-100,4,2,1,60,0,0
209192,-100,4,1,1,60,0,0
209434,-100,4,2,1,60,0,0
209676,-100,4,1,1,50,0,0
209797,-100,4,2,1,60,0,0
210160,-100,4,1,1,60,0,0
210402,-100,4,2,1,60,0,0
210644,-100,4,1,1,50,0,0
210886,-100,4,2,1,60,0,0
211128,-100,4,1,1,60,0,0
211370,-100,4,2,1,60,0,0
211612,-100,4,1,1,50,0,0
211733,-100,4,2,1,60,0,0
212095,-100,4,1,1,60,0,0
212337,-100,4,2,1,60,0,0
212579,-100,4,1,1,50,0,0
212821,-100,4,2,1,60,0,0
213063,-100,4,1,1,60,0,0
213305,-100,4,2,1,60,0,0
213547,-100,4,1,1,50,0,0
213668,-100,4,2,1,60,0,0
214031,-100,4,1,1,60,0,0
214273,-100,4,2,1,60,0,0
214515,-100,4,1,1,50,0,0
214757,-100,4,2,1,60,0,0
214999,-100,4,1,1,60,0,0
215241,-100,4,2,1,60,0,0
215483,-100,4,1,1,50,0,0
215725,-100,4,2,1,60,0,0
215966,-100,4,1,1,60,0,0
216087,-100,4,2,1,60,0,0
216450,-100,4,1,1,50,0,0
216692,-100,4,2,1,60,0,0
216934,-100,4,1,1,60,0,0
217176,-100,4,2,1,60,0,0
217418,-100,4,1,1,50,0,0
217539,-100,4,2,1,60,0,0
217902,-100,4,1,1,60,0,0
218144,-100,4,2,1,60,0,0
218386,-100,4,1,1,50,0,0
218628,-100,4,2,1,60,0,0
218870,-100,4,1,1,60,0,0
219112,-100,4,2,1,60,0,0
219354,-100,4,1,1,50,0,0
219475,-100,4,2,1,60,0,0
219837,-100,4,2,1,5,0,0

[Colours]
Combo1 : 192,192,192
Combo2 : 128,128,255
Combo3 : 128,128,128
Combo4 : 128,128,192

[HitObjects]
360,72,2096,1,0,0:0:0:0:
292,112,2337,2,0,P|256:96|220:112,1,80
220,191,2821,1,0,0:0:0:0:
144,168,3063,2,0,P|168:248|240:268,1,160
292,324,3789,1,0,0:0:0:0:
292,324,4032,6,0,L|372:324,1,80
444,288,4516,2,0,P|452:248|436:208,1,80
382,155,5000,2,0,L|382:67,2,80
256,56,5966,5,0,0:0:0:0:
199,112,6208,2,0,L|119:152,1,80
200,192,6692,2,0,L|280:232,1,80
200,272,7176,2,0,L|120:312,1,80
71,364,7660,1,0,0:0:0:0:
16,304,7902,6,0,L|16:204,1,80
72,167,8386,1,0,0:0:0:0:
72,168,8507,2,0,P|96:118|152:86,1,120
228,108,9112,1,4,0:0:0:0:
288,56,9354,1,0,0:0:0:0:
352,104,9595,1,0,0:0:0:0:
432,116,9837,6,0,P|400:172|368:184,1,80
360,208,10200,2,0,L|360:256,1,40
360,288,10442,2,0,P|336:328|272:304,1,120
212,256,11047,1,0,0:0:0:0:
192,220,11168,1,0,0:0:0:0:
152,216,11289,2,0,P|124:168|124:128,1,80
60,92,11773,6,0,L|31:63,2,40
32,168,12257,1,0,0:0:0:0:
16,204,12378,2,0,P|16:260|80:300,1,120
144,304,12983,1,0,0:0:0:0:
200,248,13225,1,0,0:0:0:0:
256,192,13466,1,0,0:0:0:0:
320,236,13708,6,0,P|364:220|388:180,1,80
380,156,14071,2,0,L|364:104,1,40
340,88,14313,2,0,P|280:104|228:68,1,120
296,28,14918,1,0,0:0:0:0:
332,12,15040,1,0,0:0:0:0:
372,20,15160,2,0,P|404:48|412:104,1,80
452,156,15644,6,0,L|496:156,2,40
432,236,16128,1,0,0:0:0:0:
444,272,16249,2,0,P|408:324|336:328,1,120
316,324,16733,1,0,0:0:0:0:
280,304,16854,1,0,0:0:0:0:
244,284,16975,1,0,0:0:0:0:
208,264,17095,1,0,0:0:0:0:
248,196,17337,5,0,0:0:0:0:
320,232,17579,2,0,L|408:232,1,80,4|0,0:0|0:0,0:0:0:0:
472,196,18063,1,0,0:0:0:0:
496,272,18305,1,0,0:0:0:0:
480,308,18426,2,0,P|428:348|368:324,1,120
320,284,19031,1,0,0:0:0:0:
202,354,19273,1,0,0:0:0:0:
116,240,19515,2,0,P|184:265|238:209,3,160
432,188,21450,6,0,P|439:214|423:262,1,80
356,296,21934,2,0,L|328:349,1,40
257,331,22297,1,0,0:0:0:0:
228,302,22418,2,0,P|196:280|152:272,1,80
92,224,22902,2,0,P|128:196|168:194,1,80
144,116,23386,2,0,P|217:140|232:224,3,160
350,110,25321,5,0,0:0:0:0:
404,168,25563,2,0,L|484:168,1,80,0|8,0:0|0:0,0:0:0:0:
486,246,26047,1,0,0:0:0:0:
452,268,26168,1,0,0:0:0:0:
432,304,26290,2,0,L|352:304,1,80,0|0,0:0|0:0,0:0:0:0:
295,247,26773,1,8,0:0:0:0:
216,224,27015,1,0,0:0:0:0:
183,295,27257,2,0,P|136:234|164:163,3,160,0|8|0|8,0:0|0:0|0:0|0:0,0:0:0:0:
216,104,28950,5,0,0:0:0:0:
216,104,29071,1,0,0:0:0:0:
216,104,29192,2,0,L|304:104,1,80
376,100,29676,2,0,P|360:152|368:192,1,80,8|0,0:0|0:0,0:0:0:0:
376,216,30039,1,0,0:0:0:0:
408,240,30160,1,0,0:0:0:0:
476,284,30402,2,0,P|468:340|436:356,1,80,0|8,0:0|0:0,0:0:0:0:
292,288,30886,1,0,0:0:0:0:
224,248,31128,6,0,L|144:200,1,80,0|8,0:0|0:0,0:0:0:0:
84,168,31612,2,0,L|44:168,1,40,8|0,0:0|0:0,0:0:0:0:
4,240,31975,2,0,P|16:284|60:308,1,80
76,324,32337,2,0,L|132:356,5,40,8|0|8|0|0|0,0:0|0:0|0:0|0:0|0:0|0:0,0:0:0:0:
256,192,33063,12,4,36934,0:0:0:0:
400,80,48547,6,0,P|360:68|312:88,1,80,4|0,0:0|0:0,0:0:0:0:
356,152,49031,2,0,P|288:172|232:140,2,120,8|0|0,0:0|0:0|0:0,0:0:0:0:
300,92,49999,1,8,0:0:0:0:
188,44,50241,1,0,0:0:0:0:
120,88,50483,5,0,0:0:0:0:
100,120,50604,1,0,0:0:0:0:
116,156,50725,1,0,0:0:0:0:
192,128,50966,2,0,P|192:180|176:212,1,80,8|0,0:0|0:0,0:0:0:0:
156,236,51329,2,0,P|136:268|164:348,1,120
220,292,51934,1,8,0:0:0:0:
300,292,52176,1,0,0:0:0:0:
328,264,52297,1,0,0:0:0:0:
368,256,52418,6,0,P|412:268|436:308,1,80
488,236,52902,2,0,P|432:188|384:180,2,120,8|0|2,0:0|0:0|0:0,0:0:0:0:
388,180,53870,1,8,0:0:0:0:
256,272,54354,6,0,L|256:188,1,80
292,120,54837,2,0,L|324:80,1,40,8|0,0:0|0:0,0:0:0:0:
260,32,55200,2,0,P|216:12|140:36,1,120
100,92,55805,1,8,0:0:0:0:
100,92,56047,1,0,0:0:0:0:
64,164,56289,6,0,P|64:212|92:244,1,80,4|0,0:0|0:0,0:0:0:0:
164,236,56773,2,0,L|160:276,1,40,8|0,0:0|0:0,0:0:0:0:
212,336,57136,2,0,P|252:344|320:308,1,120
372,248,57741,1,8,0:0:0:0:
448,228,57983,2,0,P|420:184|380:172,1,80
320,192,58466,5,0,0:0:0:0:
272,128,58708,2,0,L|248:92,1,40,8|0,0:0|0:0,0:0:0:0:
112,128,59071,2,0,P|88:76|148:32,1,120
204,32,59676,1,8,0:0:0:0:
352,32,59918,1,0,0:0:0:0:
412,84,60160,6,0,P|436:120|436:164,1,80
388,216,60644,2,0,L|428:232,1,40,8|0,0:0|0:0,0:0:0:0:
424,312,61007,2,0,P|376:340|312:328,1,120
256,216,61612,1,0,0:0:0:0:
112,220,62096,6,0,L|72:148,1,80
144,116,62579,2,0,L|184:188,1,80,8|0,0:0|0:0,0:0:0:0:
216,204,62942,2,0,P|256:216|309:192,1,80
256,144,63305,1,0,0:0:0:0:
256,144,63547,1,8,0:0:0:0:
312,88,63789,2,0,L|348:56,2,40,0|0|4,0:0|0:0|0:0,0:0:0:0:
436,188,64515,6,0,P|460:236|404:320,1,160,8|0,0:0|0:0,0:0:0:0:
376,244,65241,1,0,0:0:0:0:
256,188,65483,1,8,0:0:0:0:
120,244,65725,1,0,0:0:0:0:
104,324,65966,6,0,P|52:284|44:220,1,120,4|0,0:0|0:0,0:0:0:0:
44,152,66571,1,0,0:0:0:0:
44,152,66692,2,0,L|44:32,2,120,0|0|8,0:0|0:0|0:0,0:0:0:0:
104,204,67660,2,0,L|152:204,2,40,0|0|4,0:0|0:0|0:0,0:0:0:0:
236,292,68386,5,8,0:0:0:0:
300,244,68628,1,0,0:0:0:0:
300,244,68749,2,0,P|324:184|280:128,1,120
240,192,69354,1,8,0:0:0:0:
299,139,69596,1,0,0:0:0:0:
364,92,69837,6,0,P|400:152|400:212,1,120,4|0,0:0|0:0,0:0:0:0:
396,240,70321,1,8,0:0:0:0:
324,276,70563,2,0,P|376:320|444:304,2,120,0|0|8,0:0|0:0|0:0,0:0:0:0:
304,200,71531,1,0,0:0:0:0:
148,272,71773,5,4,0:0:0:0:
184,344,72015,2,0,P|148:352|100:336,1,80,0|8,0:0|0:0,0:0:0:0:
148,272,72499,1,0,0:0:0:0:
148,232,72620,2,0,B|148:180|148:180|132:148|84:160,1,120
56,232,73225,2,0,P|20:204|12:164,1,80,8|0,0:0|0:0,0:0:0:0:
20,92,73708,5,4,0:0:0:0:
168,36,74071,1,0,0:0:0:0:
304,92,74434,1,4,0:0:0:0:
224,180,74797,2,0,P|168:164|108:180,1,120,0|8,0:0|0:0,0:0:0:0:
168,292,75402,2,0,L|168:244,2,40,0|0|4,0:0|0:0|0:0,0:0:0:0:
232,340,75886,5,0,0:0:0:0:
312,336,76128,2,0,P|356:328|380:284,1,80,8|0,0:0|0:0,0:0:0:0:
384,264,76491,2,0,P|400:200|444:176,1,120
456,248,77096,1,8,0:0:0:0:
332,164,77337,1,0,0:0:0:0:
256,192,77579,12,0,79273,0:0:0:0:
336,88,79515,6,0,P|280:80|240:96,2,80,4|0|8,0:0|0:0|0:0,0:0:0:0:
296,160,80241,1,0,0:0:0:0:
296,160,80362,2,0,P|296:208|272:244,1,80
212,208,80725,2,0,P|208:256|236:292,2,80,0|8|0,0:0|0:0|0:0,0:0:0:0:
224,128,81450,5,0,0:0:0:0:
148,100,81692,1,0,0:0:0:0:
84,148,81934,1,8,0:0:0:0:
124,216,82176,1,0,0:0:0:0:
124,216,82297,2,0,L|80:284,1,80
96,356,82660,2,0,P|52:352|16:320,2,80,0|8|0,0:0|0:0|0:0,0:0:0:0:
172,328,83386,6,0,P|208:312|256:320,1,80
276,240,83870,2,0,P|316:256|344:296,1,80,8|0,0:0|0:0,0:0:0:0:
348,324,84233,2,2,P|384:356|456:340,1,120
480,272,84837,1,8,0:0:0:0:
500,196,85079,1,0,0:0:0:0:
464,124,85321,6,0,L|396:76,1,80
397,170,85805,2,0,L|332:124,1,80,8|0,0:0|0:0,0:0:0:0:
296,108,86168,2,0,P|240:104|212:120,1,80
188,140,86531,1,0,0:0:0:0:
160,168,86652,1,0,0:0:0:0:
120,176,86773,1,8,0:0:0:0:
84,160,86894,1,0,0:0:0:0:
60,128,87015,1,0,0:0:0:0:
128,84,87257,6,0,P|168:56|208:60,1,80,4|0,0:0|0:0,0:0:0:0:
276,72,87741,2,0,L|360:96,1,80,8|0,0:0|0:0,0:0:0:0:
408,44,88104,2,0,P|428:92|416:132,1,80
404,152,88466,1,0,0:0:0:0:
440,224,88708,1,8,0:0:0:0:
408,296,88950,1,0,0:0:0:0:
344,248,89192,6,0,P|328:304|340:332,1,80
256,312,89676,2,0,P|256:264|272:228,1,80,8|0,0:0|0:0,0:0:0:0:
284,200,90039,2,0,P|300:160|296:116,1,80
228,148,90402,2,0,L|144:132,2,80,0|8|0,0:0|0:0|0:0,0:0:0:0:
284,200,91128,5,0,0:0:0:0:
164,256,91370,1,0,0:0:0:0:
256,296,91612,1,8,0:0:0:0:
136,344,91854,1,0,0:0:0:0:
136,344,91975,2,2,P|64:344|32:300,1,120
44,232,92579,1,8,0:0:0:0:
44,152,92821,6,0,L|124:128,1,80
84,56,93305,2,0,L|164:32,1,80,0|8,0:0|0:0,0:0:0:0:
240,32,93789,2,0,L|316:54,1,80
288,128,94273,2,0,L|336:140,6,40,0|0|8|0|0|0|4,0:0|0:0|0:0|0:0|0:0|0:0|0:0,0:0:0:0:
376,84,102741,6,0,L|296:84,1,80,4|8,0:0|0:0,0:0:0:0:
264,160,103225,2,0,L|220:160,1,40
188,172,103466,1,8,0:0:0:0:
160,200,103587,2,0,P|124:248|136:312,1,120,0|8,0:0|0:0,0:0:0:0:
204,344,104192,2,0,P|260:352|292:332,1,80,0|8,0:0|0:0,0:0:0:0:
356,312,104676,6,0,P|396:284|412:252,1,80,0|8,0:0|0:0,0:0:0:0:
332,232,105160,2,0,P|356:184|356:136,1,80,0|8,0:0|0:0,0:0:0:0:
336,124,105523,1,0,0:0:0:0:
412,100,105765,1,0,0:0:0:0:
452,168,106007,2,0,P|428:216|440:288,1,120,0|8,0:0|0:0,0:0:0:0:
436,280,106612,6,0,L|380:352,1,80,0|8,0:0|0:0,0:0:0:0:
240,280,107095,2,0,L|296:352,1,80,0|8,0:0|0:0,0:0:0:0:
336,364,107458,2,0,L|336:224,1,120,0|8,0:0|0:0,0:0:0:0:
280,184,108063,1,0,0:0:0:0:
174,110,108305,1,8,0:0:0:0:
304,108,108547,1,0,0:0:0:0:
201,186,108789,1,8,0:0:0:0:
238,62,109031,1,0,0:0:0:0:
312,28,109273,6,0,P|360:48|376:92,1,80,8|0,0:0|0:0,0:0:0:0:
388,108,109636,1,0,0:0:0:0:
396,148,109757,1,8,0:0:0:0:
388,188,109878,1,0,0:0:0:0:
368,228,109999,1,0,0:0:0:0:
332,252,110120,1,0,0:0:0:0:
292,268,110241,1,8,0:0:0:0:
252,276,110362,1,0,0:0:0:0:
212,276,110483,6,0,P|160:276|116:336,1,120,4|0,0:0|0:0,0:0:0:0:
112,364,110966,1,8,0:0:0:0:
188,344,111208,2,0,L|108:188,1,160
48,160,111934,2,0,P|90:122|133:128,1,80,8|0,0:0|0:0,0:0:0:0:
192,120,112418,2,0,B|248:120|248:120|264:88|300:68,2,120,0|2|4,0:0|0:0|0:0,0:0:0:0:
420,28,113507,2,0,L|456:44,3,40,2|0|0|8,0:0|0:0|0:0|0:0,0:0:0:0:
360,80,114112,1,2,0:0:0:0:
440,112,114354,6,0,P|476:136|484:196,1,80,4|8,0:0|0:0,0:0:0:0:
444,248,114837,2,0,L|472:292,2,40,8|0|0,0:0|0:0|0:0,0:0:0:0:
364,248,115321,2,0,L|336:292,2,40
404,184,115805,1,8,0:0:0:0:
256,132,116047,1,0,0:0:0:0:
256,212,116289,6,0,B|256:272|256:272|212:320,1,120,2|2,0:0|0:0,0:0:0:0:
176,316,116773,2,0,B|140:292|140:292|140:244,1,80,8|4,0:0|0:0,0:0:0:0:
116,224,117136,2,0,L|76:192,2,40,0|0|2,0:0|0:0|0:0,0:0:0:0:
156,224,117499,2,0,L|196:192,2,40,2|0|8,0:0|0:0|0:0,0:0:0:0:
136,144,117983,1,2,0:0:0:0:
80,84,118225,6,0,P|144:64|200:92,1,120,4|0,0:0|0:0,0:0:0:0:
224,104,118708,2,0,P|268:120|340:92,1,120,8|0,0:0|0:0,0:0:0:0:
364,72,119192,1,0,0:0:0:0:
472,140,119434,1,0,0:0:0:0:
368,184,119676,1,8,0:0:0:0:
480,252,119918,1,0,0:0:0:0:
380,288,120160,6,0,P|336:316|296:312,1,80,4|0,0:0|0:0,0:0:0:0:
276,296,120523,2,2,P|228:284|196:304,1,80,2|0,0:0|0:0,0:0:0:0:
168,320,120886,2,0,P|108:328|56:284,1,120,0|2,0:0|0:0,0:0:0:0:
128,248,121491,2,0,L|136:196,1,40,0|2,0:0|0:0,0:0:0:0:
204,172,121854,1,0,0:0:0:0:
140,128,122095,6,0,P|176:96|216:96,1,80,0|8,0:0|0:0,0:0:0:0:
248,96,122458,1,0,0:0:0:0:
248,176,122700,1,0,0:0:0:0:
288,172,122821,2,0,P|332:152|349:116,1,80,8|0,0:0|0:0,0:0:0:0:
356,44,123305,1,0,0:0:0:0:
452,168,123547,1,8,0:0:0:0:
256,192,124031,12,0,125725,0:0:0:0:
360,84,125966,6,0,P|316:72|268:80,1,80,4|0,0:0|0:0,0:0:0:0:
308,152,126450,2,0,P|264:160|232:192,1,80,8|0,0:0|0:0,0:0:0:0:
216,216,126813,2,0,P|180:248|140:252,1,80
152,180,127176,2,0,L|112:104,2,80,0|8|0,0:0|0:0|0:0,0:0:0:0:
150,253,127902,5,0,0:0:0:0:
60,320,128144,1,0,0:0:0:0:
150,252,128386,1,8,0:0:0:0:
244,316,128628,1,0,0:0:0:0:
244,316,128749,2,0,B|288:316|288:316|316:280,1,80
332,252,129112,2,0,B|352:216|352:216|400:216,2,80,0|8|0,0:0|0:0|0:0,0:0:0:0:
404,292,129837,6,0,P|468:244|448:164,1,160,0|8,0:0|0:0,0:0:0:0:
408,108,130563,1,0,0:0:0:0:
408,108,130684,2,2,B|376:60|324:96|308:40,1,120
312,144,131289,2,0,P|268:120|244:76,1,80,8|0,0:0|0:0,0:0:0:0:
172,100,131773,6,0,P|155:123|111:147,1,80
120,228,132257,2,0,P|164:252|188:296,1,80,8|0,0:0|0:0,0:0:0:0:
188,316,132620,2,0,P|228:344|292:304,1,120
304,280,133104,1,0,0:0:0:0:
316,240,133225,1,8,0:0:0:0:
336,208,133345,1,0,0:0:0:0:
372,192,133466,1,0,0:0:0:0:
412,184,133587,1,0,0:0:0:0:
452,188,133708,6,0,P|504:164|516:132,1,80,4|0,0:0|0:0,0:0:0:0:
444,108,134192,2,0,L|396:36,1,80,8|0,0:0|0:0,0:0:0:0:
360,36,134555,2,0,P|308:24|256:72,1,120
240,100,135039,1,0,0:0:0:0:
212,128,135160,2,0,P|164:156|120:152,1,80,8|0,0:0|0:0,0:0:0:0:
100,88,135644,6,0,P|64:120|60:164,1,80
60,232,136128,2,0,L|8:232,2,40,8|0|0,0:0|0:0|0:0,0:0:0:0:
92,260,136491,2,0,L|152:316,1,80
192,316,136854,2,0,L|252:252,2,80,0|8|0,0:0|0:0|0:0,0:0:0:0:
172,208,137579,5,0,0:0:0:0:
316,224,137821,1,8,0:0:0:0:
256,144,138063,1,0,0:0:0:0:
368,96,138305,1,0,0:0:0:0:
368,96,138426,2,2,P|424:92|466:135,1,120
468,216,139031,1,8,0:0:0:0:
468,216,139273,1,0,0:0:0:0:
464,296,139515,6,0,L|392:364,1,80
336,312,139999,2,0,L|400:252,1,80,8|0,0:0|0:0,0:0:0:0:
324,216,140483,2,0,B|260:276|260:276|212:276|184:232,1,160,0|8,0:0|0:0,0:0:0:0:
256,192,141450,12,4,147257,0:0:0:0:
368,96,156934,5,0,0:0:0:0:
248,96,157297,2,0,L|216:60,1,40,0|8,0:0|0:0,0:0:0:0:
140,64,157660,2,0,L|113:93,4,40
180,132,158386,1,8,0:0:0:0:
180,300,158628,1,0,0:0:0:0:
128,240,158870,6,0,P|179:217|236:246,1,120
264,268,159354,2,0,L|320:324,1,80,8|4,0:0|0:0,0:0:0:0:
400,324,159837,2,0,L|428:295,2,40,0|0|0,0:0|0:0|0:0,0:0:0:0:
360,252,160321,1,8,0:0:0:0:
396,180,160563,1,0,0:0:0:0:
360,164,160684,1,0,0:0:0:0:
324,180,160805,1,0,0:0:0:0:
204,180,161168,6,0,L|204:132,1,40,0|8,0:0|0:0,0:0:0:0:
152,80,161531,2,0,L|104:80,1,40
132,156,161894,2,0,L|96:184,1,40
36,228,162257,1,8,0:0:0:0:
152,344,162499,1,0,0:0:0:0:
152,264,162741,6,0,B|200:268|220:304|220:304|272:304,1,120
320,340,163225,2,0,P|328:292|307:255,1,80,8|4,0:0|0:0,0:0:0:0:
288,236,163587,1,0,0:0:0:0:
260,208,163708,1,0,0:0:0:0:
248,168,163829,1,0,0:0:0:0:
252,128,163950,1,0,0:0:0:0:
264,88,164071,1,0,0:0:0:0:
292,60,164192,1,8,0:0:0:0:
332,52,164313,1,0,0:0:0:0:
372,56,164434,1,0,0:0:0:0:
408,76,164555,1,0,0:0:0:0:
436,104,164676,6,0,B|436:156|436:156|408:216|448:272,1,160,4|8,0:0|0:0,0:0:0:0:
500,208,165402,2,0,L|340:208,1,160
260,208,166128,1,8,0:0:0:0:
132,312,166370,1,0,0:0:0:0:
80,252,166612,6,0,P|52:188|84:128,1,120,4|0,0:0|0:0,0:0:0:0:
132,192,167216,1,0,0:0:0:0:
132,192,167337,2,0,P|148:136|136:104,1,80,4|0,0:0|0:0,0:0:0:0:
124,80,167700,1,0,0:0:0:0:
100,48,167821,1,0,0:0:0:0:
256,48,168063,1,8,0:0:0:0:
400,52,168305,1,0,0:0:0:0:
376,84,168426,1,0,0:0:0:0:
364,124,168547,6,0,P|358:143|400:232,1,120,0|0,0:0|0:0,0:0:0:0:
428,256,169031,2,0,P|448:312|436:352,1,80,8|0,0:0|0:0,0:0:0:0:
368,312,169515,1,0,0:0:0:0:
256,348,169757,1,0,0:0:0:0:
144,312,169999,1,8,0:0:0:0:
224,228,170241,1,0,0:0:0:0:
256,204,170362,1,0,0:0:0:0:
288,228,170483,1,0,0:0:0:0:
256,192,170604,12,8,173144,0:0:0:0:
296,96,174354,6,0,P|256:84|212:100,2,80,4|0|8,0:0|0:0|0:0,0:0:0:0:
256,164,175079,1,0,0:0:0:0:
256,164,175200,2,0,B|256:208|256:208|240:248|188:248,1,120
176,172,175805,1,8,0:0:0:0:
84,72,176047,1,0,0:0:0:0:
20,28,176289,6,0,P|8:88|32:124,1,80
76,152,176773,2,0,P|96:208|88:236,1,80,8|0,0:0|0:0,0:0:0:0:
92,226,177136,2,0,P|76:276|116:336,1,120
164,272,177741,1,8,0:0:0:0:
328,224,177983,1,0,0:0:0:0:
272,280,178225,6,0,L|216:340,1,80
384,280,178708,2,0,L|440:340,1,80,8|0,0:0|0:0,0:0:0:0:
438,338,179071,2,2,P|488:280|484:228,1,120
432,184,179676,1,8,0:0:0:0:
328,72,179918,1,0,0:0:0:0:
300,148,180160,6,0,P|264:120|248:72,1,80
172,76,180644,2,0,P|175:108|195:152,1,80,8|0,0:0|0:0,0:0:0:0:
219,184,181007,2,0,P|239:228|241:259,1,80
236,300,181370,1,0,0:0:0:0:
208,328,181491,1,0,0:0:0:0:
172,340,181612,1,8,0:0:0:0:
132,336,181733,1,0,0:0:0:0:
100,312,181854,1,0,0:0:0:0:
88,276,181975,1,0,0:0:0:0:
88,236,182095,6,0,P|88:184|64:148,2,80,4|0|8,0:0|0:0|0:0,0:0:0:0:
12,212,182821,1,0,0:0:0:0:
12,212,182942,2,0,L|136:184,1,120,4|0,0:0|0:0,0:0:0:0:
160,112,183547,1,8,0:0:0:0:
192,232,183789,1,0,0:0:0:0:
236,300,184031,6,0,P|268:264|276:228,1,80
264,156,184515,1,8,0:0:0:0:
340,132,184757,1,0,0:0:0:0:
340,132,184878,2,0,B|372:104|372:104|416:108|436:164,1,120,4|0,0:0|0:0,0:0:0:0:
492,204,185483,2,0,P|448:232|408:224,1,80,8|0,0:0|0:0,0:0:0:0:
344,232,185966,5,0,0:0:0:0:
212,288,186208,1,0,0:0:0:0:
264,152,186450,1,8,0:0:0:0:
116,200,186692,1,0,0:0:0:0:
116,160,186813,2,2,B|144:116|80:88|120:32,1,120
216,60,187418,6,0,P|261:48|296:60,1,80,8|0,0:0|0:0,0:0:0:0:
292,280,187902,2,0,P|253:289|215:277,1,80,0|0,0:0|0:0,0:0:0:0:
396,144,188386,2,0,P|401:183|386:220,1,80,8|0,0:0|0:0,0:0:0:0:
128,220,188870,2,0,P|112:176|120:140,1,80
192,172,189354,5,8,0:0:0:0:
220,144,189475,1,0,0:0:0:0:
256,124,189596,1,0,0:0:0:0:
292,144,189716,1,0,0:0:0:0:
320,172,189837,1,8,0:0:0:0:
256,192,189958,12,4,197579,0:0:0:0:
348,136,205321,6,0,P|300:132|264:100,1,80,4|0,0:0|0:0,0:0:0:0:
240,92,205684,2,0,L|192:92,1,40
160,96,205926,2,0,P|128:136|152:208,1,120
192,264,206531,1,0,0:0:0:0:
208,300,206652,1,0,0:0:0:0:
244,312,206773,1,0,0:0:0:0:
324,316,207015,6,0,P|364:292|372:236,1,80
392,184,207499,2,0,P|384:128|352:96,1,80
332,120,207862,2,0,P|284:104|260:32,1,120
340,40,208466,1,0,0:0:0:0:
380,40,208587,1,0,0:0:0:0:
420,40,208708,1,0,0:0:0:0:
456,112,208950,6,0,L|456:192,1,80
456,272,209434,2,0,L|456:320,2,40
432,240,209797,2,0,P|368:216|304:256,1,120
264,288,210402,1,0,0:0:0:0:
228,304,210523,1,0,0:0:0:0:
192,288,210644,1,0,0:0:0:0:
136,228,210886,6,0,P|120:172|80:164,1,80
32,200,211370,2,0,P|0:152|8:120,1,80
8,92,211733,2,0,B|8:28|8:28|80:4,1,120
88,84,212337,1,0,0:0:0:0:
120,108,212458,1,0,0:0:0:0:
152,132,212579,1,0,0:0:0:0:
216,176,212821,6,0,P|272:184|296:176,1,80
260,104,213305,1,0,0:0:0:0:
300,88,213426,1,0,0:0:0:0:
340,104,213547,1,0,0:0:0:0:
376,88,213668,2,0,P|432:88|456:144,1,120
424,216,214273,1,0,0:0:0:0:
400,248,214394,1,0,0:0:0:0:
376,280,214515,1,0,0:0:0:0:
304,320,214757,6,0,P|248:328|224:312,1,80
204,240,215241,2,0,P|164:224|116:240,1,80
84,300,215725,2,0,P|52:276|52:220,1,80
44,200,216087,1,0,0:0:0:0:
48,160,216208,1,0,0:0:0:0:
64,124,216329,1,0,0:0:0:0:
96,100,216450,1,0,0:0:0:0:
168,68,216692,6,0,L|168:20,2,40
168,148,217176,2,0,L|168:204,2,40
188,112,217539,2,0,L|316:112,1,120
380,80,218144,1,0,0:0:0:0:
404,112,218265,1,0,0:0:0:0:
380,144,218386,1,0,0:0:0:0:
384,224,218628,6,0,P|360:272|336:272,1,80
260,276,219112,1,0,0:0:0:0:
220,276,219233,1,0,0:0:0:0:
180,276,219354,1,0,0:0:0:0:
140,276,219475,2,0,B|92:272|92:196|40:208,1,120
