osu file format v12

[General]
AudioFilename: Black Board.mp3
AudioLeadIn: 0
PreviewTime: 79515
Countdown: 0
SampleSet: Normal
StackLeniency: 0.7
Mode: 0
LetterboxInBreaks: 0
WidescreenStoryboard: 0

[Editor]
DistanceSpacing: 0.8
BeatDivisor: 4
GridSize: 4

[Metadata]
Title:Black Board
TitleUnicode:Black Board
Artist:nano
ArtistUnicode:ナノ
Creator:luxoDeh
Version:Easy
Source:
Tags:cover nano papiyon
BeatmapID:219312
BeatmapSetID:60732

[Difficulty]
HPDrainRate:2
CircleSize:3
OverallDifficulty:2
ApproachRate:3
SliderMultiplier:1.2
SliderTickRate:2

[Events]
//Background and Video events
0,0,"Black.Board.(Song).full.1083247 h g.jpg",0,0
Video,0,"black board official video.avi"
//Break Periods
2,37134,47107
2,95199,101301
2,147457,155494
2,197779,203881
//Storyboard Layer 0 (Background)
//Storyboard Layer 1 (Fail)
//Storyboard Layer 2 (Pass)
//Storyboard Layer 3 (Foreground)
//Storyboard Sound Samples
//Background Colour Transformations
3,100,163,162,255

[TimingPoints]
2096,483.870967741935,4,1,1,60,1,0
11047,-100,4,2,1,60,0,0
11289,-100,4,1,1,60,0,0
12983,-100,4,2,1,60,0,0
13225,-100,4,1,1,60,0,0
15886,-100,4,2,1,60,0,0
16128,-100,4,1,1,60,0,0
16854,-100,4,2,1,60,0,0
17095,-100,4,1,1,60,0,0
18789,-100,4,2,1,60,0,0
19031,-100,4,1,1,60,0,0
25684,-100,4,1,1,50,0,0
25926,-100,4,1,1,60,0,0
26652,-100,4,1,1,50,0,0
26894,-100,4,1,1,60,0,0
27620,-100,4,1,1,50,0,0
27862,-100,4,1,1,60,0,0
28587,-100,4,1,1,50,0,0
28829,-100,4,1,1,60,0,0
29555,-100,4,1,1,50,0,0
29797,-100,4,1,1,60,0,0
30523,-100,4,1,1,50,0,0
30765,-100,4,1,1,60,0,0
31249,-100,4,1,2,60,0,0
31491,-100,4,1,1,60,0,0
31733,-100,4,1,2,60,0,0
31975,-100,4,1,1,60,0,0
32216,-100,4,1,2,60,0,0
32458,-100,4,1,1,60,0,0
48789,-100,4,3,1,60,0,0
56289,-100,4,1,1,60,0,0
56773,-100,4,3,1,60,0,0
61612,-100,4,2,1,30,0,0
62095,-100,4,3,1,60,0,0
64031,-100,4,1,1,60,0,0
66329,-100,4,1,2,60,0,0
66571,-100,4,1,1,60,0,0
70200,-100,4,1,2,60,0,0
70442,-100,4,1,1,60,0,0
74071,-100,4,1,2,60,0,0
74313,-100,4,1,1,60,0,0
79515,-100,4,1,1,75,0,1
90523,-100,4,1,2,75,0,1
90765,-100,4,1,1,75,0,1
94999,-100,4,1,1,60,0,0
102862,-100,4,1,2,60,0,0
103829,-100,4,1,2,60,0,0
104676,-100,4,1,1,60,0,0
105644,-100,4,1,2,60,0,0
107579,-100,4,1,1,60,0,0
108063,-100,4,1,2,60,0,0
109999,-100,4,1,1,60,0,0
110483,-100,4,2,1,60,0,0
112539,-100,4,2,2,60,0,0
112781,-100,4,2,1,60,0,0
114475,-100,4,2,2,60,0,0
114716,-100,4,2,1,60,0,0
116652,-100,4,2,2,60,0,0
116894,-100,4,2,1,60,0,0
118587,-100,4,2,2,60,0,0
118829,-100,4,2,1,60,0,0
122216,-100,4,2,2,60,0,0
122458,-100,4,2,1,60,0,0
125966,-100,4,1,1,75,0,1
141450,-100,4,1,1,60,0,0
163104,-100,4,1,2,60,0,0
163345,-100,4,1,1,60,0,0
165039,-100,4,1,2,60,0,0
165281,-100,4,1,1,60,0,0
173144,-100,4,1,1,40,0,0
174354,-100,4,1,1,75,0,1
189837,-100,4,1,1,60,0,0
205684,-100,4,1,1,50,0,0
205926,-100,4,1,1,60,0,0
206652,-100,4,1,1,50,0,0
206894,-100,4,1,1,60,0,0
207620,-100,4,1,1,50,0,0
207862,-100,4,1,1,60,0,0
208587,-100,4,1,1,50,0,0
208829,-100,4,1,1,60,0,0
209555,-100,4,1,1,50,0,0
209797,-100,4,1,1,60,0,0
210523,-100,4,1,1,50,0,0
210765,-100,4,1,1,60,0,0
211491,-100,4,1,1,50,0,0
211733,-100,4,1,1,60,0,0
212458,-100,4,1,1,50,0,0
212700,-100,4,1,1,60,0,0
213426,-100,4,1,1,50,0,0
213668,-100,4,1,1,60,0,0
214394,-100,4,1,1,50,0,0
214636,-100,4,1,1,60,0,0
215362,-100,4,1,1,50,0,0
215604,-100,4,1,1,60,0,0
216329,-100,4,1,1,50,0,0
216571,-100,4,1,1,60,0,0
217297,-100,4,1,1,50,0,0
217539,-100,4,1,1,60,0,0
218265,-100,4,1,1,50,0,0
218507,-100,4,1,1,60,0,0
219837,-100,4,2,1,5,0,0

[Colours]
Combo1 : 192,192,192
Combo2 : 128,128,255
Combo3 : 128,128,128
Combo4 : 128,128,192

[HitObjects]
304,140,2096,5,0,0:0:0:0:
208,140,2580,1,0,0:0:0:0:
120,180,3064,2,0,P|96:236|125:285,1,120
208,332,4032,5,0,0:0:0:0:
304,332,4516,1,0,0:0:0:0:
388,284,5000,2,0,P|412:228|388:172,1,120
304,140,5966,5,0,0:0:0:0:
208,140,6450,1,0,0:0:0:0:
136,76,6934,2,0,B|88:28|88:28|24:28,1,120
40,124,7902,5,0,0:0:0:0:
40,220,8386,1,0,0:0:0:0:
112,284,8870,2,0,L|232:284,1,120
324,256,9837,6,0,P|340:176|316:136,1,120
228,128,10805,2,0,L|164:128,2,60
316,88,11773,6,0,P|268:40|200:40,1,120
124,32,12741,2,0,L|52:32,2,60
124,128,13708,6,0,L|124:264,1,120
208,296,14676,1,0,0:0:0:0:
304,296,15160,1,0,0:0:0:0:
352,216,15644,6,0,L|400:160,2,60
256,216,16612,2,0,L|208:160,2,60
304,128,17579,5,4,0:0:0:0:
232,64,18063,1,0,0:0:0:0:
144,96,18547,2,0,L|96:40,2,60
136,192,19515,5,0,0:0:0:0:
80,272,19999,1,0,0:0:0:0:
104,368,20483,2,0,B|40:368|40:368|-8:320,1,120
0,232,21450,5,0,0:0:0:0:
0,136,21934,2,0,B|32:80|32:80|96:80,1,120
184,80,22902,1,0,0:0:0:0:
280,72,23386,6,0,B|302:81|314:109|314:109|314:177,1,120
220,196,24354,2,0,B|197:205|185:233|185:233|185:301,1,120
280,296,25321,5,0,0:0:0:0:
368,336,25805,2,0,P|432:320|448:256,1,120,8|0,0:0|0:0,0:0:0:0:
456,176,26773,2,0,P|440:112|384:88,1,120,8|0,0:0|0:0,0:0:0:0:
296,88,27741,5,8,0:0:0:0:
200,88,28225,2,0,B|200:152|200:152|256:176,1,120,0|8,0:0|0:0,0:0:0:0:
344,176,29192,5,0,0:0:0:0:
440,176,29676,2,0,L|512:176,2,60,8|0|0,0:0|0:0|0:0,0:0:0:0:
392,256,30644,1,8,0:0:0:0:
304,288,31128,6,0,P|107:252|139:135,1,360,0|4,0:0|0:0,0:0:0:0:
256,192,33063,12,4,36934,0:0:0:0:
376,128,48547,5,4,0:0:0:0:
280,128,49031,2,0,L|144:128,1,120,8|0,0:0|0:0,0:0:0:0:
80,184,49999,2,0,B|80:248|80:248|128:288,1,120,8|0,0:0|0:0,0:0:0:0:
208,328,50966,5,8,0:0:0:0:
304,320,51450,2,0,P|352:288|368:208,1,120,0|8,0:0|0:0,0:0:0:0:
336,144,52418,6,0,P|256:40|176:144,1,300,0|2,0:0|0:0,0:0:0:0:
256,260,54354,2,0,P|296:288|376:264,1,120,0|8,0:0|0:0,0:0:0:0:
456,300,55321,2,0,P|452:240|396:184,1,120,0|8,0:0|0:0,0:0:0:0:
320,188,56289,5,4,0:0:0:0:
320,92,56773,2,0,B|264:60|264:60|216:92|216:92|168:60|168:60|112:92,1,240,8|8,0:0|0:0,0:0:0:0:
40,152,58225,2,0,L|40:272,2,120,0|8|0,0:0|0:0|0:0,0:0:0:0:
40,56,59676,1,8,0:0:0:0:
136,56,60160,5,0,0:0:0:0:
232,56,60644,2,0,B|280:96|280:96|280:216|280:216|232:256,1,240,8|0,0:0|0:0,0:0:0:0:
144,288,62095,1,0,0:0:0:0:
56,252,62579,2,0,P|8:212|16:132,2,120,8|0|8,0:0|0:0|0:0,0:0:0:0:
144,288,64031,5,4,0:0:0:0:
228,240,64515,1,8,0:0:0:0:
308,188,64999,2,0,L|372:140,2,60,0|0|8,0:0|0:0|0:0,0:0:0:0:
308,284,65966,6,0,P|228:328|148:283,1,180,4|0,0:0|0:0,0:0:0:0:
88,164,67418,1,8,0:0:0:0:
160,100,67902,5,4,0:0:0:0:
252,72,68386,2,0,P|316:72|364:112,1,120,8|0,0:0|0:0,0:0:0:0:
388,196,69354,1,8,0:0:0:0:
368,288,69837,6,0,P|312:344|208:312,1,180,4|0,0:0|0:0,0:0:0:0:
264,188,71289,1,8,0:0:0:0:
176,228,71773,5,4,0:0:0:0:
84,200,72257,2,0,B|84:136|84:136|132:88,1,120,8|0,0:0|0:0,0:0:0:0:
204,44,73225,1,8,0:0:0:0:
256,124,73708,6,0,B|323:184|323:184|392:124,1,180,4|4,0:0|0:0,0:0:0:0:
496,28,75160,1,8,0:0:0:0:
496,124,75644,5,4,0:0:0:0:
496,220,76128,2,0,L|496:340,1,120,8|0,0:0|0:0,0:0:0:0:
399,340,77095,1,8,0:0:0:0:
256,192,77579,12,4,79515,0:0:0:0:
328,112,80483,6,0,P|264:72|216:80,1,120,0|8,0:0|0:0,0:0:0:0:
144,136,81450,1,0,0:0:0:0:
88,216,81934,1,8,0:0:0:0:
104,312,82418,2,0,P|152:344|224:328,1,120,0|8,0:0|0:0,0:0:0:0:
288,272,83386,5,0,0:0:0:0:
352,200,83870,1,8,0:0:0:0:
268,152,84354,2,2,B|308:104|308:104|365:104,1,120
460,120,85321,2,0,P|500:184|468:240,1,120,0|8,0:0|0:0,0:0:0:0:
436,304,86289,2,0,P|383:358|321:340,1,120,0|8,0:0|0:0,0:0:0:0:
352,260,87257,5,4,0:0:0:0:
268,308,87741,1,8,0:0:0:0:
192,368,88225,2,0,P|168:304|188:252,1,120,0|8,0:0|0:0,0:0:0:0:
264,204,89192,5,0,0:0:0:0:
220,120,89676,1,8,0:0:0:0:
128,100,90160,2,0,B|116:168|176:204|176:204|188:284|120:300,1,240
32,288,91612,1,8,0:0:0:0:
24,192,92095,2,2,P|12:148|20:56,1,120
256,192,93063,12,4,94999,0:0:0:0:
276,88,102741,6,8,P|200:116|180:164,1,120,4|0,0:0|0:0,0:0:0:0:
272,180,103708,2,0,B|272:232|272:232|236:264|244:320,1,120,0|0,0:0|0:0,0:0:0:0:
340,304,104676,1,8,0:0:0:0:
388,220,105160,1,0,0:0:0:0:
348,132,105644,2,0,P|300:88|240:92,1,120,0|0,0:0|0:0,0:0:0:0:
272,180,106612,6,0,L|152:180,1,120,0|0,0:0|0:0,0:0:0:0:
84,112,107579,1,8,0:0:0:0:
48,200,108063,2,0,P|72:260|128:280,1,120
184,352,109031,2,0,B|220:328|216:276|216:276|256:276,1,120
344,276,109999,2,0,L|408:276,2,60,8|0|4,0:0|0:0|0:0,0:0:0:0:
344,180,110966,6,0,B|464:180|464:180|504:116|416:68,1,240,8|8,0:0|0:0,0:0:0:0:
344,48,112418,2,0,P|256:24|160:56,1,180,0|4,0:0|0:0,0:0:0:0:
104,280,114354,6,0,B|200:280|200:280|248:208,1,180,4|0,0:0|0:0,0:0:0:0:
292,128,115563,2,0,L|324:64,1,60,0|8,0:0|0:0,0:0:0:0:
396,20,116289,2,0,P|484:60|492:148,1,180,0|4,0:0|0:0,0:0:0:0:
316,296,118225,6,0,B|212:296|212:296|172:224,1,180,4|0,0:0|0:0,0:0:0:0:
128,148,119434,2,0,L|96:84,1,60,0|8,0:0|0:0,0:0:0:0:
32,28,120160,1,4,0:0:0:0:
4,120,120644,2,0,P|8:176|56:220,1,120,8|0,0:0|0:0,0:0:0:0:
128,276,121612,5,2,0:0:0:0:
204,336,122095,2,0,P|256:356|360:292,2,180,0|8|8,0:0|0:0|0:0,0:0:0:0:
256,192,124031,12,4,125966,0:0:0:0:
212,96,126934,6,0,P|164:36|100:40,1,120,0|8,0:0|0:0,0:0:0:0:
120,128,127902,1,0,0:0:0:0:
120,224,128386,1,8,0:0:0:0:
180,300,128870,2,0,B|244:300|244:300|300:244,1,120,0|8,0:0|0:0,0:0:0:0:
268,164,129837,6,0,P|300:92|340:84,1,120,0|8,0:0|0:0,0:0:0:0:
432,88,130805,2,2,P|466:96|498:168,1,120,2|2,0:0|0:0,0:0:0:0:
436,244,131773,5,0,0:0:0:0:
340,244,132257,1,8,0:0:0:0:
256,292,132741,2,0,L|136:292,1,120,0|8,0:0|0:0,0:0:0:0:
96,204,133708,6,0,P|96:140|144:100,1,120,4|8,0:0|0:0,0:0:0:0:
220,60,134676,2,0,P|284:52|332:76,1,120,0|8,0:0|0:0,0:0:0:0:
400,144,135644,5,0,0:0:0:0:
400,240,136128,1,8,0:0:0:0:
328,304,136612,2,0,B|272:328|272:328|200:296,1,120,0|8,0:0|0:0,0:0:0:0:
272,224,137579,6,0,P|258:153|205:131,1,120,0|8,0:0|0:0,0:0:0:0:
124,128,138547,2,2,B|72:128|72:128|36:152|44:196,1,120
96,272,139515,1,0,0:0:0:0:
28,340,139999,1,8,0:0:0:0:
120,364,140483,2,0,P|176:336|188:268,1,120,0|8,0:0|0:0,0:0:0:0:
256,192,141450,12,4,147257,0:0:0:0:
352,280,156934,5,12,0:0:0:0:
208,280,157660,1,0,0:0:0:0:
272,152,158386,1,8,0:0:0:0:
352,96,158870,2,0,P|268:56|192:96,1,180,0|4,0:0|0:0,0:0:0:0:
48,256,160805,5,8,0:0:0:0:
48,112,161531,1,0,0:0:0:0:
168,192,162257,1,8,0:0:0:0:
232,264,162741,2,0,P|268:192|224:108,1,180,0|4,0:0|0:0,0:0:0:0:
464,72,164676,6,0,B|392:72|424:200|328:192,1,180,4|0,0:0|0:0,0:0:0:0:
248,192,165886,2,0,L|184:192,1,60,0|8,0:0|0:0,0:0:0:0:
128,116,166612,2,0,P|88:196|136:276,1,180,4|4,0:0|0:0,0:0:0:0:
332,144,168547,5,4,0:0:0:0:
188,144,169273,1,0,0:0:0:0:
256,272,169999,1,12,0:0:0:0:
256,192,170483,12,8,173144,0:0:0:0:
408,104,174354,6,0,L|280:104,1,120,4|8,0:0|0:0,0:0:0:0:
192,104,175321,1,0,0:0:0:0:
152,192,175805,1,8,0:0:0:0:
200,272,176289,6,0,L|328:272,1,120,0|8,0:0|0:0,0:0:0:0:
408,232,177257,1,0,0:0:0:0:
440,144,177741,1,8,0:0:0:0:
368,80,178225,6,0,P|288:56|232:80,1,120,0|8,0:0|0:0,0:0:0:0:
220,96,178950,2,2,B|172:120|132:92|132:92|68:72|32:124,1,180
96,188,180160,5,0,0:0:0:0:
132,276,180644,2,0,P|196:292|260:268,1,120,8|0,0:0|0:0,0:0:0:0:
288,188,181612,1,8,0:0:0:0:
272,92,182095,6,0,P|344:108|376:148,1,120,4|8,0:0|0:0,0:0:0:0:
372,188,182821,2,0,P|440:240|528:204,1,180,4|8,0:0|0:0,0:0:0:0:
456,140,184031,5,0,0:0:0:0:
456,44,184515,1,8,0:0:0:0:
408,44,184757,2,0,B|368:16|268:80|216:32,1,180,4|8,0:0|0:0,0:0:0:0:
136,28,185966,6,0,P|88:36|72:108,1,120,0|8,0:0|0:0,0:0:0:0:
104,128,186692,2,2,B|132:171|106:212|106:212|135:261|102:303,1,180
20,256,187902,5,0,0:0:0:0:
28,352,188386,1,8,0:0:0:0:
120,380,188870,1,0,0:0:0:0:
200,328,189354,1,8,0:0:0:0:
256,192,189837,12,4,197579,0:0:0:0:
360,96,205321,5,4,0:0:0:0:
264,96,205805,1,0,0:0:0:0:
176,136,206289,2,0,P|152:192|181:241,1,120
264,288,207257,5,0,0:0:0:0:
360,288,207741,1,0,0:0:0:0:
444,240,208225,2,0,P|466:184|436:128,1,120
352,104,209192,5,0,0:0:0:0:
312,192,209676,1,0,0:0:0:0:
216,192,210160,2,0,L|88:192,1,120
32,120,211128,5,0,0:0:0:0:
96,48,211612,1,0,0:0:0:0:
192,48,212095,2,0,L|328:48,1,120
376,120,213063,6,0,P|400:192|368:232,1,120
308,292,214031,2,0,P|256:316|195:285,1,120
132,224,214999,2,0,P|110:191|134:119,1,120
204,52,215966,2,0,P|258:28|310:52,1,120
376,120,216934,5,0,0:0:0:0:
376,216,217418,1,0,0:0:0:0:
292,264,217902,1,0,0:0:0:0:
204,224,218386,1,0,0:0:0:0:
276,160,218870,6,0,B|244:112|172:120|172:120|132:184|52:136,1,240
