osu file format v13

[General]
AudioFilename: Francium.mp3
AudioLeadIn: 0
PreviewTime: 36974
Countdown: 1
SampleSet: Normal
StackLeniency: 0.7
Mode: 2
LetterboxInBreaks: 1
WidescreenStoryboard: 0

[Editor]
Bookmarks: 62974,105641
DistanceSpacing: 1
BeatDivisor: 8
GridSize: 8
TimelineZoom: 2.5

[Metadata]
Title:Francium
TitleUnicode:Francium
Artist:nanahira
ArtistUnicode:nanahira
Creator:WujekGrzyb
Version:Overdose
Source:
Tags:
BeatmapID:444889
BeatmapSetID:186201

[Difficulty]
HPDrainRate:6.5
CircleSize:4
OverallDifficulty:6
ApproachRate:9
SliderMultiplier:2.5
SliderTickRate:1

[Events]
//Background and Video events
//Break Periods
2,89841,105041
//Storyboard Layer 0 (Background)
//Storyboard Layer 1 (Fail)
//Storyboard Layer 2 (Pass)
//Storyboard Layer 3 (Foreground)
//Storyboard Sound Samples
//Background Colour Transformations
3,100,163,162,255

[TimingPoints]
10308,333.333333333333,4,1,0,100,1,0
13224,-100,4,1,1,100,0,0
13558,-100,4,1,0,100,0,0
36974,-100,4,1,0,100,0,0
126974,-50,4,1,0,100,0,0
127307,-100,4,1,0,100,0,0
152307,-83.3333333333333,4,1,0,100,0,0
162974,-83.3333333333333,4,1,0,5,0,0
163224,-83.3333333333333,4,1,0,100,0,0

[HitObjects]
176,136,10307,5,0,0:0:0:0:
304,136,10474,1,8,0:0:0:0:
304,264,10641,1,0,0:0:0:0:
304,264,10724,2,0,L|144:248,1,125
72,232,10974,2,0,L|200:200,1,125,8|0,0:0|0:0,0:0:0:0:
432,184,11308,2,0,L|280:136,1,125,8|0,0:0|0:0,0:0:0:0:
48,176,11641,2,0,L|176:120,1,125,0|2,0:0|0:0,0:0:0:0:
448,120,11974,1,8,0:0:0:0:
376,120,12058,1,0,0:0:0:0:
304,120,12141,1,2,0:0:0:0:
72,120,12308,1,8,0:0:0:0:
144,120,12391,1,0,0:0:0:0:
216,120,12474,1,2,0:0:0:0:
384,208,12641,1,8,0:0:0:0:
368,208,12724,1,0,0:0:0:0:
352,208,12808,1,2,0:0:0:0:
248,248,12891,6,0,L|80:336,1,187.5,8|8,0:0|0:0,0:0:0:0:
136,208,13308,1,0,0:0:0:0:
136,208,13474,1,0,0:0:0:0:
280,312,13641,2,0,L|216:272,3,62.5,0|0|0|0,0:0|0:0|0:0|0:0,0:0:0:0:
336,264,13974,2,0,L|400:224,3,62.5,8|0|0|0,0:0|0:0|0:0|0:0,0:0:0:0:
280,176,14308,1,0,0:0:0:0:
136,120,14474,1,8,0:0:0:0:
216,120,14558,1,0,0:0:0:0:
296,120,14641,1,0,0:0:0:0:
136,56,14808,1,8,0:0:0:0:
296,64,14974,2,8,L|296:0,3,62.5,8|8|8|8,0:0|0:0|0:0|0:0,0:0:0:0:
208,216,15308,2,0,L|360:216,1,125,8|0,0:0|0:0,0:0:0:0:
112,240,15641,6,0,L|40:240,2,62.5,2|0|0,0:0|0:0|0:0,0:0:0:0:
392,240,15974,2,0,L|464:240,2,62.5,10|0|0,0:0|0:0|0:0,0:0:0:0:
128,152,16307,1,0,0:0:0:0:
88,144,16391,1,0,0:0:0:0:
48,112,16474,1,0,0:0:0:0:
40,64,16557,2,0,L|232:64,1,187.5,8|8,0:0|0:0,0:0:0:0:
192,224,16974,5,0,0:0:0:0:
288,224,17141,1,2,0:0:0:0:
376,224,17307,1,0,0:0:0:0:
472,224,17474,1,2,0:0:0:0:
40,312,17641,6,0,L|120:312,1,62.5
192,312,17807,2,0,L|304:312,1,62.5,0|2,0:0|0:0,0:0:0:0:
336,312,17974,2,0,L|416:312,1,62.5
480,312,18141,1,0,0:0:0:0:
392,120,18307,2,0,L|368:48,2,62.5,2|0|0,0:0|0:0|0:0,0:0:0:0:
192,40,18641,1,8,0:0:0:0:
96,40,18807,1,0,0:0:0:0:
248,160,18974,2,0,L|152:160,2,62.5,2|0|0,0:0|0:0|0:0,0:0:0:0:
424,160,19307,2,0,L|504:160,2,62.5,8|0|0,0:0|0:0|0:0,0:0:0:0:
336,200,19641,2,0,L|336:280,2,62.5,2|0|0,0:0|0:0|0:0,0:0:0:0:
392,320,19974,2,0,L|168:288,1,187.5,8|0,0:0|0:0,0:0:0:0:
80,232,20307,2,0,L|224:208,1,125,8|2,0:0|0:0,0:0:0:0:
432,240,20641,2,0,L|272:208,1,125,8|2,0:0|0:0,0:0:0:0:
136,88,20974,6,0,P|88:176|136:240,1,187.5,12|0,0:0|0:0,0:0:0:0:
264,288,21307,2,0,L|424:288,1,125
208,184,21641,1,0,0:0:0:0:
208,184,21724,1,0,0:0:0:0:
216,184,21807,2,0,L|352:144,1,125,0|0,0:0|0:0,0:0:0:0:
248,80,22141,1,0,0:0:0:0:
440,104,22307,2,0,L|416:40,2,62.5,0|0|0,0:0|0:0|0:0,0:0:0:0:
312,208,22641,2,0,L|320:136,2,62.5,0|0|0,0:0|0:0|0:0,0:0:0:0:
192,296,22974,2,0,L|184:224,2,62.5,0|0|0,0:0|0:0|0:0,0:0:0:0:
40,320,23307,2,0,L|56:248,2,62.5,0|0|0,0:0|0:0|0:0,0:0:0:0:
360,112,23641,6,0,L|176:112,1,125
144,112,23891,1,0,0:0:0:0:
168,144,23974,1,0,0:0:0:0:
64,144,24141,1,0,0:0:0:0:
352,224,24307,1,0,0:0:0:0:
328,208,24391,1,0,0:0:0:0:
304,192,24474,1,0,0:0:0:0:
88,256,24641,1,0,0:0:0:0:
88,320,24807,1,0,0:0:0:0:
160,320,24891,1,0,0:0:0:0:
224,320,24974,1,0,0:0:0:0:
288,320,25057,1,0,0:0:0:0:
352,312,25141,1,0,0:0:0:0:
408,288,25224,1,0,0:0:0:0:
448,240,25307,1,0,0:0:0:0:
464,176,25391,1,0,0:0:0:0:
416,176,25474,1,0,0:0:0:0:
464,120,25557,1,0,0:0:0:0:
416,120,25641,2,0,L|208:120,1,187.5
120,120,25974,1,0,0:0:0:0:
264,152,26141,1,0,0:0:0:0:
264,152,26224,1,0,0:0:0:0:
264,152,26307,6,0,L|424:152,1,125
208,208,26641,2,0,L|360:208,1,125
152,264,26974,2,0,L|296:264,3,125,0|0|0|0,0:0|0:0|0:0|0:0,0:0:0:0:
448,256,27641,2,0,L|392:216,3,62.5,0|0|0|0,0:0|0:0|0:0|0:0,0:0:0:0:
448,160,27974,2,0,L|344:80,1,125
96,48,28307,1,0,0:0:0:0:
272,48,28474,1,0,0:0:0:0:
96,104,28641,1,0,0:0:0:0:
272,112,28807,1,0,0:0:0:0:
72,192,28974,6,0,L|264:192,1,187.5
296,224,29307,1,0,0:0:0:0:
472,240,29391,2,0,L|424:160,1,62.5
456,320,29641,6,0,L|264:320,1,187.5
224,296,29974,1,0,0:0:0:0:
48,272,30057,2,0,L|96:160,1,62.5
208,176,30307,1,0,0:0:0:0:
280,176,30391,1,0,0:0:0:0:
352,176,30474,1,0,0:0:0:0:
424,176,30557,1,0,0:0:0:0:
280,104,30641,1,0,0:0:0:0:
424,104,30807,1,0,0:0:0:0:
80,136,30974,1,0,0:0:0:0:
80,136,31141,1,0,0:0:0:0:
408,264,31307,1,0,0:0:0:0:
408,264,31474,1,0,0:0:0:0:
64,184,31641,6,0,L|128:296,1,125
120,152,31974,2,0,L|208:296,1,125
368,288,32307,2,0,L|200:288,1,125
336,80,32641,2,0,L|336:224,1,125
408,88,32974,5,0,0:0:0:0:
64,96,33307,1,0,0:0:0:0:
336,176,33641,1,0,0:0:0:0:
240,176,33807,1,0,0:0:0:0:
360,192,33974,1,0,0:0:0:0:
256,208,34141,1,0,0:0:0:0:
400,256,34307,5,0,0:0:0:0:
400,256,34641,1,0,0:0:0:0:
80,264,34974,1,0,0:0:0:0:
80,264,35307,1,0,0:0:0:0:
448,304,35641,1,0,0:0:0:0:
448,304,35974,1,0,0:0:0:0:
88,80,36307,6,0,L|112:144,1,62.5
208,88,36474,2,0,L|224:160,1,62.5
344,168,36641,2,0,L|328:248,1,62.5
224,224,36807,2,0,L|216:296,1,62.5
64,176,36974,6,0,L|232:176,1,125
384,112,37307,1,0,0:0:0:0:
384,112,37391,1,0,0:0:0:0:
288,144,37474,1,0,0:0:0:0:
288,144,37557,1,0,0:0:0:0:
336,264,37641,2,0,L|496:264,1,125
488,264,37891,1,0,0:0:0:0:
176,264,37974,2,0,L|16:264,1,125
24,264,38224,1,0,0:0:0:0:
336,200,38307,2,0,L|480:160,1,125
480,120,38557,1,0,0:0:0:0:
240,104,38641,2,0,L|176:160,3,62.5,0|0|0|0,0:0|0:0|0:0|0:0,0:0:0:0:
88,40,38974,6,0,L|152:96,1,62.5
184,72,39141,2,0,L|256:128,1,62.5
368,112,39307,2,0,L|432:160,2,62.5,0|0|0,0:0|0:0|0:0,0:0:0:0:
384,256,39557,2,0,L|176:216,1,187.5
72,192,39974,1,0,0:0:0:0:
312,192,40141,1,0,0:0:0:0:
200,200,40307,1,0,0:0:0:0:
176,200,40391,1,0,0:0:0:0:
320,280,40474,1,0,0:0:0:0:
344,280,40557,1,0,0:0:0:0:
168,280,40641,1,0,0:0:0:0:
88,280,40807,1,0,0:0:0:0:
384,144,40974,6,0,L|488:144|496:144,1,62.5
440,64,41141,1,0,0:0:0:0:
440,64,41224,1,0,0:0:0:0:
376,32,41307,2,0,B|224:32|224:32|208:40,1,125
104,120,41641,1,0,0:0:0:0:
256,120,41724,1,0,0:0:0:0:
408,120,41807,1,0,0:0:0:0:
256,120,41891,1,0,0:0:0:0:
104,120,41974,1,0,0:0:0:0:
256,120,42057,1,0,0:0:0:0:
408,120,42141,1,0,0:0:0:0:
112,224,42307,6,0,L|32:184,2,62.5,0|0|0,0:0|0:0|0:0,0:0:0:0:
360,232,42641,2,0,B|424:232|424:232|352:232,1,125
160,192,42974,2,0,L|120:248,7,62.5,0|0|0|0|0|0|0|0,0:0|0:0|0:0|0:0|0:0|0:0|0:0|0:0,0:0:0:0:
368,296,43641,2,0,L|488:112,1,187.5
152,296,43974,2,0,L|72:192,1,125
192,48,44307,2,0,L|232:136,1,62.5
304,80,44474,2,0,L|368:144,1,62.5
424,168,44641,2,0,L|400:232,1,62.5
312,208,44807,2,0,L|264:256,1,62.5
192,136,44974,6,0,L|144:344,1,187.5
336,144,45307,2,0,L|376:360,1,187.5
112,136,45641,2,0,P|80:240|144:352,1,187.5
416,144,45974,2,0,P|440:248|384:352,1,187.5
64,176,46307,2,0,L|200:184,1,125
448,176,46641,2,0,L|296:184,1,125
80,240,46974,1,0,0:0:0:0:
424,248,47141,1,0,0:0:0:0:
88,64,47307,1,0,0:0:0:0:
104,88,47391,1,0,0:0:0:0:
160,88,47474,1,0,0:0:0:0:
184,112,47557,1,0,0:0:0:0:
392,80,47641,6,0,P|472:176|384:248,1,250
296,168,48141,1,0,0:0:0:0:
144,272,48307,1,0,0:0:0:0:
216,272,48391,1,0,0:0:0:0:
288,272,48474,1,0,0:0:0:0:
456,224,48641,2,0,L|304:224,1,125
152,184,48974,2,0,L|72:184,2,62.5,0|0|0,0:0|0:0|0:0,0:0:0:0:
296,184,49307,2,0,L|376:184,2,62.5,0|0|0,0:0|0:0|0:0,0:0:0:0:
104,144,49641,2,0,L|24:144,2,62.5,0|0|0,0:0|0:0|0:0,0:0:0:0:
400,144,49974,2,0,L|480:144,2,62.5,0|0|0,0:0|0:0|0:0,0:0:0:0:
176,72,50307,6,0,L|424:72,1,187.5
496,136,50641,2,0,L|344:136,1,125
96,216,50974,1,0,0:0:0:0:
160,216,51057,1,0,0:0:0:0:
224,216,51141,1,0,0:0:0:0:
280,240,51224,1,0,0:0:0:0:
312,296,51307,1,0,0:0:0:0:
152,296,51474,1,0,0:0:0:0:
448,264,51641,2,0,L|424:184,2,62.5,0|0|0,0:0|0:0|0:0,0:0:0:0:
264,128,51974,1,0,0:0:0:0:
264,128,52141,1,0,0:0:0:0:
336,104,52307,1,0,0:0:0:0:
192,104,52474,1,0,0:0:0:0:
384,144,52641,1,0,0:0:0:0:
144,144,52807,1,0,0:0:0:0:
432,192,52974,6,0,L|488:344,1,125
352,320,53307,2,0,L|312:192,1,125
176,320,53641,2,0,B|48:320|48:320|176:320,2,250,0|0|0,0:0|0:0|0:0,0:0:0:0:
256,320,54391,1,0,0:0:0:0:
336,320,54474,1,0,0:0:0:0:
416,320,54557,1,0,0:0:0:0:
496,256,54641,2,0,L|336:240,1,125
112,264,54974,2,0,L|256:232,1,125
480,200,55307,2,0,L|336:144,1,125
112,104,55641,2,0,L|336:104,1,187.5
400,112,55974,2,0,L|504:112,1,62.5,0|0,0:0|0:0,0:0:0:0:
272,168,56141,1,0,0:0:0:0:
88,240,56307,2,0,L|312:240,1,187.5
376,248,56640,2,0,L|480:248,1,62.5,0|0,0:0|0:0,0:0:0:0:
272,328,56807,1,0,0:0:0:0:
96,328,56974,6,0,L|152:256,1,62.5
240,280,57141,2,0,L|272:216,1,62.5
384,192,57307,2,0,L|504:160,1,125
144,200,57641,2,0,L|-8:152,1,125
360,112,57974,1,0,0:0:0:0:
232,112,58141,1,0,0:0:0:0:
256,192,58307,12,0,60641,0:0:0:0:
256,192,60974,12,0,62807,0:0:0:0:
392,192,62974,5,0,0:0:0:0:
392,192,63057,1,0,0:0:0:0:
392,192,63141,1,0,0:0:0:0:
392,192,63224,1,0,0:0:0:0:
392,192,63307,1,0,0:0:0:0:
272,192,63474,1,0,0:0:0:0:
80,320,63641,6,0,L|216:296,1,125
448,312,63974,2,0,L|320:264,1,125
56,240,64307,2,0,L|184:152,1,125
392,112,64641,2,0,L|344:48,3,62.5,0|0|0|0,0:0|0:0|0:0|0:0,0:0:0:0:
264,112,64974,2,0,L|304:56,3,62.5,0|0|0|0,0:0|0:0|0:0|0:0,0:0:0:0:
192,120,65307,2,0,L|120:120,1,62.5
0,72,65474,2,0,L|64:136,1,62.5
424,192,65807,1,0,0:0:0:0:
464,256,65974,1,0,0:0:0:0:
408,320,66141,1,0,0:0:0:0:
168,256,66307,5,0,0:0:0:0:
248,256,66391,1,0,0:0:0:0:
328,248,66474,1,0,0:0:0:0:
248,224,66557,1,0,0:0:0:0:
168,224,66641,1,0,0:0:0:0:
328,192,66807,1,0,0:0:0:0:
80,88,66974,6,0,L|48:144,3,62.5,0|0|0|0,0:0|0:0|0:0|0:0,0:0:0:0:
144,128,67307,2,0,L|320:128,1,125
448,136,67641,6,0,L|480:192,3,62.5,0|0|0|0,0:0|0:0|0:0|0:0,0:0:0:0:
384,176,67974,2,0,L|208:176,1,125
456,280,68307,1,0,0:0:0:0:
456,280,68391,1,0,0:0:0:0:
456,280,68474,1,0,0:0:0:0:
256,304,68641,2,0,L|128:304,1,125
224,160,68974,2,0,L|344:88,1,125
432,120,69224,2,0,L|264:216,1,187.5
152,64,69641,5,0,0:0:0:0:
224,64,69807,1,0,0:0:0:0:
296,64,69974,1,0,0:0:0:0:
368,64,70141,1,0,0:0:0:0:
48,168,70307,6,0,L|112:184,1,62.5
200,136,70474,2,0,L|304:160,1,62.5
480,200,70641,2,0,L|416:184,1,62.5
336,256,70807,2,0,L|272:240,1,62.5
136,320,70974,2,0,L|56:136,1,187.5
272,328,71307,2,0,L|336:128,1,187.5
72,208,71641,2,0,P|40:120|88:32,1,187.5
433,39,71974,2,0,P|472:122|440:208,1,187.5
208,136,72307,5,0,0:0:0:0:
168,80,72474,1,0,0:0:0:0:
352,168,72641,1,0,0:0:0:0:
400,120,72807,1,0,0:0:0:0:
192,248,72974,2,0,L|72:160,1,125
328,248,73307,2,0,L|440:192,1,125,0|0,0:0|0:0,0:0:0:0:
136,128,73641,6,0,B|72:128|72:128|152:128,1,125
416,128,73974,1,0,0:0:0:0:
192,56,74141,6,0,L|288:80,1,62.5
352,96,74307,2,0,L|288:120,1,62.5
184,152,74474,2,0,L|280:176,1,62.5
360,200,74641,2,0,P|424:248|464:304,1,125
144,304,74974,6,0,L|184:256,3,62.5,0|0|0|0,0:0|0:0|0:0|0:0,0:0:0:0:
272,312,75307,2,0,L|232:256,3,62.5,0|0|0|0,0:0|0:0|0:0|0:0,0:0:0:0:
80,216,75641,2,0,L|96:152,2,62.5,0|0|0,0:0|0:0|0:0,0:0:0:0:
272,192,75974,2,0,L|240:112,2,62.5,0|0|0,0:0|0:0|0:0,0:0:0:0:
368,264,76307,5,0,0:0:0:0:
448,264,76391,1,0,0:0:0:0:
504,232,76474,1,0,0:0:0:0:
512,168,76557,1,0,0:0:0:0:
464,120,76641,1,8,0:0:0:0:
400,120,76724,1,0,0:0:0:0:
304,120,76807,1,0,0:0:0:0:
208,120,76891,1,0,0:0:0:0:
112,120,76974,5,0,0:0:0:0:
32,128,77058,1,0,0:0:0:0:
8,184,77141,1,0,0:0:0:0:
40,232,77224,1,0,0:0:0:0:
128,232,77308,1,8,0:0:0:0:
216,232,77391,1,0,0:0:0:0:
304,232,77474,1,0,0:0:0:0:
392,232,77558,1,0,0:0:0:0:
456,216,77641,5,0,0:0:0:0:
496,176,77724,1,0,0:0:0:0:
488,128,77807,1,0,0:0:0:0:
440,96,77891,1,0,0:0:0:0:
360,96,77974,1,0,0:0:0:0:
272,96,78057,1,0,0:0:0:0:
192,96,78141,1,0,0:0:0:0:
128,96,78224,1,0,0:0:0:0:
0,136,78307,6,0,L|48:192,1,62.5
176,144,78474,2,0,L|120:200,1,62.5
8,208,78641,2,0,L|56:280,1,62.5
176,208,78807,2,0,L|112:288,1,62.5
24,320,78974,6,0,B|-24:248,3,62.5,0|0|0|0,0:0|0:0|0:0|0:0,0:0:0:0:
168,320,79307,2,0,L|224:256,1,62.5
320,272,79474,2,0,L|368:208,1,62.5
464,184,79641,6,0,L|384:64,1,125
32,184,79974,2,0,L|120:64,1,125
440,264,80307,1,0,0:0:0:0:
352,264,80391,1,0,0:0:0:0:
264,264,80474,1,0,0:0:0:0:
176,264,80557,1,0,0:0:0:0:
88,208,80641,2,0,L|240:184,1,125
432,200,80974,2,0,L|288:168,1,125
160,88,81307,1,0,0:0:0:0:
272,88,81474,1,0,0:0:0:0:
400,160,81641,6,0,L|168:160,1,187.5
128,160,81974,2,0,L|40:160|48:160,1,62.5
248,232,82141,1,0,0:0:0:0:
488,288,82307,6,0,L|256:288,1,187.5
216,288,82640,2,0,L|128:288|136:288,1,62.5
336,360,82807,1,0,0:0:0:0:
456,104,82974,2,0,L|520:144,3,62.5,0|0|0|0,0:0|0:0|0:0|0:0,0:0:0:0:
384,144,83307,1,0,0:0:0:0:
296,144,83474,1,0,0:0:0:0:
168,176,83641,1,0,0:0:0:0:
168,216,83807,1,0,0:0:0:0:
344,192,83974,1,0,0:0:0:0:
344,232,84141,1,0,0:0:0:0:
256,192,84307,12,0,86641,0:0:0:0:
256,192,86974,12,0,89641,0:0:0:0:
168,184,105641,5,0,0:0:0:0:
352,184,105807,1,0,0:0:0:0:
112,240,105974,2,0,L|32:240,2,62.5,0|0|0,0:0|0:0|0:0,0:0:0:0:
312,296,106307,2,0,L|416:224,1,125
232,136,106641,1,0,0:0:0:0:
136,80,106807,1,0,0:0:0:0:
280,256,106974,2,0,L|400:176,1,125
72,152,107307,1,0,0:0:0:0:
144,152,107391,1,0,0:0:0:0:
216,152,107474,1,0,0:0:0:0:
440,152,107641,1,0,0:0:0:0:
368,152,107724,1,0,0:0:0:0:
296,152,107807,1,0,0:0:0:0:
112,240,107974,1,0,0:0:0:0:
128,240,108057,1,0,0:0:0:0:
144,240,108141,1,0,0:0:0:0:
280,240,108224,6,0,L|456:336,1,187.5,0|0,0:0|0:0,0:0:0:0:
240,344,108641,2,0,L|112:344,1,125
344,72,108974,2,0,L|296:128,3,62.5,0|0|0|0,0:0|0:0|0:0|0:0,0:0:0:0:
384,168,109307,2,0,L|240:168,1,125
32,96,109641,1,0,0:0:0:0:
48,144,109724,1,0,0:0:0:0:
112,184,109807,1,0,0:0:0:0:
216,184,109891,1,0,0:0:0:0:
328,184,109974,2,0,L|384:56,1,125
488,216,110307,1,0,0:0:0:0:
472,264,110390,1,0,0:0:0:0:
400,304,110473,1,0,0:0:0:0:
304,304,110557,1,0,0:0:0:0:
192,304,110640,2,0,L|48:264,1,125
320,104,110974,5,0,0:0:0:0:
392,104,111057,1,0,0:0:0:0:
464,104,111141,1,0,0:0:0:0:
192,104,111307,2,0,L|48:104,1,125
240,176,111641,1,0,0:0:0:0:
320,176,111724,1,0,0:0:0:0:
400,176,111807,1,0,0:0:0:0:
480,176,111891,2,0,L|328:336,1,187.5
152,272,112307,5,0,0:0:0:0:
296,272,112474,1,0,0:0:0:0:
144,224,112641,1,0,0:0:0:0:
304,224,112807,1,0,0:0:0:0:
112,160,112974,1,0,0:0:0:0:
136,160,113057,1,0,0:0:0:0:
104,160,113141,1,0,0:0:0:0:
144,160,113224,1,0,0:0:0:0:
96,160,113307,1,0,0:0:0:0:
152,160,113391,1,0,0:0:0:0:
88,160,113474,1,0,0:0:0:0:
160,160,113557,1,0,0:0:0:0:
32,64,113641,6,0,L|0:136,2,62.5,0|0|0,0:0|0:0|0:0,0:0:0:0:
256,64,113974,2,0,L|384:64,1,125
504,144,114307,2,0,L|472:232,2,62.5,0|0|0,0:0|0:0|0:0,0:0:0:0:
264,288,114641,2,0,L|112:288,1,125
0,152,114974,2,0,L|24:240,2,62.5,0|0|0,0:0|0:0|0:0,0:0:0:0:
128,304,115307,2,0,L|192:96,1,187.5
440,304,115641,2,0,L|288:272,1,125
72,304,115974,2,0,L|232:264,1,125
392,200,116307,6,0,P|448:152|376:88,1,187.5
240,144,116641,2,0,L|376:144,1,125
464,248,116974,2,0,L|392:256,1,62.5
384,304,117141,2,0,L|320:312,1,62.5
288,208,117307,2,0,L|200:216,1,62.5
208,256,117474,2,0,L|144:264,1,62.5
80,168,117641,6,0,L|0:136,2,62.5,0|0|0,0:0|0:0|0:0,0:0:0:0:
432,176,117974,2,0,L|496:136,2,62.5,0|0|0,0:0|0:0|0:0,0:0:0:0:
128,136,118307,2,0,L|64:64,2,62.5,0|0|0,0:0|0:0|0:0,0:0:0:0:
384,136,118641,2,0,L|432:88,2,62.5,0|0|0,0:0|0:0|0:0,0:0:0:0:
248,72,118974,6,0,L|280:128,3,62.5,0|0|0|0,0:0|0:0|0:0|0:0,0:0:0:0:
184,152,119307,2,0,L|40:184,1,125
272,176,119641,6,0,L|240:240,3,62.5,0|0|0|0,0:0|0:0|0:0|0:0,0:0:0:0:
328,256,119974,2,0,L|472:288,1,125
120,296,120307,2,0,L|128:216,1,62.5,0|0,0:0|0:0,0:0:0:0:
216,232,120474,2,0,L|224:136,1,62.5
288,168,120641,2,0,L|296:64,1,62.5
392,120,120807,2,0,L|400:40,1,62.5
472,104,120974,2,0,L|488:168,1,62.5
400,192,121141,2,0,L|416:280,1,62.5
304,240,121307,2,0,L|320:312,1,62.5
208,288,121474,2,0,L|232:384,1,62.5
96,192,121641,6,0,L|248:192,1,125
56,120,121974,2,0,L|200:120,1,125
16,48,122307,2,0,L|160:48,3,125,0|0|0|0,0:0|0:0|0:0|0:0,0:0:0:0:
400,88,122974,5,0,0:0:0:0:
256,88,123057,1,0,0:0:0:0:
112,88,123141,1,0,0:0:0:0:
256,120,123224,1,0,0:0:0:0:
400,128,123307,1,0,0:0:0:0:
144,208,123474,1,0,0:0:0:0:
136,248,123641,1,0,0:0:0:0:
368,200,123807,1,0,0:0:0:0:
376,248,123974,1,0,0:0:0:0:
384,296,124141,1,0,0:0:0:0:
256,296,124307,6,0,L|192:296,2,62.5,0|0|0,0:0|0:0|0:0,0:0:0:0:
448,304,124641,2,0,L|480:232,1,62.5
320,184,124807,1,0,0:0:0:0:
176,208,124974,2,0,L|80:208,2,62.5,0|0|0,0:0|0:0|0:0,0:0:0:0:
408,192,125307,2,0,L|432:128,1,62.5
296,80,125474,1,0,0:0:0:0:
48,104,125641,1,0,0:0:0:0:
128,104,125724,1,0,0:0:0:0:
208,104,125807,1,0,0:0:0:0:
288,104,125891,1,0,0:0:0:0:
368,104,125974,1,0,0:0:0:0:
248,168,126141,1,0,0:0:0:0:
456,256,126307,1,0,0:0:0:0:
456,256,126474,1,0,0:0:0:0:
88,248,126641,1,0,0:0:0:0:
88,248,126807,1,0,0:0:0:0:
280,48,126974,6,0,P|128:184|328:352,1,500
48,192,127474,1,0,0:0:0:0:
304,192,127641,2,0,L|384:192,2,62.5,0|0|0,0:0|0:0|0:0,0:0:0:0:
248,192,127891,1,0,0:0:0:0:
192,192,127974,1,0,0:0:0:0:
440,192,128141,1,0,0:0:0:0:
224,112,128307,6,0,L|152:112,2,62.5,0|0|0,0:0|0:0|0:0,0:0:0:0:
360,112,128641,2,0,L|432:112,2,62.5,0|0|0,0:0|0:0|0:0,0:0:0:0:
120,144,128974,2,0,L|16:144,2,62.5,0|0|0,0:0|0:0|0:0,0:0:0:0:
400,160,129307,2,0,L|496:160,2,62.5,0|0|0,0:0|0:0|0:0,0:0:0:0:
96,280,129641,6,0,L|64:328,2,31.25,0|0|0,0:0|0:0|0:0,0:0:0:0:
184,264,129807,1,0,0:0:0:0:
280,256,129891,1,0,0:0:0:0:
376,240,129974,1,0,0:0:0:0:
280,216,130057,1,0,0:0:0:0:
184,200,130141,1,0,0:0:0:0:
280,176,130224,1,0,0:0:0:0:
376,160,130307,2,0,L|408:136,2,31.25,0|0|0,0:0|0:0|0:0,0:0:0:0:
280,176,130474,1,0,0:0:0:0:
184,200,130557,1,0,0:0:0:0:
88,232,130641,1,0,0:0:0:0:
184,264,130724,1,0,0:0:0:0:
280,296,130807,1,0,0:0:0:0:
184,320,130891,1,0,0:0:0:0:
72,120,130974,6,0,L|32:120,2,31.25,0|0|0,0:0|0:0|0:0,0:0:0:0:
168,120,131141,1,0,0:0:0:0:
264,120,131224,1,0,0:0:0:0:
368,120,131307,2,0,L|448:24,1,125
288,208,131641,6,0,L|232:208,2,31.25,0|0|0,0:0|0:0|0:0,0:0:0:0:
368,208,131808,1,0,0:0:0:0:
448,208,131891,1,0,0:0:0:0:
320,304,131974,2,0,L|168:304,1,125
72,120,132307,2,0,L|208:88,1,125
424,136,132641,2,0,L|280:72,1,125
72,248,132974,2,0,L|168:152,1,125
432,272,133307,2,0,L|352:160,1,125
144,64,133641,2,0,L|168:128,3,62.5,0|0|0|0,0:0|0:0|0:0|0:0,0:0:0:0:
80,136,133974,1,0,0:0:0:0:
80,176,134141,1,0,0:0:0:0:
400,160,134307,1,0,0:0:0:0:
400,208,134474,1,0,0:0:0:0:
176,152,134641,1,0,0:0:0:0:
176,192,134807,1,0,0:0:0:0:
392,280,134974,6,0,L|232:280,1,125
112,280,135224,2,0,L|192:280,1,62.5
288,224,135391,1,0,0:0:0:0:
472,136,135641,2,0,L|296:136,1,125
208,136,135891,2,0,L|288:136,1,62.5
368,80,136057,1,0,0:0:0:0:
112,88,136307,6,0,L|120:200,3,62.5,0|0|0|0,0:0|0:0|0:0|0:0,0:0:0:0:
88,184,136641,2,0,L|200:320,1,125
424,200,136974,2,0,L|336:304,1,125
72,240,137307,2,0,L|168:320,1,125
256,192,137641,1,0,0:0:0:0:
256,184,137974,1,0,0:0:0:0:
256,192,138057,12,0,139641,0:0:0:0:
152,160,139974,5,0,0:0:0:0:
240,160,140057,1,0,0:0:0:0:
304,160,140141,1,0,0:0:0:0:
360,160,140224,1,0,0:0:0:0:
392,160,140307,1,0,0:0:0:0:
416,280,140641,1,0,0:0:0:0:
144,160,140974,1,0,0:0:0:0:
120,280,141307,1,0,0:0:0:0:
352,88,141641,6,0,L|424:88,1,62.5
472,144,141807,2,0,L|304:216,1,125
208,200,142141,2,0,L|176:280,4,62.5,0|0|0|0|0,0:0|0:0|0:0|0:0|0:0,0:0:0:0:
360,272,142641,2,0,L|208:272,1,125
72,224,142974,2,0,L|24:168,2,62.5,0|0|0,0:0|0:0|0:0,0:0:0:0:
416,224,143307,2,0,L|456:168,2,62.5,0|0|0,0:0|0:0|0:0,0:0:0:0:
88,152,143641,1,0,0:0:0:0:
168,152,143724,1,0,0:0:0:0:
248,152,143807,1,0,0:0:0:0:
424,152,143974,1,0,0:0:0:0:
344,152,144057,1,0,0:0:0:0:
264,152,144140,1,0,0:0:0:0:
144,320,144307,6,0,L|168:296,6,31.25,0|0|0|0|0|0|0,0:0|0:0|0:0|0:0|0:0|0:0|0:0,0:0:0:0:
232,328,144641,1,0,0:0:0:0:
320,320,144724,1,0,0:0:0:0:
408,312,144807,1,0,0:0:0:0:
320,296,144891,1,0,0:0:0:0:
232,296,144974,2,0,L|208:256,4,31.25,0|0|0|0|0,0:0|0:0|0:0|0:0|0:0,0:0:0:0:
320,272,145224,1,0,0:0:0:0:
408,264,145307,1,0,0:0:0:0:
320,256,145391,1,0,0:0:0:0:
232,256,145474,1,0,0:0:0:0:
320,232,145557,1,0,0:0:0:0:
408,208,145641,6,0,L|424:176,6,31.25,0|0|0|0|0|0|0,0:0|0:0|0:0|0:0|0:0|0:0|0:0,0:0:0:0:
320,200,145974,1,0,0:0:0:0:
232,184,146057,1,0,0:0:0:0:
144,168,146141,1,0,0:0:0:0:
232,152,146224,1,0,0:0:0:0:
320,152,146307,2,0,L|352:200,4,31.25,0|0|0|0|0,0:0|0:0|0:0|0:0|0:0,0:0:0:0:
232,120,146557,1,0,0:0:0:0:
144,104,146641,1,0,0:0:0:0:
232,96,146724,1,0,0:0:0:0:
320,88,146807,1,0,0:0:0:0:
232,72,146891,1,0,0:0:0:0:
480,64,146974,5,0,0:0:0:0:
480,64,147141,1,0,0:0:0:0:
480,64,147224,1,0,0:0:0:0:
480,64,147307,1,0,0:0:0:0:
480,64,147474,1,0,0:0:0:0:
344,232,147641,2,0,L|208:232,3,125,0|0|0|0,0:0|0:0|0:0|0:0,0:0:0:0:
96,168,148307,2,0,L|40:128,3,62.5,0|0|0|0,0:0|0:0|0:0|0:0,0:0:0:0:
104,240,148641,2,0,L|232:240,1,125
408,240,148974,2,0,L|256:240,1,125
80,296,149307,2,0,L|216:296,1,125
392,304,149641,6,0,P|464:264|384:200,1,187.5
304,144,149974,2,0,L|464:128,1,125
120,288,150307,2,0,P|56:224|120:176,1,187.5
216,144,150641,2,0,L|80:128,1,125
224,256,150974,2,0,L|304:256,3,62.5,0|0|0|0,0:0|0:0|0:0|0:0,0:0:0:0:
160,256,151307,1,0,0:0:0:0:
352,256,151474,1,0,0:0:0:0:
88,192,151641,1,0,0:0:0:0:
256,160,151807,1,0,0:0:0:0:
424,128,151974,1,0,0:0:0:0:
256,80,152141,1,0,0:0:0:0:
88,48,152307,6,0,L|240:48,1,149.999995422363
440,176,152641,1,0,0:0:0:0:
368,176,152725,1,0,0:0:0:0:
288,176,152808,1,0,0:0:0:0:
208,176,152891,1,0,0:0:0:0:
128,104,152974,2,0,L|64:336,1,224.999993133545
384,104,153307,2,0,L|440:272,1,149.999995422363
312,288,153641,5,0,0:0:0:0:
472,288,153807,1,0,0:0:0:0:
312,336,153974,1,0,0:0:0:0:
472,336,154141,1,0,0:0:0:0:
392,280,154224,1,0,0:0:0:0:
312,224,154307,1,0,0:0:0:0:
72,192,154474,2,0,L|48:112,2,74.9999977111817,0|0|0,0:0|0:0|0:0,0:0:0:0:
112,192,154724,1,0,0:0:0:0:
200,192,154807,1,0,0:0:0:0:
296,192,154891,1,0,0:0:0:0:
392,192,154974,1,0,0:0:0:0:
88,96,155141,6,0,L|240:96,2,149.999995422363,0|0|0,0:0|0:0|0:0,0:0:0:0:
376,96,155641,2,0,L|352:168,1,74.9999977111817
240,200,155807,2,0,L|208:288,1,74.9999977111817
112,288,155974,2,0,L|0:144,1,149.999995422363
224,80,156307,6,0,L|296:160,3,74.9999977111817,0|0|0|0,0:0|0:0|0:0|0:0,0:0:0:0:
440,88,156641,1,0,0:0:0:0:
472,88,156807,1,0,0:0:0:0:
288,80,156974,6,0,L|216:160,3,74.9999977111817,0|0|0|0,0:0|0:0|0:0|0:0,0:0:0:0:
72,88,157308,1,0,0:0:0:0:
40,88,157474,1,0,0:0:0:0:
264,192,157641,2,0,L|360:192,2,74.9999977111817,0|0|0,0:0|0:0|0:0,0:0:0:0:
96,192,157974,1,0,0:0:0:0:
416,192,158141,1,0,0:0:0:0:
160,304,158307,6,0,L|224:240,1,74.9999977111817
280,288,158474,2,0,L|344:224,1,74.9999977111817
456,128,158641,2,0,L|392:80,1,74.9999977111817
328,128,158807,2,0,L|240:72,1,74.9999977111817
144,64,158974,1,0,0:0:0:0:
240,64,159141,1,0,0:0:0:0:
336,64,159307,1,0,0:0:0:0:
432,64,159474,1,0,0:0:0:0:
24,136,159641,6,0,L|88:200,1,74.9999977111817
168,144,159807,2,0,L|224:208,1,74.9999977111817
296,144,159974,2,0,L|360:208,1,74.9999977111817
432,136,160141,2,0,L|520:208,1,74.9999977111817
256,272,160307,6,0,L|48:272,1,149.999995422363
64,248,160557,1,0,0:0:0:0:
256,256,160641,2,0,L|432:256,1,149.999995422363
448,232,160891,1,0,0:0:0:0:
112,264,160974,2,0,P|56:176|136:56,1,224.999993133545
400,264,161307,2,0,P|456:176|376:56,1,224.999993133545
152,144,161641,2,0,L|16:64,1,149.999995422363
400,128,161974,1,0,0:0:0:0:
288,152,162141,1,0,0:0:0:0:
184,184,162307,6,0,L|488:184,2,299.999990844727,0|0|0,0:0|0:0|0:0,0:0:0:0:
152,224,163016,2,0,L|200:264,3,37.4999988555909,0|0|0|0,0:0|0:0|0:0|0:0,0:0:0:0:
400,256,163307,1,0,0:0:0:0:
368,256,163474,1,0,0:0:0:0:
336,256,163641,2,0,L|272:176,3,74.9999977111817,0|0|0|0,0:0|0:0|0:0|0:0,0:0:0:0:
336,144,163974,2,0,L|176:136,1,149.999995422363
360,64,164307,6,0,L|448:64,2,74.9999977111817,0|0|0,0:0|0:0|0:0,0:0:0:0:
160,64,164641,2,0,L|72:64,2,74.9999977111817,0|0|0,0:0|0:0|0:0,0:0:0:0:
432,128,164974,2,0,L|520:128,2,74.9999977111817,0|0|0,0:0|0:0|0:0,0:0:0:0:
80,128,165307,2,0,L|-16:128,2,74.9999977111817,0|0|0,0:0|0:0|0:0,0:0:0:0:
336,232,165641,6,0,L|360:264,3,37.4999988555909,0|0|0|0,0:0|0:0|0:0|0:0,0:0:0:0:
336,232,165807,2,0,L|232:232,1,74.9999977111817,0|0,0:0|0:0,0:0:0:0:
72,192,165974,2,0,P|112:120|176:64,1,149.999995422363
384,248,166307,6,0,L|408:280,3,37.4999988555909,0|0|0|0,0:0|0:0|0:0|0:0,0:0:0:0:
384,248,166473,2,0,L|280:248,1,74.9999977111817,0|0,0:0|0:0,0:0:0:0:
120,208,166640,2,0,P|160:136|224:80,1,149.999995422363
424,144,166974,2,0,L|368:208,7,74.9999977111817,0|0|0|0|0|0|0|0,0:0|0:0|0:0|0:0|0:0|0:0|0:0|0:0,0:0:0:0:
296,80,167641,2,0,L|232:88,3,37.4999988555909,0|0|0|0,0:0|0:0|0:0|0:0,0:0:0:0:
280,136,167807,2,0,L|244:126,3,37.4999988555909,0|0|0|0,0:0|0:0|0:0|0:0,0:0:0:0:
296,184,167974,2,0,L|259:191,3,37.4999988555909,0|0|0|0,0:0|0:0|0:0|0:0,0:0:0:0:
328,240,168141,2,0,L|416:240,1,74.9999977111817,0|0,0:0|0:0,0:0:0:0:
488,240,168307,2,0,L|448:88,1,149.999995422363
32,248,168641,2,0,L|56:72,1,149.999995422363
376,328,168974,2,0,L|440:88,1,224.999993133545
136,328,169307,2,0,L|72:96,1,224.999993133545
384,120,169641,5,0,0:0:0:0:
288,120,169724,1,0,0:0:0:0:
216,120,169807,1,0,0:0:0:0:
160,120,169891,1,0,0:0:0:0:
128,120,169974,1,0,0:0:0:0:
128,120,170141,1,0,0:0:0:0:
416,216,170307,1,0,0:0:0:0:
416,216,170474,1,0,0:0:0:0:
88,224,170641,1,0,0:0:0:0:
88,224,170807,1,0,0:0:0:0:
408,304,170974,6,0,P|448:184|376:96,1,224.999993133545
312,40,171307,1,0,0:0:0:0:
392,40,171391,2,0,L|488:40,1,74.9999977111817
104,304,171641,2,0,P|64:184|136:96,1,224.999993133545
200,48,171974,1,0,0:0:0:0:
120,48,172057,2,0,L|40:48,1,74.9999977111817
256,56,172307,2,0,L|256:144,3,74.9999977111817,0|0|0|0,0:0|0:0|0:0|0:0,0:0:0:0:
256,168,172641,1,0,0:0:0:0:
344,208,172807,1,0,0:0:0:0:
168,208,172974,1,0,0:0:0:0:
344,240,173141,1,0,0:0:0:0:
168,240,173307,1,0,0:0:0:0:
344,264,173474,1,0,0:0:0:0:
