osu file format v13

[General]
AudioFilename: Francium.mp3
AudioLeadIn: 0
PreviewTime: 36974
Countdown: 1
SampleSet: Normal
StackLeniency: 0.7
Mode: 0
LetterboxInBreaks: 1
WidescreenStoryboard: 1

[Editor]
Bookmarks: 62974,173141
DistanceSpacing: 0.7
BeatDivisor: 4
GridSize: 4
TimelineZoom: 2.5

[Metadata]
Title:Francium
TitleUnicode:Francium
Artist:nanahira
ArtistUnicode:nanahira
Creator:WujekGrzyb
Version:Insane
Source:
Tags:
BeatmapID:444888
BeatmapSetID:186201

[Difficulty]
HPDrainRate:6.5
CircleSize:4
OverallDifficulty:6
ApproachRate:9
SliderMultiplier:1.8
SliderTickRate:1

[Events]
//Background and Video events
//Break Periods
//Storyboard Layer 0 (Background)
//Storyboard Layer 1 (Fail)
//Storyboard Layer 2 (Pass)
//Storyboard Layer 3 (Foreground)
//Storyboard Sound Samples
//Background Colour Transformations
3,100,163,162,255

[TimingPoints]
10308,333.333333333333,4,1,0,100,1,0
10974,-90.9090909090909,4,1,0,100,0,0
11308,-111.111111111111,4,1,0,100,0,0
11641,-86.9565217391304,4,1,0,100,0,0
11974,-100,4,1,0,100,0,0
19974,-90.9090909090909,4,1,0,100,0,0
20307,-71.4285714285714,4,1,0,100,0,0
20641,-62.5,4,1,0,100,0,0
20974,-166.666666666667,4,1,0,100,0,0
21474,-100,4,1,0,100,0,0
23641,-66.6666666666667,4,1,0,100,0,0

[HitObjects]
196,212,10308,6,0,P|224:256|280:268,1,90
172,116,10641,1,0,0:0:0:0:
132,120,10724,1,0,0:0:0:0:
92,124,10808,1,0,0:0:0:0:
192,212,10974,6,0,L|312:192,1,99.0000030212403
148,268,11308,2,0,L|240:256,1,80.9999975280762
292,160,11641,2,0,L|440:128,1,103.500001974106
464,280,11974,5,0,0:0:0:0:
416,284,12058,1,0,0:0:0:0:
368,288,12141,1,0,0:0:0:0:
400,116,12308,1,0,0:0:0:0:
348,112,12391,1,0,0:0:0:0:
296,108,12474,1,0,0:0:0:0:
92,240,12641,5,0,0:0:0:0:
140,220,12724,1,0,0:0:0:0:
192,200,12808,1,0,0:0:0:0:
244,180,12891,2,0,P|284:232|276:308,1,135
92,240,13308,2,0,P|72:168|96:128,1,90
236,288,13641,6,0,L|228:340,3,45,0|0|0|0,0:0|0:0|0:0|0:0,0:0:0:0:
292,228,13974,1,0,0:0:0:0:
192,200,14141,1,0,0:0:0:0:
84,88,14308,5,0,0:0:0:0:
108,100,14391,1,0,0:0:0:0:
132,108,14474,1,0,0:0:0:0:
160,108,14558,1,0,0:0:0:0:
188,104,14641,2,0,B|216:96|228:80|228:80|292:72,1,90
476,144,14974,1,0,0:0:0:0:
444,144,15058,1,0,0:0:0:0:
412,148,15141,1,0,0:0:0:0:
384,160,15224,1,0,0:0:0:0:
360,180,15308,2,0,B|340:196|332:220|332:220|276:232,1,90
140,296,15641,5,0,0:0:0:0:
116,268,15724,1,0,0:0:0:0:
104,236,15807,1,0,0:0:0:0:
228,256,15974,2,0,P|236:324|220:352,1,90
284,236,16307,2,0,P|272:168|284:128,1,90
224,104,16557,2,0,L|384:76,1,135
124,56,16974,5,0,0:0:0:0:
96,132,17141,1,0,0:0:0:0:
132,208,17307,1,0,0:0:0:0:
96,288,17474,1,0,0:0:0:0:
168,344,17641,5,0,0:0:0:0:
196,304,17724,1,0,0:0:0:0:
244,288,17807,1,0,0:0:0:0:
292,304,17891,1,0,0:0:0:0:
320,344,17974,1,0,0:0:0:0:
344,304,18057,1,0,0:0:0:0:
392,288,18141,1,0,0:0:0:0:
440,304,18224,1,0,0:0:0:0:
468,344,18307,6,0,P|480:264|448:224,1,135
284,216,18641,2,0,P|228:196|208:148,1,90
296,52,18974,2,0,P|302:121|264:156,1,90
196,132,19307,2,0,P|244:72|328:52,1,135
204,288,19641,2,0,P|204:216|176:176,1,90
128,56,19974,6,0,P|176:72|232:76,1,99.0000030212403
104,112,20307,2,0,P|176:136|272:136,1,125.999996154785
84,172,20641,2,0,P|152:196|260:196,1,144
400,164,20974,6,0,P|359:201|340:256,1,107.999996704102
396,320,21474,1,0,0:0:0:0:
264,336,21641,1,0,0:0:0:0:
292,252,21807,1,0,0:0:0:0:
324,168,21974,1,0,0:0:0:0:
356,84,22141,1,0,0:0:0:0:
144,64,22307,6,0,L|104:42,2,45,0|0|0,0:0|0:0|0:0,0:0:0:0:
116,132,22641,2,0,L|60:120,2,45,0|0|0,0:0|0:0|0:0,0:0:0:0:
124,204,22974,2,0,L|64:208,2,45,0|0|0,0:0|0:0|0:0,0:0:0:0:
164,264,23307,2,0,L|112:288,2,45,0|0|0,0:0|0:0|0:0,0:0:0:0:
284,120,23641,6,0,P|344:58|440:104,1,202.500007724762
448,148,23974,1,0,0:0:0:0:
436,192,24057,1,0,0:0:0:0:
396,220,24141,1,0,0:0:0:0:
348,228,24224,1,0,0:0:0:0:
304,216,24307,5,0,0:0:0:0:
268,184,24391,1,0,0:0:0:0:
256,140,24474,1,0,0:0:0:0:
260,92,24557,1,0,0:0:0:0:
284,52,24641,1,0,0:0:0:0:
328,36,24724,1,0,0:0:0:0:
376,32,24807,1,0,0:0:0:0:
416,56,24891,1,0,0:0:0:0:
432,100,24974,5,0,0:0:0:0:
400,132,25057,1,0,0:0:0:0:
352,128,25141,1,0,0:0:0:0:
308,108,25224,1,0,0:0:0:0:
260,92,25307,1,0,0:0:0:0:
212,84,25391,1,0,0:0:0:0:
164,80,25474,1,0,0:0:0:0:
120,92,25557,1,0,0:0:0:0:
88,124,25641,5,0,0:0:0:0:
76,168,25724,1,0,0:0:0:0:
88,212,25807,1,0,0:0:0:0:
124,244,25891,1,0,0:0:0:0:
172,252,25974,1,0,0:0:0:0:
220,244,26057,1,0,0:0:0:0:
244,204,26141,1,0,0:0:0:0:
252,156,26224,1,0,0:0:0:0:
236,112,26307,6,0,P|306:165|380:180,1,135.000005149842
324,56,26641,2,0,P|416:92|460:124,1,135.000005149842
