osu file format v14

[General]
AudioFilename: audio.mp3
AudioLeadIn: 0
PreviewTime: 51163
Countdown: 0
SampleSet: Normal
StackLeniency: 0.7
Mode: 1
LetterboxInBreaks: 0
WidescreenStoryboard: 0

[Editor]
DistanceSpacing: 1.7
BeatDivisor: 4
GridSize: 32
TimelineZoom: 1

[Metadata]
Title:closing eyes
TitleUnicode:closing eyes
Artist:*namirin
ArtistUnicode:*なみりん
Creator:Nardoxyribonucleic
Version:Oni
Source:
Tags:Taiko Mapping With Rewards MWR 2017 Featured Artist 5colors
BeatmapID:1492144
BeatmapSetID:705499

[Difficulty]
HPDrainRate:5.5
CircleSize:5
OverallDifficulty:6
ApproachRate:7
SliderMultiplier:1.4
SliderTickRate:1

[Events]
//Background and Video events
0,0,"BG.jpeg",0,50
//Break Periods
//Storyboard Layer 0 (Background)
//Storyboard Layer 1 (Fail)
//Storyboard Layer 2 (Pass)
//Storyboard Layer 3 (Foreground)
//Storyboard Sound Samples

[TimingPoints]
836,327.868852459016,4,1,0,90,1,0
11327,-100,4,1,0,85,0,0
32311,-100,4,1,0,80,0,0
42803,-100,4,1,0,85,0,0
53295,-100,4,1,0,90,0,1
79524,-100,4,1,0,90,0,0
90016,-100,4,1,0,85,0,0
110999,-100,4,1,0,80,0,0
121491,-100,4,1,0,85,0,0
131983,-100,4,1,0,90,0,1
158213,-100,4,1,0,90,0,0
179196,-100,4,1,0,80,0,0
189688,-100,4,1,0,85,0,0
202147,-98.0392156862745,4,1,0,85,0,0
202229,-97.0873786407767,4,1,0,85,0,0
202311,-96.1538461538461,4,1,0,85,0,0
202475,-94.3396226415094,4,1,0,85,0,0
202639,-92.5925925925926,4,1,0,85,0,0
202803,-90.9090909090909,4,1,0,90,0,1
207885,-83.3333333333333,4,1,0,90,0,1
208049,-83.3333333333333,4,1,0,90,0,0
210344,-90.9090909090909,4,1,0,90,0,0
210508,-90.9090909090909,4,1,0,90,0,1
234278,-100,4,1,0,90,0,0

[HitObjects]
256,192,180,5,0,0:0:0:0:
256,192,344,1,8,0:0:0:0:
256,192,426,1,8,0:0:0:0:
256,192,508,1,8,0:0:0:0:
256,192,590,1,8,0:0:0:0:
256,192,672,1,8,0:0:0:0:
256,192,836,1,4,0:0:0:0:
256,192,1163,1,8,0:0:0:0:
256,192,1491,1,0,0:0:0:0:
256,192,1655,1,0,0:0:0:0:
256,192,1819,1,8,0:0:0:0:
256,192,1983,1,0,0:0:0:0:
256,192,2311,1,0,0:0:0:0:
256,192,2475,1,8,0:0:0:0:
256,192,2639,1,8,0:0:0:0:
256,192,2721,1,8,0:0:0:0:
256,192,2803,1,0,0:0:0:0:
256,192,2967,1,0,0:0:0:0:
256,192,3131,1,8,0:0:0:0:
256,192,3458,1,0,0:0:0:0:
256,192,3786,1,8,0:0:0:0:
256,192,4114,1,0,0:0:0:0:
256,192,4278,1,0,0:0:0:0:
256,192,4442,1,8,0:0:0:0:
256,192,4606,1,0,0:0:0:0:
256,192,4934,1,0,0:0:0:0:
256,192,5098,1,8,0:0:0:0:
256,192,5262,1,0,0:0:0:0:
256,192,5344,1,0,0:0:0:0:
256,192,5426,1,8,0:0:0:0:
256,192,5590,1,0,0:0:0:0:
256,192,5754,1,8,0:0:0:0:
256,192,5835,1,8,0:0:0:0:
256,192,5917,1,8,0:0:0:0:
256,192,6081,1,4,0:0:0:0:
256,192,6409,1,8,0:0:0:0:
256,192,6737,1,0,0:0:0:0:
256,192,6901,1,0,0:0:0:0:
256,192,7065,1,8,0:0:0:0:
256,192,7229,1,0,0:0:0:0:
256,192,7557,1,0,0:0:0:0:
256,192,7721,1,8,0:0:0:0:
256,192,7885,1,0,0:0:0:0:
256,192,8049,1,8,0:0:0:0:
256,192,8131,1,8,0:0:0:0:
256,192,8213,1,0,0:0:0:0:
256,192,8376,1,8,0:0:0:0:
256,192,8540,1,0,0:0:0:0:
256,192,8704,1,12,0:0:0:0:
256,192,8868,1,0,0:0:0:0:
256,192,8950,1,0,0:0:0:0:
256,192,9032,1,8,0:0:0:0:
256,192,9196,1,0,0:0:0:0:
256,192,9278,1,8,0:0:0:0:
256,192,9360,1,0,0:0:0:0:
256,192,9524,1,8,0:0:0:0:
256,192,9688,1,8,0:0:0:0:
256,192,9852,1,4,0:0:0:0:
256,192,10180,1,0,0:0:0:0:
256,192,10344,1,8,0:0:0:0:
256,192,10508,1,0,0:0:0:0:
256,192,10672,1,12,0:0:0:0:
256,192,10835,1,12,0:0:0:0:
256,192,11327,1,4,0:0:0:0:
256,192,11655,1,8,0:0:0:0:
256,192,12311,1,8,0:0:0:0:
256,192,12475,1,0,0:0:0:0:
256,192,12803,1,0,0:0:0:0:
256,192,12967,1,8,0:0:0:0:
256,192,13131,1,0,0:0:0:0:
256,192,13458,1,0,0:0:0:0:
256,192,13622,1,8,0:0:0:0:
256,192,13950,1,0,0:0:0:0:
256,192,14278,1,8,0:0:0:0:
256,192,14606,1,0,0:0:0:0:
256,192,14934,1,8,0:0:0:0:
256,192,15098,1,0,0:0:0:0:
256,192,15426,1,0,0:0:0:0:
256,192,15590,1,8,0:0:0:0:
256,192,15917,1,0,0:0:0:0:
256,192,16081,1,0,0:0:0:0:
256,192,16245,1,8,0:0:0:0:
256,192,16573,1,0,0:0:0:0:
256,192,16901,1,8,0:0:0:0:
256,192,17557,1,8,0:0:0:0:
256,192,17721,1,0,0:0:0:0:
256,192,18049,1,0,0:0:0:0:
256,192,18213,1,8,0:0:0:0:
256,192,18376,1,0,0:0:0:0:
256,192,18704,1,8,0:0:0:0:
256,192,18868,1,8,0:0:0:0:
256,192,19032,1,8,0:0:0:0:
256,192,19196,1,0,0:0:0:0:
256,192,19524,1,8,0:0:0:0:
256,192,20016,1,8,0:0:0:0:
256,192,20180,1,0,0:0:0:0:
256,192,20344,1,8,0:0:0:0:
256,192,20672,1,0,0:0:0:0:
256,192,20835,1,8,0:0:0:0:
256,192,21163,1,0,0:0:0:0:
256,192,21327,1,0,0:0:0:0:
256,192,21491,1,8,0:0:0:0:
256,192,21819,1,4,0:0:0:0:
256,192,22147,1,8,0:0:0:0:
256,192,22803,1,8,0:0:0:0:
256,192,22967,1,0,0:0:0:0:
256,192,23295,1,0,0:0:0:0:
256,192,23458,1,8,0:0:0:0:
256,192,23622,1,0,0:0:0:0:
256,192,23950,1,0,0:0:0:0:
256,192,24114,1,8,0:0:0:0:
256,192,24278,1,0,0:0:0:0:
256,192,24442,1,0,0:0:0:0:
256,192,24770,1,8,0:0:0:0:
256,192,25098,1,0,0:0:0:0:
256,192,25262,1,0,0:0:0:0:
256,192,25426,1,8,0:0:0:0:
256,192,25590,1,0,0:0:0:0:
256,192,25917,1,0,0:0:0:0:
256,192,26081,1,8,0:0:0:0:
256,192,26409,1,0,0:0:0:0:
256,192,26573,1,0,0:0:0:0:
256,192,26737,1,8,0:0:0:0:
256,192,27065,1,4,0:0:0:0:
256,192,27393,1,8,0:0:0:0:
256,192,27721,1,0,0:0:0:0:
256,192,27885,1,8,0:0:0:0:
256,192,28049,1,8,0:0:0:0:
256,192,28213,1,0,0:0:0:0:
256,192,28540,1,0,0:0:0:0:
256,192,28704,1,8,0:0:0:0:
256,192,28868,1,8,0:0:0:0:
256,192,28950,1,8,0:0:0:0:
256,192,29032,1,8,0:0:0:0:
256,192,29196,1,0,0:0:0:0:
256,192,29360,1,8,0:0:0:0:
256,192,29524,1,0,0:0:0:0:
256,192,29688,1,4,0:0:0:0:
256,192,30016,1,8,0:0:0:0:
256,192,30180,1,0,0:0:0:0:
256,192,30262,1,0,0:0:0:0:
256,192,30344,1,8,0:0:0:0:
256,192,30508,1,0,0:0:0:0:
256,192,30672,1,8,0:0:0:0:
256,192,30835,1,12,0:0:0:0:
256,192,31163,1,0,0:0:0:0:
256,192,31491,1,8,0:0:0:0:
256,192,31573,1,8,0:0:0:0:
256,192,31655,1,8,0:0:0:0:
256,192,31819,1,0,0:0:0:0:
256,192,31983,1,0,0:0:0:0:
256,192,32311,1,12,0:0:0:0:
256,192,32475,1,8,0:0:0:0:
256,192,32803,1,0,0:0:0:0:
256,192,32967,1,0,0:0:0:0:
256,192,33295,1,8,0:0:0:0:
256,192,33458,1,8,0:0:0:0:
256,192,33786,1,0,0:0:0:0:
256,192,33950,1,0,0:0:0:0:
256,192,34278,1,0,0:0:0:0:
256,192,34442,1,8,0:0:0:0:
256,192,34606,1,0,0:0:0:0:
256,192,34770,1,0,0:0:0:0:
256,192,34934,1,8,0:0:0:0:
256,192,35098,1,8,0:0:0:0:
256,192,35426,1,0,0:0:0:0:
256,192,35590,1,0,0:0:0:0:
256,192,35917,1,8,0:0:0:0:
256,192,36081,1,8,0:0:0:0:
256,192,36409,1,0,0:0:0:0:
256,192,36573,1,8,0:0:0:0:
256,192,36737,1,8,0:0:0:0:
256,192,36901,1,0,0:0:0:0:
256,192,37065,1,0,0:0:0:0:
256,192,37229,1,8,0:0:0:0:
256,192,37557,1,12,0:0:0:0:
256,192,37721,1,8,0:0:0:0:
256,192,38049,1,0,0:0:0:0:
256,192,38213,1,0,0:0:0:0:
256,192,38540,1,8,0:0:0:0:
256,192,38704,1,8,0:0:0:0:
256,192,39032,1,0,0:0:0:0:
256,192,39196,1,0,0:0:0:0:
256,192,39524,1,0,0:0:0:0:
256,192,39688,1,8,0:0:0:0:
256,192,39852,1,0,0:0:0:0:
256,192,40016,1,0,0:0:0:0:
256,192,40180,1,8,0:0:0:0:
256,192,40344,1,8,0:0:0:0:
256,192,40672,1,0,0:0:0:0:
256,192,40835,1,0,0:0:0:0:
256,192,41163,1,8,0:0:0:0:
256,192,41327,1,8,0:0:0:0:
256,192,41655,1,0,0:0:0:0:
256,192,41819,1,8,0:0:0:0:
256,192,41983,1,8,0:0:0:0:
256,192,42147,1,0,0:0:0:0:
256,192,42311,1,8,0:0:0:0:
256,192,42393,1,0,0:0:0:0:
256,192,42475,1,8,0:0:0:0:
256,192,42639,1,0,0:0:0:0:
256,192,42803,1,12,0:0:0:0:
256,192,43131,1,8,0:0:0:0:
256,192,43295,1,0,0:0:0:0:
256,192,43376,1,0,0:0:0:0:
256,192,43458,1,0,0:0:0:0:
256,192,43622,1,8,0:0:0:0:
256,192,43786,1,8,0:0:0:0:
256,192,43950,1,0,0:0:0:0:
256,192,44278,1,0,0:0:0:0:
256,192,44442,1,8,0:0:0:0:
256,192,44606,1,0,0:0:0:0:
256,192,44688,1,0,0:0:0:0:
256,192,44770,1,0,0:0:0:0:
256,192,44934,1,8,0:0:0:0:
256,192,45098,1,8,0:0:0:0:
256,192,45262,1,0,0:0:0:0:
256,192,45426,1,0,0:0:0:0:
256,192,45754,1,8,0:0:0:0:
256,192,46081,1,0,0:0:0:0:
256,192,46245,1,0,0:0:0:0:
256,192,46409,1,8,0:0:0:0:
256,192,46573,1,0,0:0:0:0:
256,192,46655,1,0,0:0:0:0:
256,192,46737,1,8,0:0:0:0:
256,192,46901,1,0,0:0:0:0:
256,192,47065,1,8,0:0:0:0:
256,192,47229,1,8,0:0:0:0:
256,192,47311,1,8,0:0:0:0:
256,192,47393,1,0,0:0:0:0:
256,192,47557,1,0,0:0:0:0:
256,192,47721,1,8,0:0:0:0:
256,192,47885,1,12,0:0:0:0:
256,192,48213,1,0,0:0:0:0:
256,192,48376,1,8,0:0:0:0:
256,192,48540,1,8,0:0:0:0:
256,192,48704,1,8,0:0:0:0:
256,192,48868,1,8,0:0:0:0:
256,192,49032,1,8,0:0:0:0:
256,192,49196,1,8,0:0:0:0:
256,192,49278,1,8,0:0:0:0:
256,192,49360,1,0,0:0:0:0:
256,192,49442,1,0,0:0:0:0:
256,192,49524,1,0,0:0:0:0:
256,192,49688,1,12,0:0:0:0:
256,192,49852,1,0,0:0:0:0:
256,192,49934,1,8,0:0:0:0:
256,192,50016,1,0,0:0:0:0:
256,192,50098,1,0,0:0:0:0:
256,192,50180,1,8,0:0:0:0:
256,192,50344,1,0,0:0:0:0:
256,192,50508,1,12,0:0:0:0:
256,192,52639,1,0,0:0:0:0:
256,192,52721,1,0,0:0:0:0:
256,192,52803,1,0,0:0:0:0:
256,192,52967,1,8,0:0:0:0:
256,192,53131,1,0,0:0:0:0:
256,192,53295,1,12,0:0:0:0:
256,192,53622,1,8,0:0:0:0:
256,192,53950,1,0,0:0:0:0:
256,192,54114,1,0,0:0:0:0:
256,192,54278,1,8,0:0:0:0:
256,192,54442,1,8,0:0:0:0:
256,192,54524,1,8,0:0:0:0:
256,192,54606,1,0,0:0:0:0:
256,192,54770,1,8,0:0:0:0:
256,192,54934,1,8,0:0:0:0:
256,192,55098,1,0,0:0:0:0:
256,192,55426,1,8,0:0:0:0:
256,192,55590,1,8,0:0:0:0:
256,192,55754,1,0,0:0:0:0:
256,192,55835,1,0,0:0:0:0:
256,192,55917,1,0,0:0:0:0:
256,192,56081,1,0,0:0:0:0:
256,192,56245,1,8,0:0:0:0:
256,192,56573,1,8,0:0:0:0:
256,192,56737,1,0,0:0:0:0:
256,192,56901,1,8,0:0:0:0:
256,192,57065,1,8,0:0:0:0:
256,192,57229,1,0,0:0:0:0:
256,192,57393,1,0,0:0:0:0:
256,192,57475,1,0,0:0:0:0:
256,192,57557,1,8,0:0:0:0:
256,192,57721,1,0,0:0:0:0:
256,192,58049,1,0,0:0:0:0:
256,192,58213,1,8,0:0:0:0:
256,192,58376,1,0,0:0:0:0:
256,192,58458,1,0,0:0:0:0:
256,192,58540,1,0,0:0:0:0:
256,192,58704,1,0,0:0:0:0:
256,192,58868,1,8,0:0:0:0:
256,192,59032,1,8,0:0:0:0:
256,192,59196,1,0,0:0:0:0:
256,192,59360,1,8,0:0:0:0:
256,192,59442,1,0,0:0:0:0:
256,192,59524,1,8,0:0:0:0:
256,192,59688,1,0,0:0:0:0:
256,192,60016,1,0,0:0:0:0:
256,192,60180,1,8,0:0:0:0:
256,192,60344,1,0,0:0:0:0:
256,192,60426,1,0,0:0:0:0:
256,192,60508,1,0,0:0:0:0:
256,192,60672,1,8,0:0:0:0:
256,192,60835,1,8,0:0:0:0:
256,192,60999,1,4,0:0:0:0:
256,192,61327,1,0,0:0:0:0:
256,192,61491,1,8,0:0:0:0:
256,192,61655,1,0,0:0:0:0:
256,192,61737,1,8,0:0:0:0:
256,192,61819,1,0,0:0:0:0:
256,192,61983,1,8,0:0:0:0:
256,192,62147,1,8,0:0:0:0:
256,192,62311,1,4,0:0:0:0:
256,192,62639,1,0,0:0:0:0:
256,192,62803,1,8,0:0:0:0:
256,192,62967,1,0,0:0:0:0:
256,192,63131,1,0,0:0:0:0:
256,192,63213,1,0,0:0:0:0:
256,192,63295,1,8,0:0:0:0:
256,192,63376,1,8,0:0:0:0:
256,192,63458,1,0,0:0:0:0:
256,192,63622,1,12,0:0:0:0:
256,192,63950,1,0,0:0:0:0:
256,192,64114,1,8,0:0:0:0:
256,192,64442,1,0,0:0:0:0:
256,192,64606,1,0,0:0:0:0:
256,192,64770,1,8,0:0:0:0:
256,192,64934,1,8,0:0:0:0:
256,192,65016,1,8,0:0:0:0:
256,192,65098,1,0,0:0:0:0:
256,192,65262,1,8,0:0:0:0:
256,192,65426,1,8,0:0:0:0:
256,192,65590,1,0,0:0:0:0:
256,192,65917,1,0,0:0:0:0:
256,192,66081,1,8,0:0:0:0:
256,192,66245,1,8,0:0:0:0:
256,192,66327,1,8,0:0:0:0:
256,192,66409,1,8,0:0:0:0:
256,192,66573,1,0,0:0:0:0:
256,192,66737,1,8,0:0:0:0:
256,192,67065,1,0,0:0:0:0:
256,192,67229,1,0,0:0:0:0:
256,192,67393,1,8,0:0:0:0:
256,192,67557,1,8,0:0:0:0:
256,192,67721,1,0,0:0:0:0:
256,192,67885,1,0,0:0:0:0:
256,192,67967,1,0,0:0:0:0:
256,192,68049,1,8,0:0:0:0:
256,192,68213,1,0,0:0:0:0:
256,192,68540,1,0,0:0:0:0:
256,192,68704,1,8,0:0:0:0:
256,192,69032,1,4,0:0:0:0:
256,192,69196,1,8,0:0:0:0:
256,192,69278,1,8,0:0:0:0:
256,192,69360,1,8,0:0:0:0:
256,192,69524,1,8,0:0:0:0:
256,192,69688,1,0,0:0:0:0:
256,192,69852,1,8,0:0:0:0:
256,192,69934,1,8,0:0:0:0:
256,192,70016,1,0,0:0:0:0:
256,192,70180,1,12,0:0:0:0:
256,192,70508,1,8,0:0:0:0:
256,192,70672,1,0,0:0:0:0:
256,192,70835,1,8,0:0:0:0:
256,192,70917,1,0,0:0:0:0:
256,192,70999,1,0,0:0:0:0:
256,192,71163,1,0,0:0:0:0:
256,192,71327,1,8,0:0:0:0:
256,192,71655,1,4,0:0:0:0:
256,192,71983,1,8,0:0:0:0:
256,192,72147,1,0,0:0:0:0:
256,192,72229,1,0,0:0:0:0:
256,192,72311,1,0,0:0:0:0:
256,192,72475,1,8,0:0:0:0:
256,192,72639,1,0,0:0:0:0:
256,192,72803,1,12,0:0:0:0:
256,192,73131,1,8,0:0:0:0:
256,192,73295,1,8,0:0:0:0:
256,192,73458,1,4,0:0:0:0:
256,192,73622,1,8,0:0:0:0:
256,192,73786,1,0,0:0:0:0:
256,192,73868,1,0,0:0:0:0:
256,192,73950,1,0,0:0:0:0:
256,192,74114,1,8,0:0:0:0:
256,192,74278,1,4,0:0:0:0:
256,192,74606,1,8,0:0:0:0:
256,192,74934,1,0,0:0:0:0:
256,192,75098,1,0,0:0:0:0:
256,192,75262,1,8,0:0:0:0:
256,192,75426,1,12,0:0:0:0:
256,192,75754,1,0,0:0:0:0:
256,192,75917,1,8,0:0:0:0:
256,192,76081,1,4,0:0:0:0:
256,192,76245,1,8,0:0:0:0:
256,192,76409,1,0,0:0:0:0:
256,192,76491,1,0,0:0:0:0:
256,192,76573,1,0,0:0:0:0:
256,192,76737,1,8,0:0:0:0:
256,192,76901,1,4,0:0:0:0:
256,192,77065,1,0,0:0:0:0:
256,192,77229,1,12,0:0:0:0:
256,192,77393,1,0,0:0:0:0:
256,192,77557,1,8,0:0:0:0:
256,192,77639,1,8,0:0:0:0:
256,192,77721,1,0,0:0:0:0:
256,192,77803,1,0,0:0:0:0:
256,192,77885,1,8,0:0:0:0:
256,192,78049,1,4,0:0:0:0:
256,192,78376,1,0,0:0:0:0:
256,192,78540,1,8,0:0:0:0:
256,192,78704,1,0,0:0:0:0:
256,192,78786,1,0,0:0:0:0:
256,192,78868,1,8,0:0:0:0:
256,192,79032,1,8,0:0:0:0:
256,192,79524,1,4,0:0:0:0:
256,192,79852,1,8,0:0:0:0:
256,192,80180,1,0,0:0:0:0:
256,192,80344,1,0,0:0:0:0:
256,192,80508,1,8,0:0:0:0:
256,192,80672,1,0,0:0:0:0:
256,192,80754,1,0,0:0:0:0:
256,192,80835,1,8,0:0:0:0:
256,192,80999,1,0,0:0:0:0:
256,192,81163,1,8,0:0:0:0:
256,192,81327,1,8,0:0:0:0:
256,192,81409,1,8,0:0:0:0:
256,192,81491,1,0,0:0:0:0:
256,192,81655,1,0,0:0:0:0:
256,192,81819,1,8,0:0:0:0:
256,192,82147,1,0,0:0:0:0:
256,192,82475,1,8,0:0:0:0:
256,192,82803,1,0,0:0:0:0:
256,192,82967,1,0,0:0:0:0:
256,192,83131,1,8,0:0:0:0:
256,192,83295,1,8,0:0:0:0:
256,192,83376,1,8,0:0:0:0:
256,192,83458,1,0,0:0:0:0:
256,192,83622,1,0,0:0:0:0:
256,192,83786,1,8,0:0:0:0:
256,192,83950,1,0,0:0:0:0:
256,192,84032,1,0,0:0:0:0:
256,192,84114,1,8,0:0:0:0:
256,192,84278,1,0,0:0:0:0:
256,192,84442,1,8,0:0:0:0:
256,192,84524,1,8,0:0:0:0:
256,192,84606,1,8,0:0:0:0:
256,192,84770,1,4,0:0:0:0:
256,192,85098,1,8,0:0:0:0:
256,192,85426,1,0,0:0:0:0:
256,192,85590,1,0,0:0:0:0:
256,192,85754,1,8,0:0:0:0:
256,192,85917,1,0,0:0:0:0:
256,192,85999,1,0,0:0:0:0:
256,192,86081,1,8,0:0:0:0:
256,192,86245,1,0,0:0:0:0:
256,192,86409,1,8,0:0:0:0:
256,192,86573,1,0,0:0:0:0:
256,192,86737,1,8,0:0:0:0:
256,192,86819,1,8,0:0:0:0:
256,192,86901,1,0,0:0:0:0:
256,192,87065,1,8,0:0:0:0:
256,192,87229,1,0,0:0:0:0:
256,192,87311,1,0,0:0:0:0:
256,192,87393,1,8,0:0:0:0:
256,192,87475,1,8,0:0:0:0:
256,192,87557,1,0,0:0:0:0:
256,192,87721,1,12,0:0:0:0:
256,192,87885,1,0,0:0:0:0:
256,192,87967,1,8,0:0:0:0:
256,192,88049,1,0,0:0:0:0:
256,192,88213,1,8,0:0:0:0:
256,192,88376,1,8,0:0:0:0:
256,192,88540,1,4,0:0:0:0:
256,192,88868,1,0,0:0:0:0:
256,192,89032,1,8,0:0:0:0:
256,192,89114,1,0,0:0:0:0:
256,192,89196,1,0,0:0:0:0:
256,192,89360,1,12,0:0:0:0:
256,192,89606,1,0,0:0:0:0:
256,192,89852,1,0,0:0:0:0:
256,192,90016,1,4,0:0:0:0:
256,192,90508,1,0,0:0:0:0:
256,192,90672,1,8,0:0:0:0:
256,192,90999,1,0,0:0:0:0:
256,192,91163,1,8,0:0:0:0:
256,192,91491,1,8,0:0:0:0:
256,192,91819,1,0,0:0:0:0:
256,192,91983,1,8,0:0:0:0:
256,192,92147,1,0,0:0:0:0:
256,192,92475,1,8,0:0:0:0:
256,192,92639,1,0,0:0:0:0:
256,192,92967,1,0,0:0:0:0:
256,192,93131,1,0,0:0:0:0:
256,192,93295,1,8,0:0:0:0:
256,192,93622,1,8,0:0:0:0:
256,192,93786,1,0,0:0:0:0:
256,192,94114,1,0,0:0:0:0:
256,192,94442,1,0,0:0:0:0:
256,192,94606,1,8,0:0:0:0:
256,192,94934,1,0,0:0:0:0:
256,192,95098,1,8,0:0:0:0:
256,192,95262,1,0,0:0:0:0:
256,192,95590,1,8,0:0:0:0:
256,192,95754,1,0,0:0:0:0:
256,192,95917,1,8,0:0:0:0:
256,192,96245,1,0,0:0:0:0:
256,192,96409,1,8,0:0:0:0:
256,192,96737,1,8,0:0:0:0:
256,192,97065,1,0,0:0:0:0:
256,192,97229,1,8,0:0:0:0:
256,192,97393,1,8,0:0:0:0:
256,192,97721,1,8,0:0:0:0:
256,192,97885,1,4,0:0:0:0:
256,192,99688,1,8,0:0:0:0:
256,192,100016,1,8,0:0:0:0:
256,192,100180,1,0,0:0:0:0:
256,192,100262,1,0,0:0:0:0:
256,192,100344,1,8,0:0:0:0:
256,192,100508,1,4,0:0:0:0:
256,192,100835,1,8,0:0:0:0:
256,192,100999,1,8,0:0:0:0:
256,192,101163,1,0,0:0:0:0:
256,192,101327,1,0,0:0:0:0:
256,192,101491,1,8,0:0:0:0:
256,192,101655,1,8,0:0:0:0:
256,192,101737,1,8,0:0:0:0:
256,192,101819,1,0,0:0:0:0:
256,192,101983,1,0,0:0:0:0:
256,192,102147,1,8,0:0:0:0:
256,192,102311,1,0,0:0:0:0:
256,192,102639,1,0,0:0:0:0:
256,192,102803,1,8,0:0:0:0:
256,192,102967,1,0,0:0:0:0:
256,192,103131,1,0,0:0:0:0:
256,192,103458,1,8,0:0:0:0:
256,192,103622,1,8,0:0:0:0:
256,192,103786,1,0,0:0:0:0:
256,192,103950,1,0,0:0:0:0:
256,192,104032,1,0,0:0:0:0:
256,192,104114,1,8,0:0:0:0:
256,192,104278,1,0,0:0:0:0:
256,192,104360,1,8,0:0:0:0:
256,192,104442,1,0,0:0:0:0:
256,192,104606,1,0,0:0:0:0:
256,192,104770,1,8,0:0:0:0:
256,192,104934,1,0,0:0:0:0:
256,192,105016,1,0,0:0:0:0:
256,192,105098,1,8,0:0:0:0:
256,192,105180,1,8,0:0:0:0:
256,192,105262,1,0,0:0:0:0:
256,192,105426,1,8,0:0:0:0:
256,192,105590,1,8,0:0:0:0:
256,192,105754,1,4,0:0:0:0:
256,192,106081,1,8,0:0:0:0:
256,192,106245,1,0,0:0:0:0:
256,192,106327,1,0,0:0:0:0:
256,192,106409,1,0,0:0:0:0:
256,192,106573,1,8,0:0:0:0:
256,192,106737,1,8,0:0:0:0:
256,192,106901,1,0,0:0:0:0:
256,192,107229,1,0,0:0:0:0:
256,192,107393,1,8,0:0:0:0:
256,192,107557,1,8,0:0:0:0:
256,192,107639,1,8,0:0:0:0:
256,192,107721,1,8,0:0:0:0:
256,192,107885,1,0,0:0:0:0:
256,192,108049,1,8,0:0:0:0:
256,192,108213,1,0,0:0:0:0:
256,192,108376,1,4,0:0:0:0:
256,192,108704,1,8,0:0:0:0:
256,192,108868,1,0,0:0:0:0:
256,192,108950,1,0,0:0:0:0:
256,192,109032,1,8,0:0:0:0:
256,192,109196,1,0,0:0:0:0:
256,192,109360,1,8,0:0:0:0:
256,192,109524,1,12,0:0:0:0:
256,192,109852,1,0,0:0:0:0:
256,192,110180,1,8,0:0:0:0:
256,192,110262,1,8,0:0:0:0:
256,192,110344,1,8,0:0:0:0:
256,192,110508,1,0,0:0:0:0:
256,192,110672,1,0,0:0:0:0:
256,192,110999,1,12,0:0:0:0:
256,192,111163,1,8,0:0:0:0:
256,192,111491,1,0,0:0:0:0:
256,192,111655,1,0,0:0:0:0:
256,192,111983,1,8,0:0:0:0:
256,192,112147,1,8,0:0:0:0:
256,192,112475,1,0,0:0:0:0:
256,192,112639,1,0,0:0:0:0:
256,192,112967,1,0,0:0:0:0:
256,192,113131,1,8,0:0:0:0:
256,192,113295,1,0,0:0:0:0:
256,192,113458,1,0,0:0:0:0:
256,192,113540,1,0,0:0:0:0:
256,192,113622,1,8,0:0:0:0:
256,192,113786,1,8,0:0:0:0:
256,192,114114,1,0,0:0:0:0:
256,192,114278,1,0,0:0:0:0:
256,192,114606,1,8,0:0:0:0:
256,192,114770,1,8,0:0:0:0:
256,192,115098,1,0,0:0:0:0:
256,192,115262,1,8,0:0:0:0:
256,192,115426,1,8,0:0:0:0:
256,192,115508,1,8,0:0:0:0:
256,192,115590,1,0,0:0:0:0:
256,192,115754,1,0,0:0:0:0:
256,192,115917,1,8,0:0:0:0:
256,192,116245,1,12,0:0:0:0:
256,192,116409,1,8,0:0:0:0:
256,192,116737,1,0,0:0:0:0:
256,192,116901,1,0,0:0:0:0:
256,192,117229,1,8,0:0:0:0:
256,192,117393,1,8,0:0:0:0:
256,192,117721,1,0,0:0:0:0:
256,192,117885,1,0,0:0:0:0:
256,192,118213,1,0,0:0:0:0:
256,192,118376,1,8,0:0:0:0:
256,192,118540,1,0,0:0:0:0:
256,192,118704,1,0,0:0:0:0:
256,192,118786,1,0,0:0:0:0:
256,192,118868,1,8,0:0:0:0:
256,192,119032,1,8,0:0:0:0:
256,192,119360,1,0,0:0:0:0:
256,192,119524,1,0,0:0:0:0:
256,192,119852,1,8,0:0:0:0:
256,192,120016,1,8,0:0:0:0:
256,192,120344,1,0,0:0:0:0:
256,192,120508,1,8,0:0:0:0:
256,192,120672,1,8,0:0:0:0:
256,192,120754,1,8,0:0:0:0:
256,192,120835,1,0,0:0:0:0:
256,192,120999,1,8,0:0:0:0:
256,192,121081,1,0,0:0:0:0:
256,192,121163,1,8,0:0:0:0:
256,192,121245,1,8,0:0:0:0:
256,192,121327,1,0,0:0:0:0:
256,192,121491,1,12,0:0:0:0:
256,192,121655,1,0,0:0:0:0:
256,192,121819,1,8,0:0:0:0:
256,192,121983,1,0,0:0:0:0:
256,192,122065,1,0,0:0:0:0:
256,192,122147,1,0,0:0:0:0:
256,192,122311,1,8,0:0:0:0:
256,192,122475,1,8,0:0:0:0:
256,192,122639,1,0,0:0:0:0:
256,192,122967,1,0,0:0:0:0:
256,192,123131,1,8,0:0:0:0:
256,192,123295,1,0,0:0:0:0:
256,192,123376,1,0,0:0:0:0:
256,192,123458,1,0,0:0:0:0:
256,192,123622,1,8,0:0:0:0:
256,192,123786,1,8,0:0:0:0:
256,192,123950,1,0,0:0:0:0:
256,192,124032,1,0,0:0:0:0:
256,192,124114,1,8,0:0:0:0:
256,192,124278,1,0,0:0:0:0:
256,192,124442,1,8,0:0:0:0:
256,192,124770,1,0,0:0:0:0:
256,192,124934,1,0,0:0:0:0:
256,192,125098,1,8,0:0:0:0:
256,192,125180,1,8,0:0:0:0:
256,192,125262,1,0,0:0:0:0:
256,192,125344,1,0,0:0:0:0:
256,192,125426,1,8,0:0:0:0:
256,192,125590,1,0,0:0:0:0:
256,192,125754,1,8,0:0:0:0:
256,192,125917,1,8,0:0:0:0:
256,192,125999,1,8,0:0:0:0:
256,192,126081,1,0,0:0:0:0:
256,192,126245,1,0,0:0:0:0:
256,192,126409,1,8,0:0:0:0:
256,192,126573,1,12,0:0:0:0:
256,192,126901,1,0,0:0:0:0:
256,192,127065,1,8,0:0:0:0:
256,192,127229,1,8,0:0:0:0:
256,192,127393,1,8,0:0:0:0:
256,192,127557,1,8,0:0:0:0:
256,192,127721,1,8,0:0:0:0:
256,192,127885,1,8,0:0:0:0:
256,192,127967,1,8,0:0:0:0:
256,192,128049,1,0,0:0:0:0:
256,192,128131,1,0,0:0:0:0:
256,192,128213,1,0,0:0:0:0:
256,192,128376,1,12,0:0:0:0:
256,192,128540,1,0,0:0:0:0:
256,192,128622,1,8,0:0:0:0:
256,192,128704,1,0,0:0:0:0:
256,192,128786,1,0,0:0:0:0:
256,192,128868,1,8,0:0:0:0:
256,192,128950,1,8,0:0:0:0:
256,192,129032,1,0,0:0:0:0:
256,192,129196,1,12,0:0:0:0:
256,192,131327,1,0,0:0:0:0:
256,192,131409,1,0,0:0:0:0:
256,192,131491,1,0,0:0:0:0:
256,192,131573,1,0,0:0:0:0:
256,192,131655,1,8,0:0:0:0:
256,192,131737,1,8,0:0:0:0:
256,192,131819,1,0,0:0:0:0:
256,192,131983,1,12,0:0:0:0:
256,192,132311,1,8,0:0:0:0:
256,192,132475,1,0,0:0:0:0:
256,192,132557,1,0,0:0:0:0:
256,192,132639,1,0,0:0:0:0:
256,192,132803,1,0,0:0:0:0:
256,192,132967,1,8,0:0:0:0:
256,192,133131,1,8,0:0:0:0:
256,192,133213,1,8,0:0:0:0:
256,192,133295,1,0,0:0:0:0:
256,192,133458,1,8,0:0:0:0:
256,192,133622,1,8,0:0:0:0:
256,192,133786,1,0,0:0:0:0:
256,192,134114,1,8,0:0:0:0:
256,192,134278,1,8,0:0:0:0:
256,192,134442,1,0,0:0:0:0:
256,192,134524,1,0,0:0:0:0:
256,192,134606,1,0,0:0:0:0:
256,192,134770,1,0,0:0:0:0:
256,192,134934,1,8,0:0:0:0:
256,192,135016,1,0,0:0:0:0:
256,192,135098,1,0,0:0:0:0:
256,192,135180,1,0,0:0:0:0:
256,192,135262,1,8,0:0:0:0:
256,192,135426,1,0,0:0:0:0:
256,192,135590,1,8,0:0:0:0:
256,192,135754,1,8,0:0:0:0:
256,192,135917,1,0,0:0:0:0:
256,192,136081,1,0,0:0:0:0:
256,192,136163,1,0,0:0:0:0:
256,192,136245,1,8,0:0:0:0:
256,192,136409,1,0,0:0:0:0:
256,192,136737,1,0,0:0:0:0:
256,192,136901,1,8,0:0:0:0:
256,192,137065,1,0,0:0:0:0:
256,192,137147,1,0,0:0:0:0:
256,192,137229,1,0,0:0:0:0:
256,192,137393,1,0,0:0:0:0:
256,192,137557,1,8,0:0:0:0:
256,192,137721,1,8,0:0:0:0:
256,192,137803,1,8,0:0:0:0:
256,192,137885,1,0,0:0:0:0:
256,192,138049,1,8,0:0:0:0:
256,192,138213,1,8,0:0:0:0:
256,192,138376,1,0,0:0:0:0:
256,192,138458,1,8,0:0:0:0:
256,192,138540,1,8,0:0:0:0:
256,192,138622,1,8,0:0:0:0:
256,192,138704,1,0,0:0:0:0:
256,192,138868,1,8,0:0:0:0:
256,192,139032,1,0,0:0:0:0:
256,192,139114,1,0,0:0:0:0:
256,192,139196,1,0,0:0:0:0:
256,192,139360,1,8,0:0:0:0:
256,192,139524,1,8,0:0:0:0:
256,192,139688,1,4,0:0:0:0:
256,192,140016,1,0,0:0:0:0:
256,192,140180,1,8,0:0:0:0:
256,192,140344,1,0,0:0:0:0:
256,192,140426,1,8,0:0:0:0:
256,192,140508,1,0,0:0:0:0:
256,192,140672,1,8,0:0:0:0:
256,192,140835,1,8,0:0:0:0:
256,192,140999,1,4,0:0:0:0:
256,192,141327,1,0,0:0:0:0:
256,192,141491,1,8,0:0:0:0:
256,192,141655,1,0,0:0:0:0:
256,192,141819,1,0,0:0:0:0:
256,192,141901,1,0,0:0:0:0:
256,192,141983,1,8,0:0:0:0:
256,192,142065,1,8,0:0:0:0:
256,192,142147,1,0,0:0:0:0:
256,192,142311,1,12,0:0:0:0:
256,192,142639,1,0,0:0:0:0:
256,192,142803,1,8,0:0:0:0:
256,192,142967,1,0,0:0:0:0:
256,192,143049,1,0,0:0:0:0:
256,192,143131,1,0,0:0:0:0:
256,192,143295,1,0,0:0:0:0:
256,192,143458,1,8,0:0:0:0:
256,192,143622,1,8,0:0:0:0:
256,192,143704,1,8,0:0:0:0:
256,192,143786,1,0,0:0:0:0:
256,192,143950,1,8,0:0:0:0:
256,192,144114,1,8,0:0:0:0:
256,192,144278,1,0,0:0:0:0:
256,192,144606,1,0,0:0:0:0:
256,192,144770,1,8,0:0:0:0:
256,192,144934,1,8,0:0:0:0:
256,192,145016,1,8,0:0:0:0:
256,192,145098,1,8,0:0:0:0:
256,192,145262,1,0,0:0:0:0:
256,192,145426,1,8,0:0:0:0:
256,192,145590,1,8,0:0:0:0:
256,192,145754,1,0,0:0:0:0:
256,192,145917,1,0,0:0:0:0:
256,192,145999,1,0,0:0:0:0:
256,192,146081,1,8,0:0:0:0:
256,192,146245,1,0,0:0:0:0:
256,192,146409,1,8,0:0:0:0:
256,192,146491,1,8,0:0:0:0:
256,192,146573,1,0,0:0:0:0:
256,192,146655,1,0,0:0:0:0:
256,192,146737,1,8,0:0:0:0:
256,192,146901,1,0,0:0:0:0:
256,192,147229,1,0,0:0:0:0:
256,192,147393,1,8,0:0:0:0:
256,192,147721,1,4,0:0:0:0:
256,192,147885,1,8,0:0:0:0:
256,192,147967,1,8,0:0:0:0:
256,192,148049,1,8,0:0:0:0:
256,192,148213,1,8,0:0:0:0:
256,192,148376,1,0,0:0:0:0:
256,192,148540,1,8,0:0:0:0:
256,192,148622,1,8,0:0:0:0:
256,192,148704,1,0,0:0:0:0:
256,192,148868,1,12,0:0:0:0:
256,192,149196,1,8,0:0:0:0:
256,192,149360,1,0,0:0:0:0:
256,192,149524,1,8,0:0:0:0:
256,192,149606,1,0,0:0:0:0:
256,192,149688,1,0,0:0:0:0:
256,192,149852,1,0,0:0:0:0:
256,192,150016,1,8,0:0:0:0:
256,192,150180,1,8,0:0:0:0:
256,192,150344,1,4,0:0:0:0:
256,192,150672,1,8,0:0:0:0:
256,192,150835,1,0,0:0:0:0:
256,192,150917,1,0,0:0:0:0:
256,192,150999,1,0,0:0:0:0:
256,192,151163,1,8,0:0:0:0:
256,192,151327,1,0,0:0:0:0:
256,192,151491,1,12,0:0:0:0:
256,192,151819,1,8,0:0:0:0:
256,192,151983,1,8,0:0:0:0:
256,192,152147,1,4,0:0:0:0:
256,192,152311,1,8,0:0:0:0:
256,192,152475,1,0,0:0:0:0:
256,192,152557,1,0,0:0:0:0:
256,192,152639,1,0,0:0:0:0:
256,192,152803,1,8,0:0:0:0:
256,192,152967,1,4,0:0:0:0:
256,192,153295,1,8,0:0:0:0:
256,192,153622,1,0,0:0:0:0:
256,192,153786,1,0,0:0:0:0:
256,192,153950,1,8,0:0:0:0:
256,192,154114,1,12,0:0:0:0:
256,192,154442,1,0,0:0:0:0:
256,192,154606,1,8,0:0:0:0:
256,192,154770,1,4,0:0:0:0:
256,192,154934,1,8,0:0:0:0:
256,192,155098,1,0,0:0:0:0:
256,192,155180,1,0,0:0:0:0:
256,192,155262,1,0,0:0:0:0:
256,192,155426,1,8,0:0:0:0:
256,192,155590,1,4,0:0:0:0:
256,192,155754,1,0,0:0:0:0:
256,192,155917,1,12,0:0:0:0:
256,192,156081,1,0,0:0:0:0:
256,192,156163,1,0,0:0:0:0:
256,192,156245,1,8,0:0:0:0:
256,192,156327,1,8,0:0:0:0:
256,192,156409,1,0,0:0:0:0:
256,192,156491,1,0,0:0:0:0:
256,192,156573,1,8,0:0:0:0:
256,192,156737,1,4,0:0:0:0:
256,192,157065,1,0,0:0:0:0:
256,192,157229,1,8,0:0:0:0:
256,192,157393,1,0,0:0:0:0:
256,192,157475,1,0,0:0:0:0:
256,192,157557,1,8,0:0:0:0:
256,192,157721,1,8,0:0:0:0:
256,192,158213,1,4,0:0:0:0:
256,192,158540,1,8,0:0:0:0:
256,192,158868,1,0,0:0:0:0:
256,192,159032,1,0,0:0:0:0:
256,192,159196,1,8,0:0:0:0:
256,192,159360,1,0,0:0:0:0:
256,192,159688,1,0,0:0:0:0:
256,192,159852,1,8,0:0:0:0:
256,192,160016,1,0,0:0:0:0:
256,192,160098,1,0,0:0:0:0:
256,192,160180,1,0,0:0:0:0:
256,192,160344,1,0,0:0:0:0:
256,192,160508,1,8,0:0:0:0:
256,192,160672,1,8,0:0:0:0:
256,192,160835,1,0,0:0:0:0:
256,192,161163,1,8,0:0:0:0:
256,192,161491,1,0,0:0:0:0:
256,192,161655,1,0,0:0:0:0:
256,192,161819,1,8,0:0:0:0:
256,192,161983,1,0,0:0:0:0:
256,192,162311,1,0,0:0:0:0:
256,192,162475,1,8,0:0:0:0:
256,192,162639,1,0,0:0:0:0:
256,192,162721,1,0,0:0:0:0:
256,192,162803,1,8,0:0:0:0:
256,192,162967,1,0,0:0:0:0:
256,192,163131,1,12,0:0:0:0:
256,192,163295,1,12,0:0:0:0:
256,192,163622,1,0,0:0:0:0:
256,192,163786,1,8,0:0:0:0:
256,192,164114,1,0,0:0:0:0:
256,192,164278,1,0,0:0:0:0:
256,192,164442,1,8,0:0:0:0:
256,192,164606,1,0,0:0:0:0:
256,192,164934,1,0,0:0:0:0:
256,192,165098,1,8,0:0:0:0:
256,192,165262,1,0,0:0:0:0:
256,192,165344,1,0,0:0:0:0:
256,192,165426,1,0,0:0:0:0:
256,192,165590,1,0,0:0:0:0:
256,192,165754,1,8,0:0:0:0:
256,192,165917,1,8,0:0:0:0:
256,192,166081,1,0,0:0:0:0:
256,192,166409,1,8,0:0:0:0:
256,192,166737,1,8,0:0:0:0:
256,192,166901,1,0,0:0:0:0:
256,192,167065,1,8,0:0:0:0:
256,192,167229,1,8,0:0:0:0:
256,192,167311,1,0,0:0:0:0:
256,192,167393,1,8,0:0:0:0:
256,192,167475,1,8,0:0:0:0:
256,192,167557,1,0,0:0:0:0:
256,192,167721,1,8,0:0:0:0:
256,192,167885,1,0,0:0:0:0:
256,192,167967,1,8,0:0:0:0:
256,192,168049,1,0,0:0:0:0:
256,192,168213,1,0,0:0:0:0:
256,192,168376,1,12,0:0:0:0:
256,192,168704,1,4,0:0:0:0:
256,192,169032,1,8,0:0:0:0:
256,192,169360,1,0,0:0:0:0:
256,192,169524,1,0,0:0:0:0:
256,192,169688,1,8,0:0:0:0:
256,192,169852,1,0,0:0:0:0:
256,192,170180,1,0,0:0:0:0:
256,192,170344,1,8,0:0:0:0:
256,192,170508,1,8,0:0:0:0:
256,192,170590,1,8,0:0:0:0:
256,192,170672,1,8,0:0:0:0:
256,192,170835,1,0,0:0:0:0:
256,192,170999,1,8,0:0:0:0:
256,192,171163,1,0,0:0:0:0:
256,192,171327,1,0,0:0:0:0:
256,192,171655,1,8,0:0:0:0:
256,192,171983,1,0,0:0:0:0:
256,192,172147,1,0,0:0:0:0:
256,192,172311,1,8,0:0:0:0:
256,192,172475,1,0,0:0:0:0:
256,192,172803,1,0,0:0:0:0:
256,192,172967,1,8,0:0:0:0:
256,192,173131,1,0,0:0:0:0:
256,192,173213,1,0,0:0:0:0:
256,192,173295,1,8,0:0:0:0:
256,192,173376,1,8,0:0:0:0:
256,192,173458,1,0,0:0:0:0:
256,192,173622,1,12,0:0:0:0:
256,192,173950,1,4,0:0:0:0:
256,192,174278,1,8,0:0:0:0:
256,192,174606,1,0,0:0:0:0:
256,192,174770,1,0,0:0:0:0:
256,192,174934,1,8,0:0:0:0:
256,192,175098,1,4,0:0:0:0:
256,192,175426,1,0,0:0:0:0:
256,192,175590,1,8,0:0:0:0:
256,192,175754,1,8,0:0:0:0:
256,192,175835,1,8,0:0:0:0:
256,192,175917,1,8,0:0:0:0:
256,192,175999,1,8,0:0:0:0:
256,192,176081,1,0,0:0:0:0:
256,192,176245,1,8,0:0:0:0:
256,192,176409,1,0,0:0:0:0:
256,192,176573,1,12,0:0:0:0:
256,192,176901,1,8,0:0:0:0:
256,192,177229,1,0,0:0:0:0:
256,192,177393,1,0,0:0:0:0:
256,192,177557,1,8,0:0:0:0:
256,192,177721,1,4,0:0:0:0:
256,192,177885,1,8,0:0:0:0:
256,192,178049,1,0,0:0:0:0:
256,192,178131,1,0,0:0:0:0:
256,192,178213,1,8,0:0:0:0:
256,192,178376,1,8,0:0:0:0:
256,192,178458,1,8,0:0:0:0:
256,192,178540,1,8,0:0:0:0:
256,192,178622,1,0,0:0:0:0:
256,192,178704,1,0,0:0:0:0:
256,192,178868,1,0,0:0:0:0:
256,192,179032,1,0,0:0:0:0:
256,192,179196,1,12,0:0:0:0:
256,192,179360,1,8,0:0:0:0:
256,192,179688,1,0,0:0:0:0:
256,192,179852,1,0,0:0:0:0:
256,192,180180,1,8,0:0:0:0:
256,192,180344,1,8,0:0:0:0:
256,192,180672,1,0,0:0:0:0:
256,192,180835,1,0,0:0:0:0:
256,192,181163,1,0,0:0:0:0:
256,192,181327,1,8,0:0:0:0:
256,192,181491,1,0,0:0:0:0:
256,192,181655,1,0,0:0:0:0:
256,192,181737,1,0,0:0:0:0:
256,192,181819,1,8,0:0:0:0:
256,192,181983,1,8,0:0:0:0:
256,192,182311,1,0,0:0:0:0:
256,192,182475,1,0,0:0:0:0:
256,192,182803,1,8,0:0:0:0:
256,192,182967,1,8,0:0:0:0:
256,192,183295,1,0,0:0:0:0:
256,192,183458,1,8,0:0:0:0:
256,192,183622,1,8,0:0:0:0:
256,192,183704,1,8,0:0:0:0:
256,192,183786,1,0,0:0:0:0:
256,192,183950,1,0,0:0:0:0:
256,192,184114,1,8,0:0:0:0:
256,192,184442,1,12,0:0:0:0:
256,192,184606,1,8,0:0:0:0:
256,192,184934,1,0,0:0:0:0:
256,192,185098,1,0,0:0:0:0:
256,192,185426,1,8,0:0:0:0:
256,192,185590,1,8,0:0:0:0:
256,192,185917,1,0,0:0:0:0:
256,192,186081,1,0,0:0:0:0:
256,192,186409,1,0,0:0:0:0:
256,192,186573,1,8,0:0:0:0:
256,192,186737,1,0,0:0:0:0:
256,192,186901,1,0,0:0:0:0:
256,192,186983,1,0,0:0:0:0:
256,192,187065,1,8,0:0:0:0:
256,192,187229,1,8,0:0:0:0:
256,192,187557,1,0,0:0:0:0:
256,192,187721,1,0,0:0:0:0:
256,192,188049,1,8,0:0:0:0:
256,192,188213,1,8,0:0:0:0:
256,192,188540,1,0,0:0:0:0:
256,192,188704,1,8,0:0:0:0:
256,192,188868,1,8,0:0:0:0:
256,192,188950,1,8,0:0:0:0:
256,192,189032,1,0,0:0:0:0:
256,192,189196,1,8,0:0:0:0:
256,192,189278,1,0,0:0:0:0:
256,192,189360,1,8,0:0:0:0:
256,192,189442,1,8,0:0:0:0:
256,192,189524,1,0,0:0:0:0:
256,192,189688,1,12,0:0:0:0:
256,192,189852,1,0,0:0:0:0:
256,192,190016,1,8,0:0:0:0:
256,192,190180,1,0,0:0:0:0:
256,192,190262,1,0,0:0:0:0:
256,192,190344,1,0,0:0:0:0:
256,192,190508,1,8,0:0:0:0:
256,192,190672,1,8,0:0:0:0:
256,192,190835,1,0,0:0:0:0:
256,192,191163,1,0,0:0:0:0:
256,192,191327,1,8,0:0:0:0:
256,192,191491,1,0,0:0:0:0:
256,192,191573,1,0,0:0:0:0:
256,192,191655,1,0,0:0:0:0:
256,192,191819,1,8,0:0:0:0:
256,192,191983,1,8,0:0:0:0:
256,192,192147,1,0,0:0:0:0:
256,192,192229,1,0,0:0:0:0:
256,192,192311,1,8,0:0:0:0:
256,192,192393,1,8,0:0:0:0:
256,192,192475,1,0,0:0:0:0:
256,192,192639,1,8,0:0:0:0:
256,192,192967,1,0,0:0:0:0:
256,192,193131,1,0,0:0:0:0:
256,192,193295,1,8,0:0:0:0:
256,192,193376,1,8,0:0:0:0:
256,192,193458,1,0,0:0:0:0:
256,192,193540,1,0,0:0:0:0:
256,192,193622,1,8,0:0:0:0:
256,192,193786,1,0,0:0:0:0:
256,192,193950,1,8,0:0:0:0:
256,192,194114,1,8,0:0:0:0:
256,192,194196,1,8,0:0:0:0:
256,192,194278,1,0,0:0:0:0:
256,192,194442,1,0,0:0:0:0:
256,192,194606,1,8,0:0:0:0:
256,192,194770,1,12,0:0:0:0:
256,192,195098,1,0,0:0:0:0:
256,192,195180,1,0,0:0:0:0:
256,192,195262,1,8,0:0:0:0:
256,192,195426,1,8,0:0:0:0:
256,192,195508,1,0,0:0:0:0:
256,192,195590,1,8,0:0:0:0:
256,192,195672,1,0,0:0:0:0:
256,192,195754,1,8,0:0:0:0:
256,192,195917,1,8,0:0:0:0:
256,192,196081,1,8,0:0:0:0:
256,192,196163,1,8,0:0:0:0:
256,192,196245,1,0,0:0:0:0:
256,192,196327,1,0,0:0:0:0:
256,192,196409,1,0,0:0:0:0:
256,192,196573,1,12,0:0:0:0:
256,192,196737,1,0,0:0:0:0:
256,192,196819,1,8,0:0:0:0:
256,192,196901,1,0,0:0:0:0:
256,192,196983,1,0,0:0:0:0:
256,192,197065,1,8,0:0:0:0:
256,192,197147,1,8,0:0:0:0:
256,192,197229,1,0,0:0:0:0:
256,192,197393,1,12,0:0:0:0:
256,192,202147,1,0,0:0:0:0:
256,192,202229,1,0,0:0:0:0:
256,192,202311,1,0,0:0:0:0:
256,192,202475,1,8,0:0:0:0:
256,192,202639,1,0,0:0:0:0:
256,192,202803,1,12,0:0:0:0:
256,192,203131,1,8,0:0:0:0:
256,192,203295,1,0,0:0:0:0:
256,192,203376,1,0,0:0:0:0:
256,192,203458,1,0,0:0:0:0:
256,192,203622,1,0,0:0:0:0:
256,192,203786,1,8,0:0:0:0:
256,192,203950,1,8,0:0:0:0:
256,192,204032,1,8,0:0:0:0:
256,192,204114,1,0,0:0:0:0:
256,192,204278,1,8,0:0:0:0:
256,192,204442,1,8,0:0:0:0:
256,192,204606,1,0,0:0:0:0:
256,192,204688,1,8,0:0:0:0:
256,192,204770,1,0,0:0:0:0:
256,192,204852,1,0,0:0:0:0:
256,192,204934,1,8,0:0:0:0:
256,192,205098,1,8,0:0:0:0:
256,192,205262,1,0,0:0:0:0:
256,192,205344,1,0,0:0:0:0:
256,192,205426,1,0,0:0:0:0:
256,192,205590,1,0,0:0:0:0:
256,192,205754,1,8,0:0:0:0:
256,192,205917,1,0,0:0:0:0:
256,192,206081,1,8,0:0:0:0:
256,192,206163,1,8,0:0:0:0:
256,192,206245,1,0,0:0:0:0:
256,192,206327,1,0,0:0:0:0:
256,192,206409,1,8,0:0:0:0:
256,192,206573,1,8,0:0:0:0:
256,192,206737,1,0,0:0:0:0:
256,192,206901,1,0,0:0:0:0:
256,192,206983,1,0,0:0:0:0:
256,192,207065,1,8,0:0:0:0:
256,192,207229,1,0,0:0:0:0:
256,192,207311,1,8,0:0:0:0:
256,192,207393,1,8,0:0:0:0:
256,192,207475,1,0,0:0:0:0:
256,192,207557,1,0,0:0:0:0:
256,192,207721,1,8,0:0:0:0:
256,192,207885,1,4,0:0:0:0:
256,192,208049,1,12,0:0:0:0:
256,192,209196,1,12,0:0:0:0:
256,192,209360,1,4,0:0:0:0:
256,192,210344,1,8,0:0:0:0:
256,192,210508,1,4,0:0:0:0:
256,192,210835,1,0,0:0:0:0:
256,192,210999,1,8,0:0:0:0:
256,192,211163,1,0,0:0:0:0:
256,192,211245,1,8,0:0:0:0:
256,192,211327,1,0,0:0:0:0:
256,192,211491,1,8,0:0:0:0:
256,192,211655,1,8,0:0:0:0:
256,192,211819,1,4,0:0:0:0:
256,192,212147,1,0,0:0:0:0:
256,192,212311,1,8,0:0:0:0:
256,192,212393,1,8,0:0:0:0:
256,192,212475,1,0,0:0:0:0:
256,192,212557,1,0,0:0:0:0:
256,192,212639,1,8,0:0:0:0:
256,192,212721,1,0,0:0:0:0:
256,192,212803,1,8,0:0:0:0:
256,192,212885,1,8,0:0:0:0:
256,192,212967,1,0,0:0:0:0:
256,192,213131,1,12,0:0:0:0:
256,192,213458,1,0,0:0:0:0:
256,192,213622,1,8,0:0:0:0:
256,192,213786,1,0,0:0:0:0:
256,192,213868,1,0,0:0:0:0:
256,192,213950,1,0,0:0:0:0:
256,192,214114,1,0,0:0:0:0:
256,192,214278,1,8,0:0:0:0:
256,192,214442,1,8,0:0:0:0:
256,192,214524,1,8,0:0:0:0:
256,192,214606,1,0,0:0:0:0:
256,192,214770,1,8,0:0:0:0:
256,192,214934,1,8,0:0:0:0:
256,192,215098,1,0,0:0:0:0:
256,192,215180,1,0,0:0:0:0:
256,192,215262,1,8,0:0:0:0:
256,192,215344,1,8,0:0:0:0:
256,192,215426,1,0,0:0:0:0:
256,192,215590,1,8,0:0:0:0:
256,192,215754,1,8,0:0:0:0:
256,192,215835,1,8,0:0:0:0:
256,192,215917,1,8,0:0:0:0:
256,192,216081,1,0,0:0:0:0:
256,192,216245,1,8,0:0:0:0:
256,192,216409,1,8,0:0:0:0:
256,192,216573,1,0,0:0:0:0:
256,192,216655,1,0,0:0:0:0:
256,192,216737,1,0,0:0:0:0:
256,192,216819,1,0,0:0:0:0:
256,192,216901,1,8,0:0:0:0:
256,192,217065,1,0,0:0:0:0:
256,192,217229,1,8,0:0:0:0:
256,192,217311,1,8,0:0:0:0:
256,192,217393,1,0,0:0:0:0:
256,192,217475,1,0,0:0:0:0:
256,192,217557,1,8,0:0:0:0:
256,192,217721,1,0,0:0:0:0:
256,192,218049,1,0,0:0:0:0:
256,192,218213,1,8,0:0:0:0:
256,192,218376,1,0,0:0:0:0:
256,192,218540,1,4,0:0:0:0:
256,192,218704,1,8,0:0:0:0:
256,192,218786,1,8,0:0:0:0:
256,192,218868,1,8,0:0:0:0:
256,192,219032,1,8,0:0:0:0:
256,192,219196,1,0,0:0:0:0:
256,192,219360,1,8,0:0:0:0:
256,192,219442,1,8,0:0:0:0:
256,192,219524,1,0,0:0:0:0:
256,192,219688,1,12,0:0:0:0:
256,192,220016,1,8,0:0:0:0:
256,192,220180,1,0,0:0:0:0:
256,192,220344,1,8,0:0:0:0:
256,192,220426,1,0,0:0:0:0:
256,192,220508,1,0,0:0:0:0:
256,192,220672,1,0,0:0:0:0:
256,192,220835,1,8,0:0:0:0:
256,192,220999,1,8,0:0:0:0:
256,192,221163,1,4,0:0:0:0:
256,192,221327,1,0,0:0:0:0:
256,192,221491,1,8,0:0:0:0:
256,192,221655,1,0,0:0:0:0:
256,192,221737,1,0,0:0:0:0:
256,192,221819,1,0,0:0:0:0:
256,192,221983,1,8,0:0:0:0:
256,192,222147,1,0,0:0:0:0:
256,192,222311,1,12,0:0:0:0:
256,192,222639,1,8,0:0:0:0:
256,192,222803,1,8,0:0:0:0:
256,192,222967,1,4,0:0:0:0:
256,192,223131,1,8,0:0:0:0:
256,192,223295,1,0,0:0:0:0:
256,192,223376,1,0,0:0:0:0:
256,192,223458,1,0,0:0:0:0:
256,192,223622,1,8,0:0:0:0:
256,192,223786,1,4,0:0:0:0:
256,192,224114,1,8,0:0:0:0:
256,192,224442,1,0,0:0:0:0:
256,192,224606,1,0,0:0:0:0:
256,192,224770,1,8,0:0:0:0:
256,192,224934,1,12,0:0:0:0:
256,192,225262,1,0,0:0:0:0:
256,192,225426,1,8,0:0:0:0:
256,192,225590,1,4,0:0:0:0:
256,192,225754,1,8,0:0:0:0:
256,192,225917,1,0,0:0:0:0:
256,192,225999,1,0,0:0:0:0:
256,192,226081,1,0,0:0:0:0:
256,192,226245,1,8,0:0:0:0:
256,192,226409,1,4,0:0:0:0:
256,192,226573,1,0,0:0:0:0:
256,192,226737,1,12,0:0:0:0:
256,192,226901,1,0,0:0:0:0:
256,192,227065,1,8,0:0:0:0:
256,192,227147,1,8,0:0:0:0:
256,192,227229,1,0,0:0:0:0:
256,192,227311,1,0,0:0:0:0:
256,192,227393,1,8,0:0:0:0:
256,192,227557,1,4,0:0:0:0:
256,192,227885,1,0,0:0:0:0:
256,192,228049,1,8,0:0:0:0:
256,192,228213,1,0,0:0:0:0:
256,192,228295,1,0,0:0:0:0:
256,192,228376,1,8,0:0:0:0:
256,192,228540,1,8,0:0:0:0:
256,192,228868,1,12,0:0:0:0:
256,192,229196,1,0,0:0:0:0:
256,192,229360,1,8,0:0:0:0:
256,192,229524,1,8,0:0:0:0:
256,192,229606,1,8,0:0:0:0:
256,192,229688,1,0,0:0:0:0:
256,192,229852,1,0,0:0:0:0:
256,192,230016,1,8,0:0:0:0:
256,192,230180,1,12,0:0:0:0:
256,192,230508,1,0,0:0:0:0:
256,192,230672,1,8,0:0:0:0:
256,192,230835,1,4,0:0:0:0:
256,192,230999,1,8,0:0:0:0:
256,192,231163,1,0,0:0:0:0:
256,192,231245,1,0,0:0:0:0:
256,192,231327,1,0,0:0:0:0:
256,192,231491,1,8,0:0:0:0:
256,192,231655,1,4,0:0:0:0:
256,192,231819,1,0,0:0:0:0:
256,192,231983,1,12,0:0:0:0:
256,192,232147,1,0,0:0:0:0:
256,192,232229,1,0,0:0:0:0:
256,192,232311,1,8,0:0:0:0:
256,192,232393,1,8,0:0:0:0:
256,192,232475,1,0,0:0:0:0:
256,192,232557,1,0,0:0:0:0:
256,192,232639,1,8,0:0:0:0:
256,192,232803,1,12,0:0:0:0:
256,192,233131,1,0,0:0:0:0:
256,192,233295,1,8,0:0:0:0:
256,192,233376,1,0,0:0:0:0:
256,192,233458,1,0,0:0:0:0:
256,192,233540,1,0,0:0:0:0:
256,192,233622,1,8,0:0:0:0:
256,192,233786,1,8,0:0:0:0:
256,192,234278,1,4,0:0:0:0:
256,192,234606,1,8,0:0:0:0:
256,192,234934,1,0,0:0:0:0:
256,192,235098,1,0,0:0:0:0:
256,192,235262,1,8,0:0:0:0:
256,192,235426,1,0,0:0:0:0:
256,192,235508,1,0,0:0:0:0:
256,192,235590,1,8,0:0:0:0:
256,192,235754,1,0,0:0:0:0:
256,192,235917,1,8,0:0:0:0:
256,192,236081,1,8,0:0:0:0:
256,192,236163,1,8,0:0:0:0:
256,192,236245,1,0,0:0:0:0:
256,192,236409,1,0,0:0:0:0:
256,192,236573,1,8,0:0:0:0:
256,192,236901,1,0,0:0:0:0:
256,192,237229,1,8,0:0:0:0:
256,192,237557,1,0,0:0:0:0:
256,192,237721,1,0,0:0:0:0:
256,192,237885,1,8,0:0:0:0:
256,192,238049,1,8,0:0:0:0:
256,192,238131,1,8,0:0:0:0:
256,192,238213,1,0,0:0:0:0:
256,192,238376,1,0,0:0:0:0:
256,192,238540,1,8,0:0:0:0:
256,192,238704,1,0,0:0:0:0:
256,192,238786,1,0,0:0:0:0:
256,192,238868,1,8,0:0:0:0:
256,192,239032,1,0,0:0:0:0:
256,192,239114,1,0,0:0:0:0:
256,192,239196,1,8,0:0:0:0:
256,192,239278,1,8,0:0:0:0:
256,192,239360,1,8,0:0:0:0:
256,192,239524,1,4,0:0:0:0:
256,192,239852,1,8,0:0:0:0:
256,192,240180,1,0,0:0:0:0:
256,192,240344,1,0,0:0:0:0:
256,192,240508,1,8,0:0:0:0:
256,192,240672,1,0,0:0:0:0:
256,192,240754,1,0,0:0:0:0:
256,192,240835,1,8,0:0:0:0:
256,192,240999,1,0,0:0:0:0:
256,192,241163,1,8,0:0:0:0:
256,192,241327,1,0,0:0:0:0:
256,192,241491,1,8,0:0:0:0:
256,192,241573,1,8,0:0:0:0:
256,192,241655,1,0,0:0:0:0:
256,192,241737,1,0,0:0:0:0:
256,192,241819,1,8,0:0:0:0:
256,192,241983,1,0,0:0:0:0:
256,192,242147,1,8,0:0:0:0:
256,192,242229,1,8,0:0:0:0:
256,192,242311,1,0,0:0:0:0:
256,192,242475,1,8,0:0:0:0:
256,192,242557,1,8,0:0:0:0:
256,192,242639,1,0,0:0:0:0:
256,192,242721,1,8,0:0:0:0:
256,192,242803,1,0,0:0:0:0:
256,192,242885,1,0,0:0:0:0:
256,192,242967,1,8,0:0:0:0:
256,192,243131,1,8,0:0:0:0:
256,192,243295,1,4,0:0:0:0:
256,192,243622,1,0,0:0:0:0:
256,192,243786,1,8,0:0:0:0:
256,192,243868,1,0,0:0:0:0:
256,192,243950,1,0,0:0:0:0:
256,192,244114,1,12,0:0:0:0:
256,192,244278,1,12,0:0:0:0:
