osu file format v14

[General]
AudioFilename: 77.mp3
AudioLeadIn: 0
PreviewTime: 104919
Countdown: 0
SampleSet: Soft
StackLeniency: 0.7
Mode: 0
LetterboxInBreaks: 1
WidescreenStoryboard: 0

[Editor]
DistanceSpacing: 0.5
BeatDivisor: 8
GridSize: 4
TimelineZoom: 2.699999

[Metadata]
Title:Mata Futari Koi o Suru
TitleUnicode:またフタリ恋をする
Artist:*namirin
ArtistUnicode:*なみりん
Creator:Rumia-
Version:Aishita
Source:
Tags:utaite Meat GoodBye vocaloid IA cover someday the two of us will again
BeatmapID:901266
BeatmapSetID:416013

[Difficulty]
HPDrainRate:6
CircleSize:4.5
OverallDifficulty:8
ApproachRate:8.5
SliderMultiplier:2.1
SliderTickRate:1

[Events]
//Background and Video events
0,0,"bgbg.jpg",0,0
//Break Periods
2,256691,267581
//Storyboard Layer 0 (Background)
//Storyboard Layer 1 (Fail)
//Storyboard Layer 2 (Pass)
//Storyboard Layer 3 (Foreground)
//Storyboard Sound Samples

[TimingPoints]
1102,779.220779220779,4,2,1,50,1,0
9673,-100,4,2,1,50,0,0
10452,-100,4,2,1,50,0,0
10842,-100,4,2,1,30,0,0
12400,-100,4,2,2,30,0,0
12595,-100,4,2,1,30,0,0
12790,-100,4,2,1,50,0,0
12985,-133.333333333333,4,2,1,50,0,0
13569,-100,4,2,1,50,0,0
25647,-100,4,2,1,30,0,0
26037,-100,4,2,5,35,0,0
49998,-100,4,2,1,15,0,0
50972,-95.2380952380952,4,2,1,30,0,0
63050,-95.2380952380952,4,2,2,30,0,0
63244,-95.2380952380952,4,2,1,30,0,0
74348,-95.2380952380952,4,2,2,30,0,0
74640,-95.2380952380952,4,2,1,30,0,0
75127,-95.2380952380952,4,2,2,30,0,0
75322,-95.2380952380952,4,2,5,30,0,0
75517,-95.2380952380952,4,2,2,30,0,0
75712,-95.2380952380952,4,2,5,30,0,0
75907,-95.2380952380952,4,2,1,60,0,0
76491,-95.2380952380952,4,2,1,30,0,0
78244,-95.2380952380952,4,2,1,60,0,0
78439,-95.2380952380952,4,2,5,60,0,0
78634,-95.2380952380952,4,2,2,60,0,0
78829,-95.2380952380952,4,2,5,60,0,0
79024,-95.2380952380952,4,2,1,60,0,0
79803,-95.2380952380952,4,2,1,30,0,0
80972,-95.2380952380952,4,2,5,40,0,0
81166,-95.2380952380952,4,2,1,60,0,0
82140,-86.9565217391304,4,2,1,70,0,0
82238,-86.9565217391304,4,2,1,35,0,0
87400,-86.9565217391304,4,2,2,35,0,0
87595,-86.9565217391304,4,2,5,35,0,0
87790,-117.647058823529,4,2,1,50,0,0
88374,-86.9565217391304,4,2,1,70,0,0
88472,-86.9565217391304,4,2,1,40,0,0
94608,-100,4,2,1,70,0,0
94705,-100,4,2,1,40,0,0
99283,-100,4,2,2,40,0,0
99478,-100,4,2,5,40,0,0
99673,-100,4,2,2,40,0,0
99868,-100,4,2,5,40,0,0
100063,-100,4,2,1,60,0,0
100452,-100,4,2,2,60,0,0
100842,-86.9565217391304,4,2,1,70,0,0
100939,-86.9565217391304,4,2,1,40,0,0
103959,-71.4285714285714,4,2,1,70,0,0
104056,-86.9565217391304,4,2,1,40,0,0
107076,-74.0740740740741,4,2,1,70,0,1
108050,-74.0740740740741,4,2,1,30,0,1
108244,-74.0740740740741,4,2,1,70,0,1
108829,-74.0740740740741,4,2,1,30,0,1
109024,-74.0740740740741,4,2,1,70,0,1
111166,-74.0740740740741,4,2,1,30,0,1
111361,-74.0740740740741,4,2,1,70,0,1
112335,-74.0740740740741,4,2,1,30,0,1
112530,-74.0740740740741,4,2,1,70,0,1
112920,-74.0740740740741,4,2,1,40,0,1
113309,-74.0740740740741,4,2,1,70,0,1
115063,-74.0740740740741,4,2,1,30,0,1
115257,-74.0740740740741,4,2,1,70,0,1
115550,-74.0740740740741,4,2,1,30,0,1
115647,-74.0740740740741,4,2,1,70,0,1
116037,-74.0740740740741,4,2,1,40,0,1
116426,-74.0740740740741,4,2,1,70,0,1
117498,-74.0740740740741,4,2,1,30,0,1
117595,-74.0740740740741,4,2,1,70,0,1
117887,-74.0740740740741,4,2,1,30,0,1
117985,-74.0740740740741,4,2,1,70,0,1
118179,-105.263157894737,4,2,1,70,0,1
119543,-74.0740740740741,4,2,1,70,0,1
120517,-74.0740740740741,4,2,1,30,0,1
120712,-74.0740740740741,4,2,1,70,0,1
121296,-74.0740740740741,4,2,1,30,0,1
121491,-74.0740740740741,4,2,1,45,0,1
121881,-74.0740740740741,4,2,1,70,0,1
122173,-74.0740740740741,4,2,1,30,0,1
122270,-74.0740740740741,4,2,1,70,0,1
122563,-74.0740740740741,4,2,1,30,0,1
122660,-74.0740740740741,4,2,1,70,0,1
122952,-74.0740740740741,4,2,1,30,0,1
123050,-74.0740740740741,4,2,1,70,0,1
124413,-74.0740740740741,4,2,5,70,0,1
124608,-74.0740740740741,4,2,2,70,0,1
124803,-74.0740740740741,4,2,5,70,0,1
124998,-74.0740740740741,4,2,1,70,0,1
125387,-74.0740740740741,4,2,1,40,0,1
125777,-74.0740740740741,4,2,1,70,0,1
126751,-74.0740740740741,4,2,1,30,0,1
126946,-74.0740740740741,4,2,1,70,0,1
127043,-74.0740740740741,4,2,1,30,0,1
127140,-74.0740740740741,4,2,1,70,0,1
128894,-86.9565217391304,4,2,1,70,0,0
128991,-86.9565217391304,4,2,1,45,0,0
138439,-86.9565217391304,4,2,1,60,0,0
138634,-86.9565217391304,4,2,1,35,0,0
139024,-86.9565217391304,4,2,1,70,0,0
139218,-86.9565217391304,4,2,1,55,0,0
140192,-86.9565217391304,4,2,1,70,0,0
140777,-133.333333333333,4,2,1,60,0,0
141166,-133.333333333333,4,2,1,70,0,0
141361,-86.9565217391303,4,2,1,60,0,0
141751,-86.9565217391303,4,2,1,45,0,0
151101,-86.9565217391303,4,2,1,65,0,0
151296,-86.9565217391303,4,2,1,45,0,0
152076,-86.9565217391303,4,2,1,65,0,0
152757,-86.9565217391303,4,2,1,25,0,0
152855,-86.9565217391303,4,2,1,65,0,0
152952,-86.9565217391303,4,2,1,25,0,0
153050,-86.9565217391303,4,2,1,65,0,0
153829,-100,4,2,1,30,0,0
159186,-100,4,2,1,15,0,0
159283,-100,4,2,1,30,0,0
164543,-133.333333333333,4,2,1,15,0,0
166296,-100,4,2,1,30,0,0
176426,-100,4,2,1,45,0,0
178179,-100,4,2,2,45,0,0
178764,-86.9565217391304,4,2,1,40,0,0
184413,-86.9565217391304,4,2,2,40,0,0
184608,-86.9565217391304,4,2,1,40,0,0
184803,-86.9565217391304,4,2,2,40,0,0
184998,-86.9565217391304,4,2,1,70,0,0
185095,-86.9565217391304,4,2,1,40,0,0
190257,-200,4,2,1,30,0,0
190647,-200,4,2,1,70,0,0
190842,-200,4,2,1,40,0,0
191231,-86.9565217391304,4,2,1,70,0,0
191621,-86.9565217391304,4,2,1,40,0,0
197076,-86.9565217391304,4,2,2,40,0,0
197465,-86.9565217391304,4,2,1,70,0,0
197563,-86.9565217391304,4,2,1,40,0,0
203699,-86.9565217391304,4,2,1,70,0,0
203991,-86.9565217391304,4,2,1,30,0,0
204089,-86.9565217391304,4,2,1,50,0,0
204381,-86.9565217391304,4,2,1,30,0,0
204478,-86.9565217391304,4,2,1,50,0,0
204770,-86.9565217391304,4,2,1,30,0,0
204868,-86.9565217391304,4,2,1,50,0,0
205160,-86.9565217391304,4,2,1,30,0,0
205257,-86.9565217391304,4,2,1,43,0,0
206037,-86.9565217391304,4,2,1,50,0,0
206231,-86.9565217391304,4,2,1,30,0,0
206816,-86.9565217391304,4,2,1,70,0,0
207011,-86.9565217391304,4,2,1,45,0,0
207595,-86.9565217391304,4,2,1,65,0,0
207790,-86.9565217391304,4,2,1,45,0,0
207985,-86.9565217391304,4,2,1,65,0,0
208764,-86.9565217391304,4,2,2,40,0,0
209153,-86.9565217391304,4,2,1,65,0,0
209348,-86.9565217391304,4,2,1,40,0,0
209933,-133.333333333333,4,2,1,70,0,0
210225,-133.333333333333,4,2,1,30,0,0
210322,-90.9090909090909,4,2,1,60,0,0
210517,-90.9090909090909,4,2,1,30,0,0
211491,-74.0740740740741,4,2,1,30,0,1
211881,-74.0740740740741,4,2,1,40,0,1
212270,-74.0740740740741,4,2,1,70,0,1
212855,-74.0740740740741,4,2,1,40,0,1
213050,-74.0740740740741,4,2,1,45,0,1
221037,-105.263157894737,4,2,1,70,0,1
221329,-105.263157894737,4,2,1,30,0,1
221426,-105.263157894737,4,2,1,70,0,1
222400,-74.0740740740741,4,2,1,70,0,1
222790,-74.0740740740741,4,2,1,45,0,1
228634,-74.0740740740741,4,2,1,55,0,1
230192,-74.0740740740741,4,2,1,65,0,1
231751,-86.9565217391304,4,2,1,70,0,0
231848,-86.9565217391304,4,2,1,50,0,0
240322,-117.647058823529,4,2,1,30,0,0
241101,-86.9565217391304,4,2,1,30,0,0
241881,-86.9565217391304,4,2,1,70,0,0
242076,-86.9565217391304,4,2,1,50,0,0
253569,-74.0740740740741,4,2,1,60,0,0
254153,-64.5161290322581,4,2,1,70,0,0
254933,-64.5161290322581,4,2,1,80,0,0
255322,-64.5161290322581,4,2,1,80,0,0
255517,-64.5161290322581,4,2,1,80,0,0
256491,-133.333333333333,4,2,1,30,0,0
268374,-133.333333333333,4,2,1,40,0,0
269153,-133.333333333333,4,2,4,30,0,0
275387,-100,4,2,1,45,0,0
277530,-100,4,2,1,28,0,0
277725,-100,4,2,1,45,0,0
277920,-100,4,2,1,28,0,0
278114,-100,4,2,1,45,0,0
278309,-100,4,2,1,28,0,0
278504,-100,4,2,1,40,0,0
278796,-100,4,2,1,15,0,0
278894,-100,4,2,1,40,0,0
279186,-100,4,2,1,15,0,0
279283,-100,4,2,1,40,0,0
280355,-100,4,2,1,15,0,0
280452,-100,4,2,1,40,0,0
280744,-100,4,2,1,15,0,0
280842,-100,4,2,1,40,0,0
281621,-86.9565217391304,4,2,1,50,0,0
282011,-86.9565217391304,4,2,1,30,0,0
282400,-86.9565217391304,4,2,1,50,0,0
282790,-86.9565217391304,4,2,1,30,0,0
283179,-100,4,2,1,50,0,0
283569,-100,4,2,1,30,0,0
283959,-100,4,2,1,50,0,0
284153,-100,4,2,1,30,0,0
284738,-86.9565217391304,4,2,1,50,0,0
286686,-86.9565217391304,4,2,1,25,0,0
287855,-117.647058823529,4,2,2,22,0,0
298959,-200,4,2,2,30,0,0
300322,-117.647058823529,4,2,3,30,0,0
300712,-117.647058823529,4,2,2,30,0,0
302660,-117.647058823529,4,2,2,60,0,0
302757,-117.647058823529,4,2,2,30,0,0
304218,-117.647058823529,4,2,2,60,0,0
304413,-117.647058823529,4,2,2,30,0,0
304803,-117.647058823529,4,2,2,40,0,0
305387,-117.647058823529,4,2,3,60,0,0
305582,-117.647058823529,4,2,2,30,0,0
305777,-117.647058823529,4,2,2,60,0,0
305972,-117.647058823529,4,2,2,30,0,0
306556,-200,4,2,2,60,0,0
306946,-200,4,2,2,30,0,0
307335,-200,4,2,2,60,0,0
307530,-200,4,2,2,30,0,0
308114,-86.9565217391303,4,2,1,70,0,0
308504,-80,4,2,1,70,0,0
308894,-80,4,2,1,20,0,0
309283,-200,4,2,1,30,0,0
309673,-74.074074074074,4,2,1,70,0,1
310647,-74.074074074074,4,2,1,30,0,1
310842,-74.074074074074,4,2,1,70,0,1
311621,-74.074074074074,4,2,1,40,0,1
312011,-74.074074074074,4,2,1,70,0,1
312205,-74.074074074074,4,2,1,40,0,1
312400,-74.074074074074,4,2,1,70,0,1
312595,-74.074074074074,4,2,1,40,0,1
312790,-74.074074074074,4,2,1,70,0,1
314348,-74.074074074074,4,2,1,30,0,1
314543,-74.074074074074,4,2,1,70,0,1
314738,-74.074074074074,4,2,1,40,0,1
315127,-74.074074074074,4,2,1,70,0,1
316978,-74.074074074074,4,2,1,20,0,1
317076,-74.074074074074,4,2,1,70,0,1
319024,-74.0740740740742,4,2,1,30,0,1
319705,-105.263157894737,4,2,1,5,0,1
319803,-105.263157894737,4,2,1,70,0,1
320192,-105.263157894737,4,2,1,40,0,1
320582,-133.333333333333,4,2,1,70,0,1
320777,-133.333333333333,4,2,1,30,0,1
322140,-74.0740740740741,4,2,1,70,0,1
324283,-74.0740740740741,4,2,1,40,0,1
324478,-74.0740740740741,4,2,1,70,0,1
325550,-74.0740740740741,4,2,1,20,0,1
325647,-74.0740740740741,4,2,1,70,0,1
328374,-105.263157894737,4,2,2,30,0,0
332855,-105.263157894737,4,2,2,15,0,0
333050,-86.9565217391304,4,2,1,55,0,0
337335,-86.9565217391304,4,2,2,45,0,0
337725,-86.9565217391304,4,2,1,55,0,0
338114,-86.9565217391304,4,2,2,45,0,0
338504,-86.9565217391304,4,2,1,45,0,0
339283,-86.9565217391304,4,2,2,55,0,0
339673,-86.9565217391304,4,2,1,45,0,0
340452,-86.9565217391304,4,2,2,55,0,0
340647,-86.9565217391304,4,2,1,45,0,0
341231,-86.9565217391304,4,2,2,55,0,0
341621,-86.9565217391304,4,2,1,45,0,0
342400,-86.9565217391304,4,2,2,55,0,0
342595,-86.9565217391304,4,2,1,45,0,0
344153,-86.9565217391304,4,2,5,55,0,0
344933,-86.9565217391304,4,2,1,55,0,0
345517,-86.9565217391304,4,2,1,75,0,0
347465,-86.9565217391304,4,2,2,55,0,0
347855,-86.9565217391304,4,2,1,55,0,0
349803,-86.9565217391304,4,2,2,55,0,0
349998,-86.9565217391304,4,2,1,55,0,0
350582,-86.9565217391304,4,2,2,55,0,0
350972,-86.9565217391304,4,2,1,55,0,0
351751,-86.9565217391304,4,2,2,55,0,0
351946,-86.9565217391304,4,2,1,55,0,0
352920,-86.9565217391304,4,2,2,55,0,0
353114,-86.9565217391304,4,2,1,55,0,0
353699,-86.9565217391304,4,2,2,55,0,0
353894,-86.9565217391304,4,2,1,55,0,0
355257,-86.9565217391304,4,2,2,55,0,0
355452,-86.9565217391304,4,2,1,55,0,0
355842,-86.9565217391304,4,2,1,55,0,0
356037,-86.9565217391304,4,2,5,55,0,0
356231,-86.9565217391304,4,2,1,55,0,0

[Colours]
Combo1 : 43,99,193
Combo2 : 236,132,132
Combo3 : 233,247,136
Combo4 : 153,217,203

[HitObjects]
28,320,1102,6,0,B|76:336|76:336|140:324,1,105,4|2,0:1|0:0,0:0:0:0:
216,288,1686,1,0,0:0:0:0:
250,200,1881,2,0,P|254:144|246:92,1,105,8|0,0:0|0:0,0:0:0:0:
347,58,2465,1,2,0:0:0:0:
436,108,2660,6,0,L|500:104,1,52.5
354,160,3050,2,0,P|339:102|352:48,1,105,0|8,0:0|0:0,0:0:0:0:
236,228,3829,1,0,0:0:0:0:
368,304,4024,1,0,0:0:0:0:
368,304,4121,1,0,0:0:0:0:
368,304,4218,6,0,P|416:288|472:312,1,105
465,305,4803,1,2,0:0:0:0:
360,216,4998,2,0,P|348:188|352:160,1,52.5,8|0,0:0|0:0,0:0:0:0:
476,92,5387,1,0,0:0:0:0:
440,176,5582,1,0,0:0:0:0:
440,176,5679,1,2,0:0:0:0:
440,176,5777,6,0,P|472:184|504:176,1,52.5,0|8,0:0|0:0,0:0:0:0:
324,124,6166,2,0,L|268:116,1,52.5,0|2,0:0|0:0,0:0:0:0:
160,160,6556,5,8,0:0:0:0:
132,204,6751,5,2,0:0:0:0:
132,248,6946,5,0,0:0:0:0:
144,276,7140,6,0,P|156:296|172:308,1,26.25,0|2,0:0|0:0,0:0:0:0:
48,348,7335,6,0,L|56:240,1,105
55,243,7920,1,2,0:0:0:0:
236,240,8114,2,0,L|244:360,1,105,8|0,0:0|0:0,0:0:0:0:
242,344,8699,1,2,0:0:0:0:
420,256,8894,6,0,P|456:268|476:264,1,52.5,0|2,0:0|0:0,0:0:0:0:
344,196,9283,2,0,P|308:184|288:188,1,52.5
444,146,9673,1,8,0:0:0:0:
448,132,10063,5,0,0:0:0:0:
448,120,10160,1,2,0:0:0:0:
445,108,10257,1,2,0:0:0:0:
440,97,10355,1,2,0:0:0:0:
435,88,10452,1,0,0:0:0:0:
276,112,10842,2,0,L|228:100,2,35
368,120,11231,1,8,0:0:0:0:
228,152,11621,5,0,0:0:0:0:
317,181,11816,1,0,0:0:0:0:
247,244,12011,1,2,0:0:0:0:
280,140,12205,1,8,0:0:0:0:
300,232,12400,1,0,0:0:0:0:
210,203,12595,1,2,0:0:0:0:
317,181,12790,1,8,0:0:0:0:
285,46,12985,6,0,B|284:70|284:70|269:102|269:102|269:126,1,78.7500030040742,4|8,0:0|0:0,0:0:0:0:
264,192,13569,6,0,P|313:176|336:126,1,105,4|0,0:1|0:0,0:0:0:0:
269,196,14153,1,0,0:0:0:0:
120,148,14348,2,0,P|112:108|120:80,1,52.5,8|0,0:0|0:0,0:0:0:0:
136,236,14738,1,0,0:0:0:0:
32,156,14933,1,0,0:0:0:0:
40,244,15127,6,0,L|44:308,1,52.5
175,357,15517,2,0,L|187:293,1,52.5,0|2,0:0|0:0,0:0:0:0:
324,240,15907,2,0,L|328:304,1,52.5,8|0,0:0|0:0,0:0:0:0:
469,352,16297,2,0,L|481:288,1,52.5
414,171,16686,6,0,P|442:213|492:208,1,105
480,108,17270,1,2,0:0:0:0:
414,171,17465,2,0,P|374:179|350:175,1,52.5,8|0,0:0|0:0,0:0:0:0:
248,136,17855,2,0,P|236:96|240:72,1,52.5,0|2,0:0|0:0,0:0:0:0:
304,264,18244,2,0,P|264:244|252:224,1,52.5,0|8,0:0|0:0,0:0:0:0:
424,264,18634,5,0,0:0:0:0:
434,278,19024,1,8,0:0:0:0:
326,265,19218,1,0,0:0:0:0:
250,327,19413,1,0,0:0:0:0:
160,244,19608,1,0,0:0:0:0:
160,244,19705,1,2,0:0:0:0:
160,244,19803,6,0,L|168:356,1,105
312,276,20387,1,2,0:0:0:0:
376,148,20582,2,0,L|368:44,1,105,8|0,0:0|0:0,0:0:0:0:
456,148,21166,1,2,0:0:0:0:
372,228,21361,6,0,B|384:240|381:269|381:269|368:252,1,52.5,0|8,0:0|0:0,0:0:0:0:
296,148,21751,2,0,B|284:159|254:157|254:157|272:143,1,52.5,0|2,0:0|0:0,0:0:0:0:
376,68,22140,2,0,B|364:56|366:26|366:26|380:44,1,52.5,8|2,0:0|0:0,0:0:0:0:
456,148,22530,2,0,B|468:136|497:138|497:138|479:152,1,52.5,0|2,0:0|0:0,0:0:0:0:
376,148,22920,5,0,0:0:0:0:
367,251,23309,2,0,P|379:200|376:148,1,105,0|8,0:0|0:0,0:0:0:0:
288,48,23894,1,2,0:0:0:0:
180,84,24089,1,0,0:0:0:0:
264,156,24283,1,0,0:0:0:0:
176,100,24478,5,2,0:0:0:0:
92,200,24673,1,8,0:0:0:0:
32,88,24868,1,0,0:0:0:0:
269,331,25257,1,8,0:0:0:0:
188,220,25452,1,8,0:0:0:0:
324,196,25647,1,0,0:0:0:0:
340,188,25744,1,2,0:0:0:0:
360,184,25842,1,0,0:0:0:0:
380,184,25939,1,2,0:0:0:0:
400,188,26037,5,2,0:0:0:0:
468,120,26231,1,0,0:0:0:0:
484,212,26426,2,0,L|476:268,1,52.5,0|2,0:0|0:0,0:0:0:0:
376,368,26816,2,0,L|368:264,1,105,0|2,0:0|0:0,0:0:0:0:
292,332,27400,5,0,0:0:0:0:
292,332,27595,2,0,L|232:336,1,52.5,2|0,0:0|0:0,0:0:0:0:
104,360,27985,2,0,L|132:344,3,26.25,2|0|0|0,0:0|0:0|0:0|0:0,0:0:0:0:
104,360,28374,2,0,P|96:288|100:244,1,105,0|2,0:0|0:0,0:0:0:0:
160,160,28959,1,2,0:0:0:0:
276,184,29153,6,0,L|380:176,1,105,2|0,0:0|0:0,0:0:0:0:
468,112,29738,2,0,L|460:168,1,52.5,2|0,0:0|0:0,0:0:0:0:
352,296,30322,5,2,0:0:0:0:
424,248,30517,1,0,0:0:0:0:
432,336,30712,1,2,0:0:0:0:
283,331,30907,1,0,0:0:0:0:
296,228,31101,2,0,P|296:208|292:180,3,26.25,2|0|0|0,0:0|0:0|0:0|0:0,0:0:0:0:
296,228,31491,2,0,P|292:288|280:344,1,105,0|2,0:0|0:0,0:0:0:0:
200,272,32076,1,0,0:0:0:0:
128,344,32270,6,0,P|88:336|64:320,1,52.5,2|0,0:0|0:0,0:0:0:0:
16,188,32660,2,0,P|52:180|88:180,1,52.5,2|0,0:0|0:0,0:0:0:0:
176,264,33050,2,0,P|188:216|176:148,1,105,0|2,0:0|0:0,0:0:0:0:
156,48,33634,1,0,0:0:0:0:
240,104,33829,6,0,P|272:108|304:104,1,52.5,2|0,0:0|0:0,0:0:0:0:
148,72,34218,2,0,P|112:68|84:68,1,52.5,2|0,0:0|0:0,0:0:0:0:
304,28,34608,1,0,0:0:0:0:
272,272,34998,1,0,0:0:0:0:
376,328,35192,5,2,0:0:0:0:
480,264,35387,2,0,P|492:212|480:152,1,105,0|2,0:0|0:0,0:0:0:0:
456,72,35972,1,0,0:0:0:0:
396,212,36166,1,0,0:0:0:0:
396,212,36556,5,2,0:0:0:0:
240,200,36751,1,0,0:0:0:0:
360,292,36946,1,2,0:0:0:0:
208,224,37140,1,2,0:0:0:0:
288,352,37335,1,0,0:0:0:0:
188,352,37530,1,2,0:0:0:0:
188,352,37627,1,2,0:0:0:0:
188,352,37725,5,0,0:0:0:0:
136,284,37920,1,2,0:0:0:0:
48,296,38114,1,0,0:0:0:0:
20,372,38309,1,2,0:0:0:0:
136,284,38504,6,0,L|132:208,1,52.5,2|0,0:0|0:0,0:0:0:0:
32,128,38894,2,0,L|24:192,1,52.5,0|2,0:0|0:0,0:0:0:0:
152,144,39283,2,0,P|172:96|168:40,1,105,0|2,0:0|0:0,0:0:0:0:
128,168,39868,1,0,0:0:0:0:
236,192,40063,6,0,L|296:200,1,52.5,2|0,0:0|0:0,0:0:0:0:
372,292,40452,2,0,L|384:324,3,26.25,2|0|0|0,0:0|0:0|0:0|0:0,0:0:0:0:
372,292,40842,2,0,P|332:308|264:308,1,105
184,252,41426,1,2,0:0:0:0:
84,264,41621,6,0,L|68:328,1,52.5,2|2,0:0|0:0,0:0:0:0:
40,160,42011,2,0,L|24:96,1,52.5
148,176,42400,2,0,P|176:168|214:171,1,52.5,0|2,0:0|0:0,0:0:0:0:
284,288,42790,2,0,P|248:284|222:273,1,52.5,2|0,0:0|0:0,0:0:0:0:
428,165,43179,1,2,0:0:0:0:
272,213,43374,1,0,0:0:0:0:
340,352,43569,5,2,0:0:0:0:
428,280,43764,1,2,0:0:0:0:
428,280,43861,1,2,0:0:0:0:
428,280,43959,1,0,0:0:0:0:
208,216,44348,6,0,B|178:210|178:210|146:218,2,52.5,2|0|2,0:0|0:0|0:0,0:0:0:0:
370,149,45127,1,2,0:0:0:0:
348,36,45322,1,0,0:0:0:0:
448,112,45517,2,0,P|456:152|416:228,1,105,0|2,0:0|0:0,0:0:0:0:
344,240,46101,1,0,0:0:0:0:
416,312,46296,6,0,L|480:316,1,52.5,2|0,0:0|0:0,0:0:0:0:
312,252,46686,2,0,L|256:260,1,52.5,2|0,0:0|0:0,0:0:0:0:
432,216,47076,2,0,P|440:176|432:104,1,105,0|2,0:0|0:0,0:0:0:0:
364,32,47660,1,2,0:0:0:0:
364,32,47855,5,2,0:0:0:0:
296,76,48050,1,0,0:0:0:0:
216,88,48244,2,0,P|180:80|156:64,1,52.5,0|2,0:0|0:0,0:0:0:0:
96,32,48634,1,0,0:0:0:0:
88,20,49024,5,0,0:0:0:0:
88,244,49218,1,2,0:0:0:0:
308,332,49998,5,0,0:0:0:0:
324,316,50192,5,0,0:0:0:0:
308,296,50387,5,0,0:0:0:0:
284,316,50582,5,0,0:0:0:0:
304,316,50777,5,0,0:0:0:0:
300,261,50972,6,0,L|304:316,1,55.1249983177186,4|0,0:1|0:0,0:0:0:0:
488,181,51361,2,0,L|483:242,1,55.1249983177186
302,131,51751,2,0,P|363:146|425:124,1,110.249996635437,8|0,0:0|0:0,0:0:0:0:
454,51,52335,1,0,0:0:0:0:
454,51,52433,1,2,0:0:0:0:
454,51,52530,5,0,0:0:0:0:
407,134,52725,2,0,P|402:170|402:192,1,55.1249983177186,2|0,0:0|0:0,0:0:0:0:
488,272,53114,2,0,P|489:292|486:312,1,27.5624991588593,0|2,0:0|0:0,0:0:0:0:
491,348,53309,2,0,B|457:341|457:341|400:349|400:349|372:342,1,110.249996635437,8|0,0:0|0:0,0:0:0:0:
315,274,53894,1,0,0:0:0:0:
315,274,54089,6,0,B|349:267|349:267|406:275|406:275|434:268,1,110.249996635437
478,177,54673,1,2,0:0:0:0:
478,177,54868,2,0,P|486:135|482:109,1,55.1249983177186,8|0,0:0|0:0,0:0:0:0:
339,44,55257,2,0,P|335:82|339:109,1,55.1249983177186,0|2,0:0|0:0,0:0:0:0:
394,222,55647,5,0,0:0:0:0:
321,237,55842,1,2,0:0:0:0:
252,209,56037,1,0,0:0:0:0:
209,147,56231,1,0,0:0:0:0:
196,71,56426,2,0,L|201:7,1,55.1249983177186,8|0,0:0|0:0,0:0:0:0:
28,115,56816,2,0,L|32:171,1,55.1249983177186
76,320,57205,6,0,P|122:327|184:306,1,110.249996635437
189,203,57790,1,2,0:0:0:0:
181,307,57985,2,0,L|178:379,1,55.1249983177186,8|0,0:0|0:0,0:0:0:0:
377,292,58374,1,0,0:0:0:0:
283,355,58569,1,0,0:0:0:0:
283,355,58666,1,2,0:0:0:0:
283,355,58764,5,0,0:0:0:0:
377,292,58959,2,0,P|411:293|437:303,1,55.1249983177186,8|0,0:0|0:0,0:0:0:0:
480,72,59543,5,8,0:0:0:0:
480,248,59933,1,0,0:0:0:0:
460,159,60127,1,0,0:0:0:0:
460,159,60225,1,2,0:0:0:0:
460,159,60322,5,0,0:0:0:0:
275,85,60712,1,0,0:0:0:0:
296,282,61101,1,8,0:0:0:0:
480,236,61491,5,0,0:0:0:0:
324,204,61686,1,2,0:0:0:0:
392,344,61881,1,0,0:0:0:0:
408,180,62076,1,8,0:0:0:0:
407,191,62465,5,8,0:0:0:0:
407,202,62563,1,2,0:0:0:0:
407,212,62660,1,0,0:0:0:0:
398,303,62855,1,8,0:0:0:0:
264,240,63050,1,8,0:0:0:0:
292,123,63244,2,0,L|300:82,1,27.5624991588593,0|2,0:0|0:0,0:0:0:0:
207,174,63439,6,0,P|165:180|140:174,1,55.1249983177186,4|0,0:0|0:0,0:0:0:0:
31,258,63829,2,0,L|83:282,1,55.1249983177186,0|2,0:0|0:0,0:0:0:0:
156,352,64218,2,0,P|173:312|169:237,1,110.249996635437,8|0,0:0|0:0,0:0:0:0:
128,99,64803,1,0,0:0:0:0:
128,99,64900,1,2,0:0:0:0:
128,99,64998,5,0,0:0:0:0:
109,194,65192,1,2,0:0:0:0:
88,289,65387,2,0,L|76:360,1,55.1249983177186
168,260,65777,2,0,P|146:226|62:214,1,110.249996635437,8|0,0:0|0:0,0:0:0:0:
153,346,66361,1,0,0:0:0:0:
153,346,66556,6,0,B|194:357|194:357|282:350,1,110.249996635437
474,275,67335,2,0,B|483:235|483:235|482:156,1,110.249996635437,8|0,0:0|0:0,0:0:0:0:
348,173,67920,1,2,0:0:0:0:
419,267,68114,6,0,L|479:275,1,55.1249983177186,8|0,0:0|0:0,0:0:0:0:
312,329,68504,2,0,L|253:338,1,55.1249983177186
143,269,68894,2,0,P|136:229|143:153,1,110.249996635437,8|0,0:0|0:0,0:0:0:0:
25,255,69478,1,0,0:0:0:0:
25,255,69576,1,2,0:0:0:0:
25,255,69673,6,0,L|34:367,1,110.249996635437
206,269,70452,1,8,0:0:0:0:
104,222,70647,1,0,0:0:0:0:
308,186,70842,1,0,0:0:0:0:
256,355,71037,1,0,0:0:0:0:
256,355,71231,6,0,L|274:277,1,55.1249983177186,0|2,0:0|0:0,0:0:0:0:
105,236,71621,2,0,L|99:179,1,55.1249983177186
309,93,72011,2,0,P|276:102|238:97,1,55.1249983177186,8|0,0:0|0:0,0:0:0:0:
120,28,72400,1,0,0:0:0:0:
192,193,72595,1,0,0:0:0:0:
192,193,72692,1,2,0:0:0:0:
192,193,72790,6,0,P|200:252|184:308,1,110.249996635437
20,240,73569,1,8,0:0:0:0:
16,260,73959,5,0,0:0:0:0:
164,120,74153,1,8,0:0:0:0:
112,272,74348,1,8,0:0:0:0:
26,155,74543,1,8,0:0:0:0:
26,155,74640,1,2,0:0:0:0:
26,155,74738,5,0,0:0:0:0:
184,248,74933,1,8,0:0:0:0:
253,109,75127,1,8,0:0:0:0:
90,28,75322,1,2,0:0:0:0:
112,154,75517,1,2,0:0:0:0:
162,14,75712,1,8,0:0:0:0:
253,109,75907,5,0,0:0:0:0:
436,168,76296,1,0,0:0:0:0:
214,223,76686,6,0,L|212:293,1,55.1249983177186
96,340,77076,1,0,0:0:0:0:
52,272,77270,1,0,0:0:0:0:
10,200,77465,1,0,0:0:0:0:
108,111,77660,2,2,L|112:75,2,27.5624991588593
94,246,78050,1,0,0:0:0:0:
94,246,78147,1,2,0:0:0:0:
94,246,78244,5,8,0:0:0:0:
263,303,78439,1,2,0:0:0:0:
156,312,78634,1,8,0:0:0:0:
306,217,78829,1,2,0:0:0:0:
461,357,79024,6,8,P|468:321|464:266,1,82.6874974765778,8|0,0:0|0:0,0:0:0:0:
417,182,79413,2,8,P|414:233|424:284,1,82.6874974765778,8|0,0:0|0:0,0:0:0:0:
439,275,79803,1,0,0:0:0:0:
256,328,79998,1,0,0:0:0:0:
356,336,80192,1,0,0:0:0:0:
187,265,80387,1,0,0:0:0:0:
187,265,80485,1,2,0:0:0:0:
187,265,80582,5,0,0:0:0:0:
84,351,80777,1,0,0:0:0:0:
40,236,80972,1,0,0:0:0:0:
36,224,81069,1,0,0:0:0:0:
36,212,81166,1,8,0:0:0:0:
40,200,81264,1,8,0:0:0:0:
45,191,81361,5,8,0:0:0:0:
216,328,81556,1,8,0:0:0:0:
84,351,81751,1,0,0:0:0:0:
140,184,81946,1,8,0:0:0:0:
255,248,82140,6,0,P|313:258|385:240,1,120.750002303124,4|0,0:0|0:0,0:0:0:0:
444,191,82725,1,2,0:0:0:0:
484,111,82920,2,0,L|472:35,1,60.3750011515618,8|0,0:0|0:0,0:0:0:0:
334,57,83309,1,0,0:0:0:0:
334,57,83504,6,0,L|318:129,1,60.3750011515618,2|0,0:0|0:0,0:0:0:0:
297,250,83894,2,0,L|304:325,1,60.3750011515618,2|0,0:0|0:0,0:0:0:0:
200,192,84283,2,0,L|204:116,1,60.3750011515618,0|8,0:0|0:0,0:0:0:0:
104,248,84673,2,0,L|96:320,1,60.3750011515618,0|2,0:0|0:0,0:0:0:0:
37,186,85063,1,0,0:0:0:0:
37,186,85257,6,0,P|73:201|160:186,1,120.750002303124
244,137,85842,2,0,L|245:73,1,60.3750011515618,2|8,0:0|0:0,0:0:0:0:
364,166,86231,1,0,0:0:0:0:
364,166,86426,1,0,0:0:0:0:
263,261,86621,1,8,0:0:0:0:
434,339,86816,6,0,P|452:290|451:235,1,90.5625017273426
452,223,87205,1,8,0:0:0:0:
282,345,87400,1,8,0:0:0:0:
486,365,87595,1,2,0:0:0:0:
319,259,87790,6,0,P|305:213|323:140,1,111.562502127886,4|2,0:0|0:0,0:0:0:0:
372,129,88374,6,0,P|316:139|238:109,1,120.750002303124,4|0,0:0|0:0,0:0:0:0:
89,113,89153,2,0,L|92:190,1,60.3750011515618,8|2,0:0|0:0,0:0:0:0:
15,288,89543,2,0,L|21:224,1,60.3750011515618
96,358,89933,5,2,0:0:0:0:
160,277,90127,1,0,0:0:0:0:
230,354,90322,2,0,P|273:356|306:350,1,60.3750011515618,0|2,0:0|0:0,0:0:0:0:
469,296,90712,1,8,0:0:0:0:
319,218,90907,1,0,0:0:0:0:
400,348,91101,1,0,0:0:0:0:
490,208,91296,1,0,0:0:0:0:
490,208,91394,1,2,0:0:0:0:
490,208,91491,6,0,L|365:215,1,120.750002303124
196,193,92270,2,0,P|183:240|194:288,1,90.5625017273426,8|2,0:0|0:0,0:0:0:0:
200,308,92660,2,0,L|123:312,1,60.3750011515618
78,355,92952,1,2,0:0:0:0:
78,355,93050,5,0,0:0:0:0:
19,237,93244,1,0,0:0:0:0:
146,173,93439,1,0,0:0:0:0:
85,325,93634,2,0,P|81:340|78:355,1,30.1875005757809,0|2,0:0|0:0,0:0:0:0:
19,237,93829,2,0,P|21:193|21:171,1,60.3750011515618,8|0,0:0|0:0,0:0:0:0:
188,92,94218,1,0,0:0:0:0:
64,172,94413,1,8,0:0:0:0:
156,290,94608,6,0,P|201:283|259:304,1,105,4|0,0:0|0:0,0:0:0:0:
107,217,95387,1,0,0:0:0:0:
268,51,95777,5,0,0:0:0:0:
168,112,95972,2,0,L|106:119,1,52.5,0|2,0:0|0:0,0:0:0:0:
276,156,96361,2,0,L|329:163,1,52.5,0|2,0:0|0:0,0:0:0:0:
195,224,96751,1,0,0:0:0:0:
195,224,96946,2,0,P|193:281|204:335,1,105,8|0,0:0|0:0,0:0:0:0:
92,237,97530,1,0,0:0:0:0:
92,237,97725,6,0,P|56:249|37:250,1,52.5,0|2,0:0|0:0,0:0:0:0:
85,110,98114,2,0,P|125:108|141:113,1,52.5,0|2,0:0|0:0,0:0:0:0:
203,282,98504,2,0,P|197:227|205:171,1,105,8|0,0:0|0:0,0:0:0:0:
300,148,99089,1,0,0:0:0:0:
216,16,99283,5,8,0:0:0:0:
228,152,99478,1,2,0:0:0:0:
344,56,99673,1,8,0:0:0:0:
160,152,100063,5,8,0:0:0:0:
46,27,100257,1,8,0:0:0:0:
83,133,100452,1,8,0:0:0:0:
172,16,100647,1,8,0:0:0:0:
72,291,100842,6,0,B|77:304|96:311|96:311|91:291|93:271,1,60.3750011515618,4|0,0:0|0:0,0:0:0:0:
11,212,101231,2,0,B|28:204|43:206|43:206|28:204|17:184,1,60.3750011515618
83,133,101621,2,0,B|88:120|107:113|107:113|102:133|104:153,1,60.3750011515618,8|0,0:0|0:0,0:0:0:0:
165,223,102011,2,0,B|148:215|133:217|133:217|148:215|159:195,1,60.3750011515618,0|2,0:0|0:0,0:0:0:0:
230,302,102400,6,0,B|234:328|227:342|227:342|224:325|220:316,1,60.3750011515618,0|2,0:0|0:0,0:0:0:0:
308,272,102790,2,0,B|301:253|290:241|290:241|306:236|321:220,1,60.3750011515618,0|2,0:0|0:0,0:0:0:0:
376,180,103179,2,0,B|383:161|394:149|394:149|378:144|363:128,1,60.3750011515618,8|0,0:0|0:0,0:0:0:0:
420,40,103569,2,0,B|416:66|423:80|423:80|427:60,1,60.3750011515618
492,104,103959,6,0,B|504:128|496:160|496:160|488:140|472:128,1,73.4999977569581,4|0,0:0|0:0,0:0:0:0:
396,112,104348,1,0,0:0:0:0:
234,193,104738,2,0,P|205:158|216:81,1,120.750002303124,8|0,0:0|0:0,0:0:0:0:
273,42,105322,1,8,0:0:0:0:
234,193,105517,5,0,0:0:0:0:
236,352,107076,6,0,P|216:297|240:206,1,141.750000540733,4|0,0:0|0:0,0:0:0:0:
137,335,107660,1,2,0:0:0:0:
97,220,107855,2,0,P|59:219|29:198,1,70.8750002703667,8|0,0:0|0:0,0:0:0:0:
123,54,108244,1,0,0:0:0:0:
86,147,108439,1,2,0:0:0:0:
203,124,108634,6,0,L|308:135,1,70.8750002703667
336,12,109024,1,0,0:0:0:0:
416,96,109218,1,0,0:0:0:0:
412,112,109316,1,2,0:0:0:0:
408,128,109413,2,0,B|397:171|397:171|417:215,1,70.8750002703667,8|0,0:0|0:0,0:0:0:0:
492,260,109803,1,0,0:0:0:0:
492,140,109998,1,2,0:0:0:0:
416,220,110192,6,0,P|406:289|431:361,1,141.750000540733
428,356,110777,1,0,0:0:0:0:
324,331,110972,2,0,P|272:337|248:334,1,70.8750002703667,8|2,0:0|0:0,0:0:0:0:
208,241,111361,1,0,0:0:0:0:
140,368,111556,1,0,0:0:0:0:
140,368,111653,1,2,0:0:0:0:
140,368,111751,5,0,0:0:0:0:
20,296,111946,1,8,0:0:0:0:
120,260,112140,1,0,0:0:0:0:
72,120,112335,2,2,L|110:129,1,35.4375001351833
208,132,112530,2,0,P|220:95|221:55,1,70.8750002703667,8|0,0:0|0:0,0:0:0:0:
292,220,112920,2,0,P|292:260|284:292,1,70.8750002703667,0|2,0:0|0:0,0:0:0:0:
375,135,113309,6,0,P|439:120|492:171,1,141.750000540733,4|0,0:0|0:0,0:0:0:0:
417,286,113894,1,0,0:0:0:0:
249,344,114089,1,0,0:0:0:0:
417,286,114283,1,0,0:0:0:0:
286,164,114478,1,0,0:0:0:0:
320,280,114673,1,0,0:0:0:0:
320,280,114770,1,2,0:0:0:0:
320,280,114868,6,0,B|280:272|280:272|248:280,1,70.8750002703667,0|2,0:0|0:0,0:0:0:0:
144,348,115257,2,0,P|152:304|140:228,1,106.31250040555
120,224,115647,2,0,B|76:232|76:232|44:224,1,70.8750002703667,8|0,0:0|0:0,0:0:0:0:
204,80,116037,2,0,P|198:107|208:160,1,70.8750002703667,0|2,0:0|0:0,0:0:0:0:
312,24,116426,6,0,B|328:76|284:108|284:108|292:80|288:56,1,141.750000540733,4|0,0:0|0:0,0:0:0:0:
360,160,117011,1,0,0:0:0:0:
436,104,117205,6,0,P|452:136|460:88,1,106.31250040555,8|0,0:0|0:0,0:0:0:0:
460,64,117595,2,0,L|460:204,1,106.31250040555,4|0,0:0|0:0,0:0:0:0:
460,170,117985,1,0,0:0:0:0:
424,320,118179,6,0,B|392:312|392:312|344:320|344:320|312:308,1,99.7499973363877,4|0,0:0|0:0,0:0:0:0:
344,216,118764,1,8,0:0:0:0:
230,307,118959,2,0,B|262:315|262:315|310:307|310:307|342:319,1,99.7499973363877,4|0,0:0|0:0,0:0:0:0:
260,240,119446,1,2,0:0:0:0:
260,240,119543,6,0,P|212:232|160:316,1,141.750000540733
44,348,120322,2,0,P|60:304|60:268,1,70.8750002703667,8|0,0:0|0:0,0:0:0:0:
52,112,120712,1,0,0:0:0:0:
24,212,120907,1,2,0:0:0:0:
132,120,121101,2,0,P|124:72|104:44,1,70.8750002703667
224,216,121491,2,0,P|232:196|244:184,3,35.4375001351833
224,216,121881,6,0,P|216:164|244:108,1,106.31250040555,8|0,0:0|0:0,0:0:0:0:
256,100,122270,2,0,B|308:120|308:120|368:100,1,106.31250040555
376,76,122660,2,0,P|368:128|380:192,1,106.31250040555
384,208,123050,1,0,0:0:0:0:
416,304,123244,2,0,B|396:296|372:308|372:308|408:312,1,70.8750002703667,2|8,0:0|0:0,0:0:0:0:
468,184,123634,2,0,B|460:204|472:228|472:228|476:192,1,70.8750002703667
468,100,124024,6,0,P|424:116|404:40,1,141.750000540733,0|2,0:0|0:0,0:0:0:0:
400,140,124608,1,8,0:0:0:0:
396,216,124803,1,2,0:0:0:0:
460,260,124998,1,8,0:0:0:0:
400,140,125192,1,0,0:0:0:0:
348,292,125387,1,2,0:0:0:0:
332,304,125485,1,2,0:0:0:0:
312,312,125582,1,2,0:0:0:0:
292,316,125679,1,2,0:0:0:0:
272,320,125777,6,0,B|244:332|216:316|216:316|184:328|184:328|156:312|124:324,1,141.750000540733,4|0,0:1|0:0,0:0:0:0:
20,252,126361,1,2,0:0:0:0:
128,240,126556,2,0,B|148:196|128:160|128:160,1,70.8750002703667,8|0,0:0|0:0,0:0:0:0:
28,260,126946,1,0,0:0:0:0:
28,260,127140,1,0,0:0:0:0:
28,260,127335,6,0,P|40:300|100:256,1,141.750000540733,4|0,0:1|0:0,0:0:0:0:
220,200,127920,1,0,0:0:0:0:
220,200,128114,2,0,B|184:188|148:200|148:200|116:188|116:188|64:192,1,141.750000540733,12|0,0:0|0:0,0:0:0:0:
156,120,128699,1,0,0:0:0:0:
104,312,128894,6,0,B|140:324|168:312|168:312|192:320|192:320|244:320,1,120.750002303124,4|0,0:1|0:0,0:1:0:0:
136,244,129478,1,2,0:0:0:0:
33,276,129673,2,0,P|26:305|28:336,1,60.3750011515618,8|0,0:0|0:0,0:0:0:0:
36,184,130063,2,0,P|28:154|30:124,1,60.3750011515618,0|2,0:0|0:0,0:0:0:0:
96,232,130452,2,0,L|160:228,1,60.3750011515618,0|2,0:0|0:0,0:0:0:0:
264,208,130842,2,0,P|276:148|268:112,1,90.5625017273426
260,100,131231,5,8,0:0:0:0:
96,232,131621,1,0,0:0:0:0:
180,324,131816,1,2,0:0:0:0:
180,324,131913,1,0,0:0:0:0:
180,324,132011,6,0,B|220:324|220:324|268:312|268:312|312:312,1,120.750002303124
380,244,132595,1,2,0:0:0:0:
478,276,132790,2,0,P|485:305|484:336,1,60.3750011515618,8|0,0:0|0:0,0:0:0:0:
476,184,133180,2,0,P|483:154|481:124,1,60.3750011515618
416,232,133569,2,0,L|352:228,1,60.3750011515618
248,208,133959,6,0,P|236:148|248:100,1,90.5625017273426,0|8,0:0|0:0,0:0:0:0:
245,89,134348,1,8,0:0:0:0:
176,128,134543,1,2,0:0:0:0:
100,116,134738,1,0,0:0:0:0:
36,72,134933,2,0,P|32:48|36:24,1,30.1875005757809,0|2,0:0|0:0,0:0:0:0:
24,144,135127,6,0,B|8:176|8:220|8:220|40:208|64:220,1,120.750002303124
36,292,135712,1,2,0:0:0:0:
212,296,135907,2,0,P|208:248|216:228,1,60.3750011515618,8|0,0:0|0:0,0:0:0:0:
320,280,136296,2,0,P|324:328|308:356,1,60.3750011515618,0|2,0:0|0:0,0:0:0:0:
144,324,136686,1,0,0:0:0:0:
80,232,136881,1,0,0:0:0:0:
156,124,137076,6,0,P|156:84|172:48,1,60.3750011515618,0|2,0:0|0:0,0:0:0:0:
242,174,137465,2,0,P|234:210|210:250,1,60.3750011515618,8|0,0:0|0:0,0:0:0:0:
144,324,137855,1,0,0:0:0:0:
24,200,138050,1,2,0:0:0:0:
24,200,138147,1,0,0:0:0:0:
24,200,138244,6,0,P|72:208|104:200,1,60.3750011515618,0|8,0:0|0:0,0:0:0:0:
192,184,138634,2,0,L|208:132,2,40.2500007677078
172,260,139024,2,0,P|172:304|180:336,1,60.3750011515618,4|0,0:0|0:0,0:0:0:0:
432,328,139413,5,8,0:0:0:0:
264,256,139608,1,0,0:0:0:0:
444,208,139803,1,2,0:0:0:0:
316,352,139998,1,0,0:0:0:0:
348,168,140192,1,8,0:0:0:0:
432,328,140387,1,2,0:0:0:0:
264,256,140582,1,8,0:0:0:0:
444,208,140777,6,0,P|452:164|444:124,1,78.7500030040742,4|8,0:0|0:0,0:0:0:0:
275,99,141361,6,0,B|251:95|227:111|227:111|191:99|191:99|151:111,1,120.750002303124,4|0,0:1|0:0,0:0:0:0:
272,176,141946,1,2,0:0:0:0:
400,200,142140,2,0,P|436:192|452:176,1,60.3750011515618,8|0,0:0|0:0,0:0:0:0:
308,248,142530,2,0,P|268:260|240:252,1,60.3750011515618,0|2,0:0|0:0,0:0:0:0:
404,304,142920,2,0,B|404:328|404:328|420:348|420:348|416:372,1,60.3750011515618,0|2,0:0|0:0,0:0:0:0:
472,236,143309,6,0,P|480:196|476:168,1,60.3750011515618,0|2,0:0|0:0,0:0:0:0:
328,156,143699,2,0,P|320:196|324:224,1,60.3750011515618,8|0,0:0|0:0,0:0:0:0:
412,124,144089,1,0,0:0:0:0:
412,112,144186,1,2,0:0:0:0:
412,100,144283,1,0,0:0:0:0:
412,88,144381,1,2,0:0:0:0:
412,76,144478,5,0,0:0:0:0:
312,348,144868,2,0,L|376:344,1,60.3750011515618,0|2,0:0|0:0,0:0:0:0:
237,272,145257,2,0,P|221:212|233:152,1,120.750002303124,8|0,0:0|0:0,0:0:0:0:
208,40,145842,1,2,0:0:0:0:
108,108,146037,6,0,L|44:104,1,60.3750011515618,0|8,0:0|0:0,0:0:0:0:
232,156,146426,2,0,L|300:160,1,60.3750011515618,0|2,0:0|0:0,0:0:0:0:
48,216,146816,1,8,0:0:0:0:
116,196,147011,1,0,0:0:0:0:
184,224,147205,1,0,0:0:0:0:
152,324,147400,1,2,0:0:0:0:
152,324,147498,1,2,0:0:0:0:
152,324,147595,6,0,B|132:329|112:362|112:362|88:330|64:319,1,120.750002303124
112,236,148179,1,2,0:0:0:0:
156,152,148374,2,0,B|136:146|116:114|116:114|92:146|68:158,1,120.750002303124,8|0,0:0|0:0,0:0:0:0:
192,92,148959,1,0,0:0:0:0:
36,96,149153,6,0,P|24:64|32:32,1,60.3750011515618,0|2,0:0|0:0,0:0:0:0:
24,208,149543,2,0,P|12:240|20:272,1,60.3750011515618,0|2,0:0|0:0,0:0:0:0:
272,332,149933,2,0,L|260:212,1,120.750002303124,8|0,0:0|0:0,0:0:0:0:
484,248,150517,1,0,0:0:0:0:
484,248,150614,1,0,0:0:0:0:
484,248,150712,5,0,0:0:0:0:
384,316,150907,1,0,0:0:0:0:
300,192,151101,1,8,0:0:0:0:
456,152,151296,1,0,0:0:0:0:
336,260,151491,1,8,0:0:0:0:
324,268,151589,1,2,0:0:0:0:
308,272,151686,1,0,0:0:0:0:
292,272,151783,1,2,0:0:0:0:
276,268,151881,5,8,0:0:0:0:
112,204,152076,1,8,0:0:0:0:
204,132,152270,1,0,0:0:0:0:
136,312,152465,1,0,0:0:0:0:
16,184,152660,2,0,L|12:216,1,30.1875005757809,0|2,0:0|0:0,0:0:0:0:
84,112,152855,2,0,L|56:88,1,30.1875005757809,0|2,0:0|0:0,0:0:0:0:
112,204,153050,1,8,0:0:0:0:
416,188,153439,5,0,0:0:0:0:
352,104,153634,1,0,0:0:0:0:
484,160,153829,2,0,P|488:200|440:256,1,105,4|0,0:1|0:0,0:0:0:0:
451,250,154413,1,2,0:0:0:0:
364,312,154608,2,0,P|344:264|356:204,1,105,8|0,0:0|0:0,0:0:0:0:
420,116,155192,1,0,0:0:0:0:
420,116,155290,1,0,0:0:0:0:
420,116,155387,5,0,0:0:0:0:
364,164,155582,1,8,0:0:0:0:
292,168,155777,1,0,0:0:0:0:
228,136,155972,1,0,0:0:0:0:
320,92,156166,2,0,B|332:144|332:144|312:212,1,105,8|0,0:0|0:0,0:0:0:0:
282,270,156751,1,2,0:0:0:0:
363,303,156946,6,0,P|370:261|364:238,1,52.5
476,256,157335,2,0,P|488:292|488:316,1,52.5
288,228,157725,2,0,P|280:188|288:168,1,52.5,8|0,0:0|0:0,0:0:0:0:
476,152,158114,5,0,0:0:0:0:
380,216,158309,1,2,0:0:0:0:
288,136,158504,1,0,0:0:0:0:
380,200,158699,1,2,0:0:0:0:
488,136,158894,2,0,P|492:80|484:48,1,78.75
456,168,159283,2,0,P|460:208|480:252,1,78.75,8|0,0:0|0:0,0:0:0:0:
468,152,159673,1,0,0:0:0:0:
416,328,159868,1,0,0:0:0:0:
416,328,159965,1,2,0:0:0:0:
416,328,160063,5,0,0:0:0:0:
328,184,160257,1,0,0:0:0:0:
424,116,160452,5,0,0:0:0:0:
328,264,160646,1,2,0:0:0:0:
156,135,160842,2,0,P|208:119|272:139,1,105,8|0,0:0|0:0,0:0:0:0:
328,264,161426,1,2,0:0:0:0:
212,195,161621,1,0,0:0:0:0:
291,68,161816,1,2,0:0:0:0:
377,121,162011,6,0,P|410:123|436:118,1,52.5
472,56,162400,2,0,B|408:40|416:68|344:44,1,105,8|0,0:0|0:0,0:0:0:0:
212,192,162985,1,0,0:0:0:0:
174,34,163179,5,2,0:0:0:0:
213,231,163374,1,0,0:0:0:0:
88,280,163569,5,2,0:0:0:0:
249,161,163764,1,8,0:0:0:0:
362,250,163958,5,2,0:0:0:0:
173,169,164153,1,0,0:0:0:0:
348,60,164348,1,0,0:0:0:0:
249,161,164543,1,0,0:0:0:0:
249,161,164933,6,0,L|249:208,1,39.3750015020371
392,236,165322,5,0,0:0:0:0:
412,264,165517,5,0,0:0:0:0:
388,292,165712,5,0,0:0:0:0:
364,260,165907,5,0,0:0:0:0:
472,320,166101,1,0,0:0:0:0:
308,328,166296,6,0,P|300:288|304:260,1,52.5,4|0,0:1|0:0,0:0:0:0:
316,152,166686,1,0,0:0:0:0:
388,260,166881,1,2,0:0:0:0:
232,344,167076,2,0,P|224:288|236:224,1,105,8|0,0:0|0:0,0:0:0:0:
230,240,167660,1,2,0:0:0:0:
120,308,167855,1,0,0:0:0:0:
48,204,168050,1,0,0:0:0:0:
156,140,168244,1,0,0:0:0:0:
40,348,168634,5,8,0:0:0:0:
64,116,169024,1,0,0:0:0:0:
152,303,169413,6,0,P|180:311|216:303,1,52.5
284,256,169803,2,0,P|312:248|348:256,1,52.5
436,284,170192,2,0,L|448:352,1,52.5,8|0,0:0|0:0,0:0:0:0:
480,192,170582,2,0,L|496:136,1,52.5,0|2,0:0|0:0,0:0:0:0:
352,36,170972,5,0,0:0:0:0:
296,148,171361,1,0,0:0:0:0:
449,47,171751,1,8,0:0:0:0:
480,192,172140,1,0,0:0:0:0:
392,264,172335,1,0,0:0:0:0:
392,264,172433,1,2,0:0:0:0:
392,264,172530,6,0,P|324:276|276:256,1,105,2|2,0:0|0:0,0:0:0:0:
372,160,173309,2,0,P|420:152|484:168,1,105,8|0,0:0|0:0,0:0:0:0:
360,36,173894,1,0,0:0:0:0:
360,36,173991,1,2,0:0:0:0:
360,36,174089,1,0,0:0:0:0:
280,156,174283,1,8,0:0:0:0:
216,32,174478,1,0,0:0:0:0:
77,137,174868,6,0,P|117:133|137:141,1,52.5,8|0,0:0|0:0,0:0:0:0:
36,36,175257,1,0,0:0:0:0:
32,256,175452,1,0,0:0:0:0:
32,256,175647,6,0,L|144:248,1,105
228,228,176231,1,2,0:0:0:0:
284,152,176426,2,0,P|296:96|284:40,1,105,8|0,0:0|0:0,0:0:0:0:
180,156,177011,1,8,0:0:0:0:
296,328,177205,1,0,0:0:0:0:
400,168,177400,1,0,0:0:0:0:
400,168,177498,1,2,0:0:0:0:
400,168,177595,5,0,0:0:0:0:
236,228,177790,1,8,0:0:0:0:
472,320,177985,1,0,0:0:0:0:
436,232,178179,1,8,0:0:0:0:
500,164,178374,1,8,0:0:0:0:
452,316,178569,1,8,0:0:0:0:
328,224,178764,6,0,P|316:176|324:120,1,90.5625017273426,4|0,0:1|0:0,0:0:0:0:
364,236,179153,2,0,P|376:284|368:340,1,90.5625017273426
332,252,179543,1,8,0:0:0:0:
412,124,179738,1,2,0:0:0:0:
412,124,179933,2,0,P|460:120|484:124,1,60.3750011515618,0|2,0:0|0:0,0:0:0:0:
304,64,180322,5,0,0:0:0:0:
224,112,180517,1,2,0:0:0:0:
140,72,180712,1,0,0:0:0:0:
36,278,181101,1,8,0:0:0:0:
20,164,181296,2,0,P|64:168|84:164,1,60.3750011515618
140,72,181686,1,2,0:0:0:0:
204,293,181881,5,0,0:0:0:0:
268,44,182270,1,0,0:0:0:0:
464,132,182660,1,8,0:0:0:0:
328,120,182855,1,0,0:0:0:0:
337,252,183050,1,0,0:0:0:0:
452,144,183244,1,0,0:0:0:0:
460,252,183439,1,0,0:0:0:0:
380,36,183829,5,0,0:0:0:0:
248,144,184024,1,2,0:0:0:0:
380,60,184413,5,8,0:0:0:0:
360,228,184608,1,0,0:0:0:0:
464,132,184803,1,8,0:0:0:0:
408,312,184998,6,0,P|364:324|288:288,1,120.750002303124,4|0,0:0|0:0,0:0:0:0:
232,228,185582,1,2,0:0:0:0:
208,136,185777,2,0,L|212:60,1,60.3750011515618,8|0,0:0|0:0,0:0:0:0:
92,144,186166,1,0,0:0:0:0:
160,248,186361,1,2,0:0:0:0:
60,240,186556,5,2,0:0:0:0:
132,332,186751,1,0,0:0:0:0:
60,240,186946,1,2,0:0:0:0:
132,332,187140,1,0,0:0:0:0:
172,184,187335,2,0,P|180:140|176:116,1,60.3750011515618,8|0,0:0|0:0,0:0:0:0:
8,104,187725,2,0,P|0:148|4:172,1,60.3750011515618
92,144,188017,1,2,0:0:0:0:
92,144,188114,6,0,L|100:76,1,60.3750011515618
60,240,188504,2,0,L|54:302,1,60.3750011515618,2|0,0:0|0:0,0:0:0:0:
226,297,188894,1,8,0:0:0:0:
274,173,189089,1,0,0:0:0:0:
216,316,189283,2,0,P|176:316|144:304,1,60.3750011515618,0|2,0:0|0:0,0:0:0:0:
344,216,189673,5,8,0:0:0:0:
476,324,189868,1,0,0:0:0:0:
424,188,190063,1,2,0:0:0:0:
339,356,190257,1,0,0:0:0:0:
406,270,190452,5,0,0:0:0:0:
164,210,190647,1,4,0:0:0:0:
232,300,190842,1,0,0:0:0:0:
264,160,191037,1,0,0:0:0:0:
80,352,191231,5,4,0:1:0:0:
296,272,191621,1,0,0:0:0:0:
192,128,192011,2,0,P|184:168|192:200,1,60.3750011515618,8|2,0:0|0:0,0:0:0:0:
296,272,192400,1,0,0:0:0:0:
196,320,192595,2,0,P|128:332|60:304,1,120.750002303124,0|2,0:0|0:0,0:0:0:0:
28,232,193179,5,0,0:0:0:0:
28,232,193374,2,0,L|24:152,1,60.3750011515618,2|8,0:0|0:0,0:0:0:0:
196,140,193764,1,0,0:0:0:0:
196,140,193959,1,0,0:0:0:0:
40,64,194153,1,0,0:0:0:0:
40,64,194251,1,2,0:0:0:0:
40,64,194348,5,0,0:0:0:0:
276,108,194738,1,0,0:0:0:0:
72,208,195127,1,8,0:0:0:0:
92,292,195322,1,2,0:0:0:0:
20,340,195517,1,0,0:0:0:0:
3,255,195712,5,0,0:0:0:0:
75,303,195907,1,2,0:0:0:0:
165,326,196101,2,0,P|205:329|238:320,1,60.3750011515618,0|2,0:0|0:0,0:0:0:0:
320,272,196491,1,2,0:0:0:0:
420,344,196686,6,0,P|440:296|436:224,1,120.750002303124,8|8,0:0|0:0,0:0:0:0:
444,144,197205,6,0,P|460:124|472:100,1,40.2500007677078,8|8,0:0|0:0,0:0:0:0:
364,172,197465,6,0,P|292:184|240:164,1,120.750002303124,4|0,0:0|0:0,0:0:0:0:
240,28,198050,1,0,0:0:0:0:
80,88,198244,2,0,P|140:80|200:104,1,120.750002303124,8|2,0:0|0:0,0:0:0:0:
64,176,198829,1,0,0:0:0:0:
96,264,199024,1,2,0:0:0:0:
20,336,199218,1,0,0:0:0:0:
28,240,199413,1,0,0:0:0:0:
180,328,199803,6,0,P|224:328|248:320,1,60.3750011515618,8|0,0:0|0:0,0:0:0:0:
404,268,200192,2,0,P|352:268|328:256,1,60.3750011515618,0|2,0:0|0:0,0:0:0:0:
192,200,200582,6,0,L|188:120,1,60.3750011515618,0|2,0:0|0:0,0:0:0:0:
344,152,200972,2,0,L|336:224,1,60.3750011515618,0|2,0:0|0:0,0:0:0:0:
182,200,201361,6,0,L|177:120,1,60.3750011515618,8|0,0:0|0:0,0:0:0:0:
357,152,201751,2,0,L|347:224,1,60.3750011515618,0|2,0:0|0:0,0:0:0:0:
171,200,202140,6,0,L|166:120,1,60.3750011515618,2|0,0:0|0:0,0:0:0:0:
372,152,202530,2,0,L|361:224,1,60.3750011515618,0|2,0:0|0:0,0:0:0:0:
232,320,202920,6,0,B|216:312|196:316|196:316|196:300|184:280,1,60.3750011515618,8|0,0:0|0:0,0:0:0:0:
88,232,203309,2,0,B|78:217|58:210|58:210|66:196|66:173,1,60.3750011515618,0|2,0:0|0:0,0:0:0:0:
188,40,203699,6,0,P|200:92|180:144,1,90.5625017273426,4|0,0:0|0:0,0:0:0:0:
52,120,204089,2,0,P|40:72|56:32,1,90.5625017273426
104,176,204478,6,0,P|116:224|100:264,1,90.5625017273426,8|0,0:0|0:0,0:0:0:0:
60,360,204868,2,0,P|48:312|64:272,1,90.5625017273426
164,288,205257,5,0,0:0:0:0:
184,312,205452,1,2,0:0:0:0:
320,248,205647,5,0,0:0:0:0:
364,264,205842,1,2,0:0:0:0:
428,124,206037,5,8,0:0:0:0:
488,108,206231,1,2,0:0:0:0:
396,184,206426,5,0,0:0:0:0:
268,140,206621,1,2,0:0:0:0:
256,24,206816,6,0,L|196:44,1,60.3750011515618,4|0,0:1|0:0,0:0:0:0:
136,200,207205,1,0,0:0:0:0:
24,84,207400,1,0,0:0:0:0:
24,84,207595,2,0,L|84:96,1,60.3750011515618,8|0,0:0|0:0,0:0:0:0:
180,48,207985,1,8,0:0:0:0:
220,272,208374,1,8,0:0:0:0:
40,144,208764,5,8,0:0:0:0:
120,212,208959,1,8,0:0:0:0:
224,152,209153,1,0,0:0:0:0:
120,324,209348,1,0,0:0:0:0:
120,324,209738,1,0,0:0:0:0:
120,324,209933,6,0,L|120:296|120:248,1,59.0625022530557,8|0,0:0|0:0,0:0:0:0:
128,340,210322,6,0,L|128:256,1,57.7500017623902,8|0,0:0|0:0,0:0:0:0:
228,92,210712,2,0,L|224:176,1,57.7500017623902
104,224,211101,1,0,0:0:0:0:
260,328,211296,1,0,0:0:0:0:
44,292,211491,6,0,P|20:228|52:152,1,141.750000540733,4|0,0:0|0:0,0:0:0:0:
104,224,212076,1,0,0:0:0:0:
104,224,212173,1,0,0:0:0:0:
104,224,212270,2,0,P|168:240|244:220,1,141.750000540733,8|2,0:0|0:0,0:0:0:0:
320,152,212855,1,0,0:0:0:0:
320,152,213050,6,0,L|316:72,1,70.8750002703667
168,80,213439,2,0,L|160:160,1,70.8750002703667,2|0,0:0|0:0,0:0:0:0:
20,200,213829,1,8,0:0:0:0:
88,252,214024,1,2,0:0:0:0:
172,248,214218,1,0,0:0:0:0:
236,192,214413,1,2,0:0:0:0:
20,200,214608,6,0,P|12:264|32:344,1,141.750000540733,2|0,0:0|0:0,0:0:0:0:
157,317,215192,1,0,0:0:0:0:
157,317,215290,1,0,0:0:0:0:
157,317,215387,2,0,L|171:248,1,70.8750002703667,8|0,0:0|0:0,0:0:0:0:
88,108,215777,2,0,L|84:68,1,35.4375001351833,0|2,0:0|0:0,0:0:0:0:
20,200,215972,2,0,L|8:244,1,35.4375001351833,0|2,0:0|0:0,0:0:0:0:
124,208,216166,6,0,P|184:228|272:208,1,141.750000540733
344,144,216751,2,0,L|336:72,1,70.8750002703667,2|8,0:0|0:0,0:0:0:0:
484,220,217140,2,0,L|472:296,1,70.8750002703667,0|8,0:0|0:0,0:0:0:0:
304,336,217530,1,2,0:0:0:0:
304,336,217627,1,2,0:0:0:0:
304,336,217725,5,2,0:0:0:0:
100,284,217920,1,0,0:0:0:0:
280,240,218114,1,0,0:0:0:0:
172,176,218309,1,0,0:0:0:0:
299,108,218504,1,8,0:0:0:0:
224,32,218699,1,0,0:0:0:0:
396,116,218894,1,0,0:0:0:0:
152,188,219089,1,2,0:0:0:0:
280,240,219283,6,0,P|268:196|304:104,1,141.750000540733
336,340,220063,1,8,0:0:0:0:
32,216,220452,5,0,0:0:0:0:
152,164,220647,1,0,0:0:0:0:
52,64,220842,1,2,0:0:0:0:
260,32,221037,6,0,L|256:112,1,74.8124980022908,4|0,0:0|0:0,0:0:0:0:
256,136,221426,5,8,0:0:0:0:
244,312,221621,1,8,0:0:0:0:
320,240,221816,1,0,0:0:0:0:
144,148,222011,1,8,0:0:0:0:
32,304,222205,1,0,0:0:0:0:
32,304,222303,1,0,0:0:0:0:
32,304,222400,6,0,P|84:324|156:260,1,141.750000540733,4|0,0:0|0:0,0:0:0:0:
144,148,222985,1,2,0:0:0:0:
12,200,223179,2,0,P|40:216|88:192,1,70.8750002703667,8|0,0:0|0:0,0:0:0:0:
12,200,223569,1,0,0:0:0:0:
172,52,223764,1,2,0:0:0:0:
172,52,223861,1,2,0:0:0:0:
172,52,223959,6,0,P|164:108|180:148,1,70.8750002703667
248,224,224348,2,0,P|272:228|304:232,3,35.4375001351833,0|2|0|0,0:0|0:0|0:0|0:0,0:0:0:0:
248,224,224738,2,0,P|256:176|244:136,1,70.8750002703667,8|0,0:0|0:0,0:0:0:0:
208,304,225127,1,0,0:0:0:0:
192,312,225225,1,2,0:0:0:0:
176,320,225322,1,0,0:0:0:0:
160,328,225420,1,2,0:0:0:0:
144,336,225517,6,0,B|108:352|108:352|8:336,1,106.31250040555
20,328,225907,1,0,0:0:0:0:
176,229,226101,1,2,0:0:0:0:
100,116,226296,1,0,0:0:0:0:
100,116,226686,1,0,0:0:0:0:
276,40,226881,1,2,0:0:0:0:
276,40,226978,1,2,0:0:0:0:
276,40,227076,6,0,B|292:40|312:44|312:44|317:64|336:92,1,70.8750002703667,8|8,0:0|0:0,0:0:0:0:
312,300,227465,1,0,0:0:0:0:
448,152,227660,1,2,0:0:0:0:
388,336,227855,1,8,0:0:0:0:
276,156,228050,1,0,0:0:0:0:
488,248,228244,2,0,L|484:292,1,35.4375001351833,0|2,0:0|0:0,0:0:0:0:
448,152,228439,2,0,L|456:104,1,35.4375001351833,0|2,0:0|0:0,0:0:0:0:
376,228,228634,6,0,B|348:240|315:219|315:219|272:232|272:232|228:212,1,141.750000540733,4|2,0:0|0:0,0:0:0:0:
252,96,229218,1,0,0:0:0:0:
48,189,229413,2,0,B|81:178|109:197|109:197|152:184|152:184|195:197,1,141.750000540733,8|2,0:0|0:0,0:0:0:0:
64,268,229998,1,2,0:0:0:0:
40,88,230192,1,4,0:0:0:0:
336,228,230582,5,0,0:0:0:0:
248,300,230777,1,2,0:0:0:0:
152,228,230972,2,0,P|144:196|156:148,1,70.8750002703667,12|0,0:0|0:0,0:0:0:0:
408,192,231361,2,0,P|412:236|392:288,1,70.8750002703667,4|0,0:0|0:0,0:0:0:0:
200,356,231751,5,4,0:0:0:0:
200,356,232140,1,2,0:0:0:0:
16,264,232530,2,0,P|56:268|80:264,1,60.3750011515618,8|0,0:0|0:0,0:0:0:0:
171,193,232920,2,0,L|167:129,1,60.3750011515618,0|2,0:0|0:0,0:0:0:0:
32,64,233309,2,0,L|20:192,1,120.750002303124
20,184,233894,1,2,0:0:0:0:
200,356,234089,6,0,L|188:236,1,120.750002303124,8|0,0:0|0:0,0:0:0:0:
187,235,234673,1,2,0:0:0:0:
296,76,234868,2,0,L|296:144,1,60.3750011515618
356,224,235257,2,0,P|392:232|428:224,1,60.3750011515618,0|2,0:0|0:0,0:0:0:0:
480,168,235647,5,8,0:0:0:0:
496,72,235842,1,0,0:0:0:0:
396,96,236037,1,0,0:0:0:0:
293,125,236231,1,2,0:0:0:0:
293,125,236329,1,0,0:0:0:0:
293,125,236426,2,0,L|295:189,1,60.3750011515618,0|8,0:0|0:0,0:0:0:0:
299,270,236816,1,0,0:0:0:0:
80,176,237205,6,0,P|88:132|80:92,1,60.3750011515618,8|0,0:0|0:0,0:0:0:0:
80,100,237498,1,0,0:0:0:0:
72,88,237595,1,2,0:0:0:0:
156,176,237790,1,0,0:0:0:0:
248,72,237985,6,0,P|284:76|332:64,1,60.3750011515618
436,40,238374,1,0,0:0:0:0:
412,116,238569,1,2,0:0:0:0:
420,196,238764,1,8,0:0:0:0:
476,252,238959,1,0,0:0:0:0:
344,164,239153,1,0,0:0:0:0:
304,308,239348,1,8,0:0:0:0:
403,359,239543,6,0,P|411:303|391:251,1,90.5625017273426
388,252,239933,1,0,0:0:0:0:
292,212,240127,1,2,0:0:0:0:
292,212,240322,6,0,B|264:224|236:208|236:208|200:224|200:224|180:212|156:208,1,133.875002553463,8|0,0:0|0:0,0:0:0:0:
144,208,241004,1,2,0:0:0:0:
124,216,241101,6,0,L|128:304,1,60.3750011515618
28,356,241491,2,0,L|36:248,1,90.5625017273426
36,244,241881,5,4,0:0:0:0:
208,292,242076,1,0,0:0:0:0:
40,224,242270,1,4,0:0:0:0:
216,188,242465,1,8,0:0:0:0:
216,188,242563,1,8,0:0:0:0:
216,188,242660,5,8,0:0:0:0:
84,96,242855,2,0,B|52:104|52:104|20:92,1,60.3750011515618,4|0,0:0|0:0,0:0:0:0:
260,40,243244,1,0,0:0:0:0:
48,36,243439,1,8,0:0:0:0:
260,64,243634,6,0,L|248:132,1,60.3750011515618,4|0,0:0|0:0,0:0:0:0:
244,200,243926,1,8,0:0:0:0:
244,200,244024,1,8,0:0:0:0:
244,200,244121,1,8,0:0:0:0:
244,200,244218,5,4,0:0:0:0:
208,296,244413,2,0,B|172:304|172:304|144:292,1,60.3750011515618
312,268,244803,1,2,0:0:0:0:
312,268,244998,2,0,B|344:260|344:260|372:268,1,60.3750011515618,8|0,0:0|0:0,0:0:0:0:
460,300,245387,1,0,0:0:0:0:
412,160,245582,5,2,0:0:0:0:
472,224,245777,1,8,0:0:0:0:
472,224,245972,1,0,0:0:0:0:
320,168,246166,1,0,0:0:0:0:
436,92,246361,2,0,P|440:48|432:12,1,60.3750011515618,2|8,0:0|0:0,0:0:0:0:
504,132,246751,1,0,0:0:0:0:
356,60,246946,1,0,0:0:0:0:
380,220,247140,1,2,0:0:0:0:
380,220,247238,1,2,0:0:0:0:
380,220,247335,5,0,0:0:0:0:
232,304,247530,2,0,L|112:308,1,120.750002303124,0|2,0:0|0:0,0:0:0:0:
24,212,248114,1,8,0:0:0:0:
24,212,248309,2,0,L|104:216,1,60.3750011515618
176,128,248699,1,2,0:0:0:0:
176,128,248894,5,0,0:0:0:0:
124,280,249089,1,8,0:0:0:0:
248,224,249283,1,0,0:0:0:0:
40,124,249478,2,0,P|36:72|44:52,1,60.3750011515618,2|8,0:0|0:0,0:0:0:0:
131,162,249868,2,0,P|139:226|115:294,1,120.750002303124,0|2,0:0|0:0,0:0:0:0:
236,344,250452,5,0,0:0:0:0:
236,344,250647,2,0,L|172:332,1,60.3750011515618,2|0,0:0|0:0,0:0:0:0:
72,312,251037,2,0,L|24:324,2,30.1875005757809,2|2|8,0:0|0:0|0:0,0:0:0:0:
140,252,251426,2,0,P|148:200|132:120,1,120.750002303124,0|2,0:0|0:0,0:0:0:0:
60,80,252011,5,0,0:0:0:0:
208,64,252205,1,2,0:0:0:0:
152,168,252400,1,0,0:0:0:0:
20,80,252595,2,0,P|68:80|92:72,1,60.3750011515618,2|8,0:0|0:0,0:0:0:0:
152,168,252985,1,0,0:0:0:0:
140,252,253180,1,0,0:0:0:0:
28,188,253374,1,0,0:0:0:0:
36,320,253569,6,0,P|84:312|128:316,1,70.8750002703667,4|0,0:0|0:0,0:0:0:0:
192,332,253959,1,8,0:0:0:0:
376,232,254153,6,0,P|316:228|280:236,1,81.375000620842,4|0,0:0|0:0,0:0:0:0:
188,244,254543,1,0,0:0:0:0:
68,112,254738,1,8,0:0:0:0:
196,128,254933,6,0,P|252:128|304:112,1,81.375000620842,4|0,0:0|0:0,0:0:0:0:
132,32,255322,1,8,0:0:0:0:
120,232,255517,1,0,0:0:0:0:
68,112,255907,5,8,0:0:0:0:
268,240,256101,1,8,0:0:0:0:
439,91,256296,1,8,0:0:0:0:
265,352,256491,5,4,0:0:0:0:
400,96,268374,5,8,0:0:0:0:
464,244,268569,2,0,P|424:248|380:256,1,78.7500030040742,4|0,0:0|0:0,0:0:0:0:
210,335,269153,5,4,0:0:0:0:
210,209,269543,1,2,0:0:0:0:
319,271,269933,1,8,0:0:0:0:
228,96,270322,1,0,0:0:0:0:
160,148,270517,1,2,0:0:0:0:
84,196,270712,6,0,L|20:188,2,39.3750015020371,2|8|0,0:0|0:0|0:0,0:0:0:0:
312,144,271491,2,0,P|324:100|312:36,1,78.7500030040742,8|0,0:0|0:0,0:0:0:0:
400,188,272076,1,0,0:0:0:0:
400,188,272173,1,0,0:0:0:0:
400,188,272270,6,0,L|392:244,1,39.3750015020371,2|0,0:0|0:0,0:0:0:0:
312,336,272660,2,0,L|220:336,1,78.7500030040742,2|8,0:0|0:0,0:0:0:0:
76,284,273439,2,0,P|92:264|100:244,1,39.3750015020371,2|8,0:0|0:0,0:0:0:0:
72,136,273829,2,0,P|56:116|48:92,2,39.3750015020371,0|2|2,0:0|0:0|0:0,0:0:0:0:
253,241,274608,5,8,0:0:0:0:
325,313,274803,1,0,0:0:0:0:
389,233,274998,1,10,0:0:0:0:
317,169,275192,1,8,0:0:0:0:
232,340,275387,6,0,L|124:332,1,105,4|2,0:0|0:0,0:0:0:0:
128,332,276166,1,8,0:0:0:0:
36,208,276556,2,0,L|28:156,2,52.5,0|8|2,0:0|0:0|0:0,0:0:0:0:
144,288,277335,2,0,L|124:356,1,52.5
244,208,277725,2,0,L|232:152,1,52.5,8|0,0:0|0:0,0:0:0:0:
336,300,278114,2,0,L|316:368,1,52.5,2|8,0:0|0:0,0:0:0:0:
468,280,278504,6,0,P|476:232|468:184,1,78.75
448,84,278894,2,0,P|440:132|448:180,1,78.75,2|0,0:0|0:0,0:0:0:0:
464,176,279283,1,8,0:0:0:0:
252,136,279673,1,0,0:0:0:0:
372,276,280063,6,0,P|320:272|284:284,1,78.75
164,296,280452,2,0,P|216:300|252:288,1,78.75
268,280,280842,1,8,0:0:0:0:
264,264,281231,1,0,0:0:0:0:
232,164,281621,6,12,B|220:174|196:168|196:168|210:164|220:158,1,60.3750011515618,12|0,0:0|0:0,0:0:0:0:
292,106,282011,2,0,P|284:98|300:106,1,60.3750011515618
336,180,282400,2,0,B|348:170|372:176|372:176|358:180|348:186,1,60.3750011515618,8|0,0:0|0:0,0:0:0:0:
276,238,282790,2,0,P|284:246|268:238,1,60.3750011515618,0|2,0:0|0:0,0:0:0:0:
376,108,283179,1,0,0:0:0:0:
376,108,283569,5,0,0:0:0:0:
392,180,283764,1,2,0:0:0:0:
368,248,283959,1,8,0:0:0:0:
312,292,284153,5,2,0:0:0:0:
408,272,284348,1,0,0:0:0:0:
480,336,284543,1,2,0:0:0:0:
312,292,284738,6,0,B|276:288|276:288|216:308|216:308|176:304,1,120.750002303124,4|8,0:0|0:0,0:0:0:0:
208,188,285322,1,2,0:0:0:0:
68,208,285517,2,0,B|84:212|100:196|100:196|80:188|64:196,1,60.3750011515618,8|2,0:0|0:0,0:0:0:0:
264,100,285907,2,0,B|248:104|232:88|232:88|252:80|268:88,1,60.3750011515618,8|2,0:0|0:0,0:0:0:0:
180,332,286296,5,8,0:0:0:0:
161,75,287855,5,0,0:0:0:0:
32,92,288244,1,2,0:0:0:0:
36,116,288439,1,0,0:0:0:0:
40,140,288634,1,2,0:0:0:0:
184,68,289024,1,2,0:0:0:0:
92,172,289413,6,0,L|-4:176,1,89.2500017023087,2|10,0:0|0:0,0:0:0:0:
96,240,289998,2,0,P|132:232|148:216,1,44.6250008511543
140,120,290387,2,0,P|116:105|94:103,1,44.6250008511543,0|8,0:0|0:0,0:0:0:0:
200,184,290777,1,0,0:0:0:0:
200,184,290972,6,0,B|244:192|244:192|296:180,1,89.2500017023087,0|2,0:0|0:0,0:0:0:0:
336,112,291556,1,0,0:0:0:0:
444,160,291751,2,0,P|440:196|446:255,1,89.2500017023087
346,199,292335,2,0,P|346:235|350:259,1,44.6250008511543
278,147,292725,1,0,0:0:0:0:
278,147,292920,2,0,P|278:111|282:87,1,44.6250008511543
372,80,293309,2,0,P|376:56|372:20,2,44.6250008511543,8|0|0,0:0|0:0|0:0,0:0:0:0:
380,176,293894,1,0,0:0:0:0:
380,176,294089,6,0,P|384:228|364:276,1,89.2500017023087
260,312,294673,2,0,L|160:300,1,89.2500017023087
64,264,295257,1,0,0:0:0:0:
140,212,295452,6,0,P|156:176|148:120,1,89.2500017023087,8|0,0:0|0:0,0:0:0:0:
48,52,296037,2,0,P|76:60|96:64,1,44.6250008511543
184,64,296426,2,0,P|216:60|244:52,1,44.6250008511543,8|0,0:0|0:0,0:0:0:0:
64,136,296816,2,0,P|104:136|128:132,1,44.6250008511543
220,168,297205,6,0,B|248:164|248:164|280:176|280:176|308:172,2,89.2500017023087,2|0|8,0:0|0:0|0:0,0:0:0:0:
52,272,298374,1,0,0:0:0:0:
104,328,298569,2,0,P|128:284|124:248,1,66.9375012767315
124,244,298959,6,0,L|188:244,1,52.5,2|8,0:0|0:0,0:0:0:0:
312,304,299738,1,2,0:0:0:0:
312,304,299933,1,8,0:0:0:0:
448,208,300322,5,0,0:0:0:0:
304,148,300712,2,0,P|296:108|296:92,2,44.6250008511543,0|0|8,0:0|0:0|0:0,0:0:0:0:
168,64,301491,1,0,0:0:0:0:
168,64,301881,6,0,P|112:72|72:56,1,89.2500017023087,2|0,0:0|0:0,0:0:0:0:
24,156,302465,1,0,0:0:0:0:
24,156,302660,2,0,P|72:152|116:172,1,89.2500017023087,8|0,0:0|0:0,0:0:0:0:
172,244,303244,1,0,0:0:0:0:
172,244,303439,6,0,L|157:350,1,89.2500017023087
256,192,304024,2,0,L|252:144,1,44.6250008511543,0|8,0:0|0:0,0:0:0:0:
332,260,304413,2,0,L|328:312,1,44.6250008511543
416,192,304803,2,0,L|407:148,1,44.6250008511543
132,344,305387,5,0,0:0:0:0:
96,284,305582,1,0,0:0:0:0:
156,248,305777,1,8,0:0:0:0:
192,308,305972,1,0,0:0:0:0:
144,296,306166,1,0,0:0:0:0:
224,188,306556,6,0,P|200:168|192:140,1,52.5,8|0,0:0|0:0,0:0:0:0:
256,32,307335,2,0,P|284:28|292:24,1,26.25,8|0,0:0|0:0,0:0:0:0:
340,80,307725,2,0,P|356:64|364:52,1,26.25,2|0,0:0|0:0,0:0:0:0:
440,28,308114,6,0,B|424:52|432:88|432:88|436:68|456:48,1,90.5625017273426,8|0,0:0|0:0,0:0:0:0:
460,184,308504,6,0,B|480:160|496:112|496:112|508:136|500:172,1,131.25,8|0,0:0|0:0,0:0:0:0:
388,216,309283,6,0,P|356:216|340:212,1,39.375
320,208,309673,6,0,P|304:136|316:68,1,141.750000540733,4|2,0:0|0:0,0:0:0:0:
224,196,310257,1,0,0:0:0:0:
276,284,310452,2,0,L|352:292,1,70.8750002703667,8|0,0:0|0:0,0:0:0:0:
480,216,310842,2,0,L|408:212,1,70.8750002703667,2|8,0:0|0:0,0:0:0:0:
224,196,311231,6,0,B|226:147|197:130|197:130|226:107|217:59,1,141.750000540733,2|0,0:0|0:0,0:0:0:0:
140,84,311816,1,2,0:0:0:0:
140,84,311913,1,2,0:0:0:0:
140,84,312011,1,8,0:0:0:0:
156,152,312205,1,0,0:0:0:0:
124,216,312400,1,2,0:0:0:0:
60,248,312595,1,0,0:0:0:0:
16,120,312790,6,0,B|60:128|80:160|80:160|56:184|8:196,1,141.750000540733,0|2,0:0|0:0,0:0:0:0:
160,236,313374,1,0,0:0:0:0:
312,116,313569,2,0,B|268:124|248:156|248:156|272:180|320:192,1,141.750000540733,8|2,0:0|0:0,0:0:0:0:
128,48,314153,2,0,P|84:56|52:48,1,70.8750002703667,0|2,0:0|0:0,0:0:0:0:
228,48,314543,2,0,P|280:56|320:36,1,70.8750002703667
304,48,314835,1,0,0:0:0:0:
312,44,314933,5,0,0:0:0:0:
460,140,315127,1,8,0:0:0:0:
460,140,315322,2,0,P|468:180|460:220,1,70.8750002703667,0|2,0:0|0:0,0:0:0:0:
424,320,315712,1,2,0:0:0:0:
424,320,315809,1,2,0:0:0:0:
424,320,315907,6,0,B|376:316|376:316|316:336|316:336|284:332,1,141.750000540733
176,268,316491,1,0,0:0:0:0:
176,268,316686,2,0,B|208:268|228:252|228:252|232:220|224:192,1,106.31250040555,8|0,0:0|0:0,0:0:0:0:
220,184,317076,1,2,0:0:0:0:
68,216,317270,6,0,P|36:184|64:92,1,141.750000540733,8|0,0:0|0:0,0:0:0:0:
126,101,317855,2,0,L|46:97,1,70.8750002703667,2|0,0:0|0:0,0:0:0:0:
220,44,318244,2,0,L|128:48,1,70.8750002703667,8|0,0:0|0:0,0:0:0:0:
293,109,318634,2,0,L|209:101,1,70.8750002703667,2|0,0:0|0:0,0:0:0:0:
416,36,319024,6,0,P|359:75|452:64,1,248.062500946283,0|12,0:0|0:0,0:0:0:0:
408,84,319803,1,4,0:0:0:0:
400,212,320192,2,0,L|408:176,1,24.9374993340969,4|0,0:0|0:0,0:0:0:0:
448,272,320387,2,0,L|448:320,1,24.9374993340969
424,240,320582,1,0,0:0:0:0:
316,237,320777,6,8,B|320:260|320:260|305:268|288:260|288:260|292:233,1,78.7500030040742
301,162,321361,1,0,0:0:0:0:
343,325,321556,6,0,B|323:333|303:337|275:333|259:321,1,78.7500030040742,12|8,0:0|0:0,0:0:0:0:
202,269,322043,1,8,0:0:0:0:
202,269,322140,6,0,L|207:126,1,141.750000540733,12|2,0:0|0:0,0:0:0:0:
84,88,322725,1,0,0:0:0:0:
120,232,322920,1,8,0:0:0:0:
8,196,323114,1,0,0:0:0:0:
16,360,323309,1,0,0:0:0:0:
113,338,323504,1,2,0:0:0:0:
113,338,323699,6,0,P|166:322|245:358,1,141.750000540733,0|2,0:0|0:0,0:0:0:0:
316,307,324283,1,0,0:0:0:0:
316,307,324381,1,0,0:0:0:0:
316,307,324478,2,0,P|356:314|394:311,1,70.8750002703667,8|0,0:0|0:0,0:0:0:0:
508,215,324868,2,0,P|470:212|431:215,1,70.8750002703667,2|0,0:0|0:0,0:0:0:0:
345,213,325257,6,0,P|334:153|350:93,1,106.31250040555
352,92,325647,1,2,0:0:0:0:
345,213,325842,2,0,L|252:227,1,70.8750002703667,0|8,0:0|0:0,0:0:0:0:
144,269,326231,2,0,L|223:285,1,70.8750002703667,0|2,0:0|0:0,0:0:0:0:
44,344,326621,2,0,L|36:260,1,70.8750002703667,0|4,0:0|0:0,0:0:0:0:
184,72,327011,5,0,0:0:0:0:
408,188,327205,1,8,0:0:0:0:
196,304,327400,1,8,0:0:0:0:
332,64,327596,5,8,0:0:0:0:
336,312,327791,1,0,0:0:0:0:
120,184,327985,1,4,0:0:0:0:
302,266,328374,5,0,0:0:0:0:
224,104,328764,1,2,0:0:0:0:
239,247,329153,1,0,0:0:0:0:
286,151,329543,1,2,0:0:0:0:
161,234,329933,5,0,0:0:0:0:
336,194,330322,1,2,0:0:0:0:
224,152,330712,1,0,0:0:0:0:
270,248,331102,1,2,0:0:0:0:
256,192,331296,12,0,332855,0:0:0:0:
360,336,333050,6,0,B|376:300|376:300|372:212,1,120.750002303124,4|0,0:0|0:0,0:0:0:0:
372,218,333634,1,0,0:0:0:0:
300,160,333829,2,0,P|264:156|236:144,1,60.3750011515618,8|0,0:0|0:0,0:0:0:0:
424,112,334218,2,0,P|460:116|488:128,1,60.3750011515618,0|2,0:0|0:0,0:0:0:0:
296,80,334608,2,0,B|288:44|288:44|296:16,1,60.3750011515618,8|2,0:0|0:0,0:0:0:0:
300,160,334998,2,0,B|308:196|308:196|300:224,1,60.3750011515618
236,124,335387,2,0,B|204:132|204:132|176:124,1,60.3750011515618,8|2,0:0|0:0,0:0:0:0:
360,116,335777,2,0,B|408:108|408:108|472:124,1,90.5625017273426,2|0,0:0|0:0,0:0:0:0:
464,124,336166,5,0,0:0:0:0:
288,248,336556,1,0,0:0:0:0:
324,332,336751,1,0,0:0:0:0:
380,260,336946,1,8,0:0:0:0:
72,312,337335,5,2,0:0:0:0:
152,84,337725,1,2,0:0:0:0:
288,260,338114,1,2,0:0:0:0:
168,216,338504,1,8,0:0:0:0:
152,84,338894,1,0,0:0:0:0:
304,72,339283,6,0,B|364:88|364:88|420:72,1,120.750002303124,2|0,0:0|0:0,0:0:0:0:
360,168,339868,1,0,0:0:0:0:
352,272,340063,2,0,L|348:336,1,60.3750011515618,8|0,0:0|0:0,0:0:0:0:
252,200,340452,1,2,0:0:0:0:
252,200,340647,1,2,0:0:0:0:
252,200,340842,6,0,P|216:208|196:200,1,60.3750011515618,2|0,0:0|0:0,0:0:0:0:
72,148,341231,2,0,P|108:140|128:148,1,60.3750011515618,2|0,0:0|0:0,0:0:0:0:
176,220,341621,2,0,L|172:344,1,120.750002303124,8|0,0:0|0:0,0:0:0:0:
32,308,342205,1,2,0:0:0:0:
32,308,342400,6,0,L|48:224,1,60.3750011515618,2|8,0:0|0:0,0:0:0:0:
24,88,342790,2,0,L|12:44,2,40.2500007677078
72,148,343179,2,0,B|128:168|128:168|184:152,1,90.5625017273426,12|0,0:0|0:0,0:0:0:0:
180,152,343569,1,12,0:0:0:0:
344,88,343764,1,2,0:0:0:0:
312,264,343959,5,8,0:0:0:0:
216,80,344153,1,2,0:0:0:0:
204,288,344348,1,0,0:0:0:0:
284,176,344543,1,0,0:0:0:0:
108,108,344738,1,2,0:0:0:0:
108,312,344933,1,4,0:0:0:0:
168,200,345127,1,8,0:0:0:0:
44,160,345322,1,8,0:0:0:0:
44,160,345420,1,8,0:0:0:0:
44,160,345517,5,4,0:0:0:0:
312,52,345907,1,0,0:0:0:0:
224,136,346101,1,0,0:0:0:0:
476,184,346491,1,0,0:0:0:0:
128,336,346881,1,0,0:0:0:0:
112,208,347076,6,0,P|116:168|108:128,1,60.3750011515618
68,48,347465,1,2,0:0:0:0:
68,48,347855,2,0,B|132:72|132:72|196:52,1,120.750002303124,8|2,0:0|0:0,0:0:0:0:
272,40,348439,1,0,0:0:0:0:
336,144,348634,6,0,P|404:140|448:92,1,120.750002303124,2|0,0:0|0:0,0:0:0:0:
336,144,349218,2,0,L|348:216,1,60.3750011515618,0|8,0:0|0:0,0:0:0:0:
224,304,349608,2,0,L|236:236,1,60.3750011515618,0|2,0:0|0:0,0:0:0:0:
104,152,349998,2,0,L|116:224,1,60.3750011515618,0|2,0:0|0:0,0:0:0:0:
24,320,350387,1,8,0:0:0:0:
32,216,350582,1,2,0:0:0:0:
32,216,350972,5,8,0:0:0:0:
108,252,351166,1,2,0:0:0:0:
188,228,351361,1,0,0:0:0:0:
236,160,351556,1,2,0:0:0:0:
240,76,351751,2,0,L|212:12,1,60.3750011515618,2|2,0:0|0:0,0:0:0:0:
320,152,352140,6,0,P|312:192|296:220,1,60.3750011515618,0|2,0:0|0:0,0:0:0:0:
400,244,352530,2,0,P|384:284|368:304,1,60.3750011515618,8|0,0:0|0:0,0:0:0:0:
236,300,352920,2,0,P|224:260|224:220,1,60.3750011515618,2|0,0:0|0:0,0:0:0:0:
188,140,353309,5,2,0:0:0:0:
120,224,353504,2,0,P|104:264|100:292,1,60.3750011515618,0|2,0:0|0:0,0:0:0:0:
20,176,353894,2,0,P|40:128|40:100,1,60.3750011515618,0|8,0:0|0:0,0:0:0:0:
188,140,354283,2,0,P|172:96|176:60,1,60.3750011515618
320,52,354673,1,2,0:0:0:0:
320,52,354770,1,2,0:0:0:0:
320,52,354868,6,0,P|328:100|324:164,1,90.5625017273426,12|0,0:0|0:0,0:0:0:0:
327,141,355257,1,2,0:0:0:0:
245,253,355452,1,8,0:0:0:0:
188,140,355647,1,0,0:0:0:0:
404,248,356037,1,2,0:0:0:0:
320,52,356231,1,12,0:0:0:0:
389,140,356426,5,0,0:0:0:0:
473,57,356621,1,2,0:0:0:0:
404,248,356816,1,12,0:0:0:0:
298,156,357011,1,2,0:0:0:0:
400,52,357205,5,8,0:0:0:0:
404,248,357400,1,8,0:0:0:0:
184,112,357595,1,8,0:0:0:0:
222,320,357790,1,8,0:0:0:0:
