osu file format v14

[General]
AudioFilename: audio.mp3
AudioLeadIn: 0
PreviewTime: 265390
Countdown: 0
SampleSet: Soft
StackLeniency: 0.7
Mode: 2
LetterboxInBreaks: 0
WidescreenStoryboard: 0

[Editor]
Bookmarks: 58647,89556,115011,138647,169556,191374,205920,220465,235011,265920,295011
DistanceSpacing: 1.5
BeatDivisor: 4
GridSize: 4
TimelineZoom: 2.599999

[Metadata]
Title:Iscariot no Sakebi
TitleUnicode:イスカリオテの叫び
Artist:*namirin
ArtistUnicode:*なみりん
Creator:Hareimu
Version:Treason
Source:
Tags:gear ぎあ haguruma factory 歯車製作所 5colors hgrm-0003 funota ふのた zirox
BeatmapID:1451063
BeatmapSetID:685542

[Difficulty]
HPDrainRate:6
CircleSize:4
OverallDifficulty:9
ApproachRate:9
SliderMultiplier:1.8
SliderTickRate:2

[Events]
//Background and Video events
0,0,"bg.jpg",0,0
//Break Periods
//Storyboard Layer 0 (Background)
//Storyboard Layer 1 (Fail)
//Storyboard Layer 2 (Pass)
//Storyboard Layer 3 (Foreground)
//Storyboard Sound Samples

[TimingPoints]
2284,454.545454545455,4,2,1,75,1,0
2511,-100,4,2,1,50,0,0
5920,-100,4,2,1,60,0,0
9556,-100,4,2,1,70,0,0
20238,-100,4,2,1,5,0,0
20693,-100,4,2,1,35,0,0
24102,-100,4,2,1,50,0,0
24329,-100,4,2,1,35,0,0
31374,-100,4,2,1,60,0,0
58647,-100,4,3,1,70,0,0
64102,-83.3333333333333,4,3,1,70,0,0
65920,-100,4,3,1,70,0,0
75011,-83.3333333333333,4,2,1,80,0,1
89329,-100,4,2,1,80,0,0
89556,-83.3333333333333,4,2,1,80,0,1
104102,-83.3333333333333,4,2,1,80,0,0
109556,-83.3333333333333,4,3,1,70,0,0
110011,-83.3333333333333,4,3,1,45,0,0
110238,-83.3333333333333,4,3,1,70,0,0
110920,-83.3333333333333,4,3,1,45,0,0
111147,-83.3333333333333,4,3,1,70,0,0
111602,-100,4,2,1,65,0,0
115011,-117.647058823529,4,2,1,60,0,0
118647,-100,4,2,1,70,0,0
125920,-117.647058823529,4,2,1,60,0,0
138647,-100,4,3,1,70,0,0
155011,-83.3333333333333,4,2,1,80,0,1
169329,-100,4,2,1,80,0,0
169556,-83.3333333333333,4,2,1,80,0,1
184102,-83.3333333333333,4,2,1,80,0,0
189556,-83.3333333333333,4,3,1,70,0,0
190011,-83.3333333333333,4,3,1,45,0,0
190238,-83.3333333333333,4,3,1,70,0,0
190920,-83.3333333333333,4,3,1,45,0,0
191147,-83.3333333333333,4,3,1,70,0,0
191374,-100,4,2,1,70,0,0
204556,-100,4,3,1,70,0,0
205920,-117.647058823529,4,2,1,50,0,0
216829,-100,4,2,1,50,0,0
220465,-100,4,2,1,65,0,0
235011,-100,4,2,1,55,0,0
249556,-100,4,2,1,70,0,0
263874,-100,4,3,1,70,0,0
265465,-100,4,2,1,80,0,0
265920,-83.3333333333333,4,2,1,90,0,1
291374,-90.9090909090909,4,2,1,80,0,0
293647,-90.9090909090909,4,2,1,55,0,0
293874,-90.9090909090909,4,2,1,80,0,0
294556,-90.9090909090909,4,2,1,55,0,0
294784,-90.9090909090909,4,2,1,80,0,0
295011,-100,4,1,1,70,0,0
298647,-90.9090909090909,4,2,1,70,0,0
310465,451.127819548872,4,2,1,50,1,0
312269,461.538461538462,4,2,1,40,1,0
314115,447.761194029851,4,2,1,30,1,0
315906,451.127819548872,4,2,1,20,1,0
317710,441.176470588235,4,2,1,10,1,0
319474,521.739130434783,4,2,1,10,1,0
320517,-100,4,2,1,9,0,0
321560,-100,4,2,1,8,0,0
322604,-100,4,2,1,7,0,0
323647,-100,4,2,1,6,0,0
324691,-100,4,2,1,5,0,0

[Colours]
Combo1 : 170,85,255
Combo2 : 255,85,255
Combo3 : 255,149,85
Combo4 : 170,170,170

[HitObjects]
256,47,2284,6,0,L|76:48,2,180,14|0|2,0:0|0:0|0:0,0:0:0:0:
436,265,3647,1,0,0:0:0:0:
96,296,4102,2,0,P|32:235|23:147,1,180,6|0,0:1|0:0,0:0:0:0:
157,57,5011,1,2,0:0:0:0:
391,112,5465,1,2,3:2:0:0:
421,128,5541,1,0,0:0:0:0:
430,158,5617,1,0,0:0:0:0:
421,256,5693,1,0,3:2:0:0:
391,272,5768,1,0,0:0:0:0:
351,272,5844,1,0,0:0:0:0:
170,192,5920,6,0,L|341:137,1,180,6|0,0:0|0:0,0:0:0:0:
74,256,6829,2,0,P|41:177|105:128,1,180,2|0,0:0|0:0,0:0:0:0:
438,256,7738,2,0,P|471:177|407:128,1,180,6|0,0:1|0:0,0:0:0:0:
315,128,8420,1,0,0:0:0:0:
31,83,8647,2,0,L|120:82,1,90,6|0,0:0|0:0,0:0:0:0:
256,83,9102,2,0,L|166:82,1,90,2|0,0:0|0:0,0:0:0:0:
481,148,9556,6,0,L|358:148,2,120,6|2|2,3:2|3:2|3:2,0:2:0:0:
420,148,10314,1,0,0:0:0:0:
165,305,10465,2,0,L|91:305,1,60,2|0,3:2|0:0,0:0:0:0:
226,192,10768,2,0,L|286:192,1,60,2|0,3:2|0:0,0:0:0:0:
166,79,11071,2,0,L|226:79,1,60,2|0,3:2|0:0,0:0:0:0:
452,278,11374,6,0,L|310:278,1,120,6|2,3:1|3:2,0:0:0:0:
392,280,11829,1,0,0:0:0:0:
452,278,11980,1,2,3:2:0:0:
60,278,12284,1,2,3:1:0:0:
119,278,12435,1,0,0:0:0:0:
180,115,12587,2,0,L|46:116,1,120,2|2,3:2|3:2,0:0:0:0:
452,269,13193,6,0,L|310:269,1,120,14|2,3:2|3:2,0:0:0:0:
271,267,13647,1,0,0:0:0:0:
332,269,13799,1,2,3:2:0:0:
92,251,14102,2,0,L|79:181,1,60,2|0,3:2|0:0,0:0:0:0:
220,186,14405,2,0,L|233:116,1,60,2|0,3:2|0:0,0:0:0:0:
81,130,14708,2,0,L|22:130,1,60,2|0,3:2|0:0,0:0:0:0:
331,141,15011,6,0,L|451:141,2,120,6|2|2,3:2|3:2|3:2,0:2:0:0:
361,142,15693,1,0,0:0:0:0:
405,143,15806,1,0,0:0:0:0:
139,278,15920,2,0,L|126:208,1,60,6|0,3:2|0:0,0:0:0:0:
267,208,16223,2,0,L|280:138,1,60,2|0,3:2|0:0,0:0:0:0:
417,150,16526,2,0,L|495:150,1,60,2|0,3:2|0:0,0:0:0:0:
95,150,16829,1,6,3:2:0:0:
256,192,17056,12,0,20238,0:0:0:0:
256,103,20693,5,0,0:0:0:0:
337,150,20920,1,0,0:0:0:0:
364,236,21147,1,2,0:0:0:0:
337,150,21374,1,0,0:0:0:0:
256,103,21602,1,0,0:0:0:0:
175,150,21829,5,2,0:0:0:0:
148,236,22056,1,0,0:0:0:0:
175,150,22283,1,0,0:0:0:0:
256,103,22511,1,2,0:0:0:0:
373,278,22738,2,0,L|403:189,1,90
192,111,23193,2,0,P|145:231|259:293,1,270,2|0,0:0|0:1,0:0:0:0:
456,128,24102,6,0,L|364:128,1,90,6|0,0:1|0:0,0:0:0:0:
168,240,24556,2,0,L|76:240,1,90,2|0,0:0|0:0,0:0:0:0:
168,240,25011,1,0,0:0:0:0:
376,240,25238,2,0,L|353:152,1,90,2|0,0:0|0:0,0:0:0:0:
261,152,25693,1,0,0:0:0:0:
463,138,25920,5,2,0:0:0:0:
373,138,26147,1,0,0:0:0:0:
283,138,26374,1,0,0:0:0:0:
80,184,26602,1,2,0:0:0:0:
169,183,26829,2,0,L|79:183,1,90
286,181,27284,2,0,L|376:181,1,90,2|0,0:0|0:0,0:0:0:0:
286,181,27738,5,0,0:0:0:0:
84,111,27965,2,0,L|179:111,1,90,2|0,0:0|0:0,0:0:0:0:
264,107,28420,1,0,0:0:0:0:
57,114,28647,2,0,L|35:202,1,90,2|0,0:0|0:0,0:0:0:0:
125,200,29102,1,0,0:0:0:0:
327,158,29329,2,0,L|417:158,2,90,2|0|0,0:0|0:0|0:0,0:0:0:0:
125,108,30011,5,2,0:0:0:0:
214,106,30238,1,0,0:0:0:0:
125,108,30465,1,0,0:0:0:0:
332,276,30693,1,2,0:0:0:0:
242,275,30920,1,0,0:0:0:0:
152,274,31147,1,0,0:0:0:0:
436,258,31374,6,0,L|449:169,1,90,6|0,0:1|0:0,0:0:0:0:
241,168,31829,1,0,0:0:0:0:
447,171,32056,2,0,P|474:230|393:296,1,180,2|0,0:0|0:0,0:0:0:0:
190,285,32738,2,0,L|100:285,1,90,2|0,0:0|0:0,0:0:0:0:
416,285,33193,6,0,L|439:198,1,90,2|0,0:0|0:0,0:0:0:0:
232,193,33647,2,0,L|142:193,1,90,2|0,0:0|0:0,0:0:0:0:
349,88,34102,2,0,L|163:89,1,180,2|0,0:0|0:0,0:0:0:0:
374,194,34784,1,2,0:0:0:0:
463,194,35011,5,0,0:0:0:0:
256,194,35238,2,0,L|164:194,1,90,2|0,0:0|0:0,0:0:0:0:
372,202,35693,2,0,P|443:157|420:76,1,180,0|2,0:0|0:0,0:0:0:0:
214,56,36374,1,0,0:0:0:0:
372,67,36602,6,0,P|394:148|317:205,1,180,0|2,0:0|0:0,0:0:0:0:
193,204,37284,1,2,0:0:0:0:
328,204,37511,1,0,0:0:0:0:
101,205,37738,2,0,L|87:108,1,90,0|2,0:0|0:0,0:0:0:0:
223,109,38193,1,0,0:0:0:0:
42,109,38420,1,2,0:0:0:0:
356,257,38647,6,0,L|469:257,2,90,6|0|0,0:1|0:0|0:0,0:0:0:0:
219,124,39329,2,0,L|424:124,1,180,2|0,0:0|0:0,0:0:0:0:
241,165,40011,1,2,0:0:0:0:
398,260,40238,1,2,0:0:0:0:
107,253,40465,6,0,L|17:253,1,90,2|2,0:0|0:0,0:0:0:0:
224,132,40920,2,0,L|114:132,1,90,2|2,0:0|0:0,0:0:0:0:
362,135,41374,2,0,P|425:154|467:206,1,135,2|0,0:0|0:0,0:0:0:0:
475,250,41829,1,2,0:0:0:0:
443,281,41943,1,0,0:0:0:0:
365,260,42056,1,2,0:0:0:0:
443,281,42170,1,0,0:0:0:0:
181,291,42284,6,0,P|121:171|222:84,1,270,2|0,0:0|0:0,0:0:0:0:
430,86,43193,2,0,L|458:194,1,90,2|0,0:0|0:0,0:0:0:0:
273,199,43647,2,0,L|363:199,1,90,2|0,0:0|0:0,0:0:0:0:
155,87,44102,6,0,B|69:79|-17:81|-8:234|22:308|160:283|266:215,1,450,2|0,0:0|0:0,0:0:0:0:
51,134,45465,1,2,0:0:0:0:
142,133,45693,1,0,0:0:0:0:
430,135,45920,5,4,0:1:0:0:
250,137,46147,1,2,0:0:0:0:
430,135,46374,1,2,0:0:0:0:
304,136,46602,2,0,P|212:179|188:253,1,180
381,206,47284,2,0,L|409:314,1,90,2|0,0:0|0:0,0:0:0:0:
116,311,47738,6,0,L|27:311,2,90,2|0|2,0:0|0:0|0:0,0:0:0:0:
274,273,48420,1,0,0:0:0:0:
94,261,48647,2,0,P|36:200|66:108,1,180,2|0,0:0|0:0,0:0:0:0:
146,133,49329,1,2,0:0:0:0:
306,191,49556,6,0,L|208:192,2,90,0|2|0,0:0|0:0|0:0,0:0:0:0:
148,152,50238,2,0,P|123:233|198:320,1,180,2|2,0:0|0:0,0:0:0:0:
261,312,50920,1,0,0:0:0:0:
418,276,51147,2,0,L|464:102,1,180
256,96,51829,6,0,L|233:183,1,90,2|0,0:0|0:0,0:0:0:0:
52,193,52284,2,0,L|142:193,1,90,2|0,0:0|0:0,0:0:0:0:
277,193,52738,1,0,0:0:0:0:
52,193,52965,1,2,0:0:0:0:
340,192,53193,6,0,L|466:192,1,90,6|0,0:1|0:0,0:0:0:0:
222,192,53647,1,2,0:0:0:0:
429,105,53874,2,0,L|248:105,1,180,2|0,0:0|0:0,0:0:0:0:
68,103,54556,2,0,L|158:103,1,90,2|0,0:0|0:0,0:0:0:0:
447,281,55011,6,0,L|357:281,1,90,2|0,0:0|0:0,0:0:0:0:
150,284,55465,2,0,L|127:197,1,90,2|0,0:0|0:0,0:0:0:0:
334,192,55920,2,0,L|244:192,2,90,2|0|0,0:0|0:0|0:0,0:0:0:0:
153,192,56602,1,2,0:0:0:0:
145,147,56715,1,0,0:0:0:0:
379,295,56829,6,0,P|447:207|366:89,1,270,2|0,0:0|0:0,0:0:0:0:
167,97,57738,2,0,L|56:97,1,90,2|0,0:0|0:0,0:0:0:0:
122,97,58079,1,0,0:0:0:0:
240,287,58193,1,2,0:0:0:0:
195,287,58306,1,0,0:0:0:0:
77,287,58420,1,2,0:0:0:0:
122,287,58534,1,0,0:0:0:0:
300,96,58647,6,0,L|440:96,1,120,2|0,0:2|0:0,0:0:0:0:
180,96,59253,2,0,L|120:96,1,60
356,96,59556,2,0,L|496:96,1,120,2|2,0:2|0:2,0:0:0:0:
236,96,60162,2,0,L|152:96,1,60,2|0,0:2|0:0,0:0:0:0:
456,96,60465,6,0,L|264:96,1,180,4|0,0:2|0:0,0:0:0:0:
246,96,60996,1,0,0:0:0:0:
217,106,61071,1,0,0:0:0:0:
194,124,61147,1,0,0:0:0:0:
177,149,61223,1,0,0:0:0:0:
408,156,61374,2,0,L|264:156,2,120,2|0|0,0:2|0:0|0:0,0:0:0:0:
344,156,62132,1,0,0:0:0:0:
96,96,62284,6,0,L|288:96,1,180,2|0,0:2|0:0,0:0:0:0:
306,96,62814,1,0,0:0:0:0:
335,106,62890,1,0,0:0:0:0:
358,124,62965,1,0,0:0:0:0:
375,149,63041,1,0,0:0:0:0:
104,156,63193,2,0,L|248:156,2,120,2|0|0,0:2|0:0|0:0,0:0:0:0:
188,156,63950,1,0,0:0:0:0:
420,160,64102,6,0,L|268:160,2,143.999995605469,2|2|0,0:2|0:2|0:0,0:0:0:0:
156,160,65011,2,0,L|304:160,2,143.999995605469,2|2|0,0:2|0:2|0:0,0:0:0:0:
64,160,65768,1,0,0:0:0:0:
336,160,65920,6,0,P|400:212|360:304,1,180,2|0,0:2|0:0,0:0:0:0:
352,320,66450,1,0,0:0:0:0:
332,342,66526,1,0,0:0:0:0:
306,356,66602,1,0,0:0:0:0:
276,359,66677,1,0,0:0:0:0:
247,351,66753,1,0,0:0:0:0:
218,340,66829,1,2,0:2:0:0:
456,340,67132,1,0,0:0:0:0:
340,348,67284,5,0,0:0:0:0:
304,348,67359,1,0,0:0:0:0:
268,340,67435,1,0,0:0:0:0:
236,324,67511,1,0,0:0:0:0:
212,304,67587,1,0,0:0:0:0:
196,280,67662,1,0,0:0:0:0:
384,268,67738,6,0,P|460:192|432:116,1,180,6|0,0:2|0:0,0:0:0:0:
420,92,68268,1,0,0:0:0:0:
403,67,68344,1,0,0:0:0:0:
380,49,68420,1,0,0:0:0:0:
351,39,68496,1,0,0:0:0:0:
192,160,68647,2,0,L|336:160,2,120,2|0|0,0:2|0:0|0:0,0:0:0:0:
112,160,69405,1,0,0:0:0:0:
356,160,69556,6,0,L|476:160,2,120,2|0|0,0:2|0:0|0:0,0:0:0:0:
96,160,70465,2,0,L|232:160,1,120,2|0,0:2|0:0,0:0:0:0:
436,160,71071,2,0,L|460:240,1,60
140,160,71374,6,0,P|76:200|120:296,1,180,2|0,0:2|0:0,0:0:0:0:
128,300,71905,1,0,0:0:0:0:
157,307,71980,1,0,0:0:0:0:
187,307,72056,1,0,0:0:0:0:
216,300,72132,1,0,0:0:0:0:
243,286,72208,1,0,0:0:0:0:
265,266,72284,1,2,0:2:0:0:
464,252,72587,1,0,0:0:0:0:
296,256,72890,2,0,L|356:256,1,60
132,256,73193,6,0,L|56:216,2,60,2|0|0,0:2|0:0|0:0,0:0:0:0:
280,256,73647,2,0,L|356:216,2,60,2|0|0,0:2|0:0|0:0,0:0:0:0:
64,256,74102,2,0,L|64:144,1,90,4|0,0:2|2:0,0:0:0:0:
392,264,74556,2,0,P|436:192|423:137,1,135,4|0,0:2|2:0,0:0:0:0:
196,148,75011,6,0,L|80:148,1,107.999996704102,14|0,0:0|0:0,0:0:0:0:
288,148,75465,2,0,L|348:148,2,53.9999983520508,0|0|0,1:0|0:0|0:0,0:0:0:0:
88,156,75806,2,0,P|40:216|96:264,1,161.999995056153,2|2,0:0|0:0,0:0:0:0:
264,268,76374,1,0,1:0:0:0:
92,264,76602,1,0,0:0:0:0:
436,268,76829,6,0,L|328:268,1,107.999996704102,2|0,0:0|0:0,0:0:0:0:
160,268,77284,2,0,L|104:268,2,53.9999983520508,0|0|0,1:0|0:0|0:0,0:0:0:0:
369,268,77624,2,0,P|420:212|369:159,1,161.999995056153,2|2,0:0|0:0,0:0:0:0:
200,156,78193,1,0,1:0:0:0:
372,160,78420,1,0,0:0:0:0:
52,156,78647,6,0,L|176:156,1,107.999996704102,4|0,0:0|0:0,0:0:0:0:
224,156,78988,2,0,L|288:156,1,53.9999983520508,2|0,0:0|1:0,0:0:0:0:
448,156,79329,1,0,0:0:0:0:
72,156,79556,6,0,L|196:156,1,107.999996704102,2|0,0:0|0:0,0:0:0:0:
224,156,79897,2,0,L|288:156,1,53.9999983520508,2|0,0:0|1:0,0:0:0:0:
448,156,80238,1,0,0:0:0:0:
112,232,80465,6,0,P|52:280|72:340,1,107.999996704102,6|0,0:0|0:0,0:0:0:0:
112,344,80806,1,2,0:0:0:0:
248,344,80920,2,0,P|320:320|328:280,1,107.999996704102,0|0,1:0|0:0,0:0:0:0:
292,232,81261,1,0,1:0:0:0:
112,232,81374,2,0,L|84:104,1,107.999996704102,4|0,0:0|0:0,0:0:0:0:
400,152,81829,2,0,L|423:257,1,107.999996704102,0|0,1:0|0:0,0:0:0:0:
136,128,82284,6,0,L|268:128,1,107.999996704102,6|2,0:0|0:0,0:0:0:0:
88,128,82738,2,0,L|8:128,2,53.9999983520508,2|0|0,1:0|0:0|0:0,0:0:0:0:
316,128,83079,2,0,P|368:172|312:224,1,161.999995056153,2|2,0:0|0:0,0:0:0:0:
148,224,83647,1,0,1:0:0:0:
340,224,83874,1,2,0:0:0:0:
48,224,84102,6,0,L|192:220,2,107.999996704102,2|0|0,0:0|0:0|1:0,0:0:0:0:
352,224,84784,2,0,L|472:164,2,107.999996704102,2|0|2,0:0|0:0|0:0,0:0:0:0:
220,224,85465,1,0,1:2:0:0:
352,224,85693,2,0,L|404:213,1,53.9999983520508,2|2,0:0|0:0,0:0:0:0:
220,224,85920,6,0,L|88:224,2,107.999996704102,6|0|0,0:0|0:0|1:0,0:0:0:0:
72,224,86602,2,2,L|20:241,1,53.9999983520508
220,260,86829,2,0,L|356:260,2,107.999996704102,2|0|0,0:0|0:0|1:0,0:0:0:0:
372,264,87511,2,2,L|423:281,1,53.9999983520508
224,300,87738,6,0,L|88:300,1,107.999996704102,4|0,0:0|0:0,0:0:0:0:
420,360,88193,2,0,L|420:252,1,107.999996704102,4|0,1:2|0:0,0:0:0:0:
124,264,88647,1,2,0:0:0:0:
80,228,88761,1,0,0:0:0:0:
80,176,88874,1,0,0:0:0:0:
130,148,88988,1,0,0:0:0:0:
352,136,89102,1,2,1:2:0:0:
396,100,89215,1,0,0:0:0:0:
396,48,89329,1,0,0:0:0:0:
345,20,89443,1,0,0:0:0:0:
139,126,89556,6,0,L|26:127,1,107.999996704102,12|0,0:0|0:0,0:0:0:0:
334,101,90011,2,0,L|208:101,1,107.999996704102,0|0,1:0|0:0,0:0:0:0:
429,103,90352,2,0,P|469:175|421:231,1,161.999995056153,2|2,0:0|0:0,0:0:0:0:
132,119,90920,2,0,L|24:118,1,107.999996704102,0|0,1:0|0:0,0:0:0:0:
78,117,91261,1,0,0:0:0:0:
328,171,91374,6,0,L|439:172,1,107.999996704102,2|0,0:0|0:0,0:0:0:0:
146,95,91829,2,0,L|25:95,1,107.999996704102,0|0,1:0|0:0,0:0:0:0:
103,289,92170,1,2,0:0:0:0:
379,104,92511,2,0,L|522:104,2,107.999996704102,2|0|2,0:0|1:0|0:0,0:0:0:0:
78,153,93193,6,0,L|214:153,1,107.999996704102,4|0,0:0|0:0,0:0:0:0:
250,233,93534,2,0,L|86:232,1,161.999995056153,2|0,0:0|0:0,0:0:0:0:
424,93,94102,2,0,L|317:93,1,107.999996704102,2|0,0:0|3:0,0:0:0:0:
250,292,94443,2,0,L|411:291,1,161.999995056153,2|0,0:0|0:0,0:0:0:0:
75,294,95011,6,0,L|209:295,1,107.999996704102,2|0,0:0|0:0,0:0:0:0:
202,244,95352,1,0,0:0:0:0:
182,90,95465,2,0,L|47:90,1,107.999996704102,0|0,1:0|0:0,0:0:0:0:
128,90,95806,1,0,1:0:0:0:
339,167,95920,2,0,L|452:167,1,107.999996704102,4|0,0:0|0:0,0:0:0:0:
140,299,96374,2,0,L|28:298,1,107.999996704102,4|0,1:2|0:0,0:0:0:0:
410,159,96829,6,0,L|468:53,1,107.999996704102,4|0,0:0|0:0,0:0:0:0:
158,71,97284,2,0,L|312:71,1,107.999996704102,0|0,1:0|0:0,0:0:0:0:
79,101,97624,2,0,P|30:171|75:217,1,161.999995056153,2|2,0:0|0:0,0:0:0:0:
362,313,98193,2,0,L|470:313,1,107.999996704102,2|0,1:2|0:0,0:0:0:0:
415,313,98534,1,0,0:0:0:0:
119,70,98647,6,0,L|243:69,1,107.999996704102,2|2,0:0|0:0,0:0:0:0:
443,63,99102,1,2,1:2:0:0:
226,315,99329,2,0,L|214:204,1,107.999996704102,2|0,0:0|0:0,0:0:0:0:
441,315,99784,1,2,0:0:0:0:
144,174,100011,2,0,L|36:173,1,107.999996704102,0|2,1:0|0:0,0:0:0:0:
101,173,100352,1,2,0:0:0:0:
304,178,100465,6,0,L|425:179,2,107.999996704102,6|0|0,0:0|0:0|1:0,0:0:0:0:
434,269,101147,2,0,L|500:269,1,53.9999983520508,2|2,0:0|0:0,0:0:0:0:
199,193,101374,2,0,L|85:192,1,107.999996704102,2|0,0:0|3:0,0:0:0:0:
389,73,101829,2,0,L|275:72,1,107.999996704102,0|2,1:0|0:0,0:0:0:0:
226,72,102170,1,2,0:0:0:0:
442,80,102284,6,0,L|464:203,1,107.999996704102,4|0,0:0|0:0,0:0:0:0:
266,185,102738,1,0,1:0:0:0:
460,188,102965,2,0,L|392:188,1,53.9999983520508
132,185,103193,1,4,0:0:0:0:
87,154,103306,1,0,0:0:0:0:
95,100,103420,1,0,3:0:0:0:
157,83,103534,1,0,3:0:0:0:
345,91,103647,2,0,L|470:91,1,107.999996704102,2|0,0:3|1:0,0:0:0:0:
398,91,103988,1,0,1:0:0:0:
172,89,104102,6,0,L|46:90,2,107.999996704102,14|0|2,0:2|0:0|0:0,0:0:0:0:
469,94,104784,2,0,L|344:95,2,107.999996704102,4|0|2,0:0|0:0|0:0,0:0:0:0:
148,163,105465,5,4,0:0:0:0:
256,165,105693,1,0,0:0:0:0:
363,168,105920,1,2,0:0:0:0:
61,85,106147,2,0,L|173:85,1,107.999996704102,4|0,0:0|0:0,0:0:0:0:
386,129,106602,1,2,0:0:0:0:
426,163,106715,1,0,0:0:0:0:
418,216,106829,1,0,3:0:0:0:
355,234,106943,1,0,0:0:0:0:
132,292,107056,2,0,L|6:293,2,107.999996704102,4|0|0,0:2|0:0|0:0,0:0:0:0:
430,352,107738,6,0,P|472:243|266:45,1,431.999986816407,4|2,0:0|0:0,0:0:0:0:
168,44,108874,1,2,3:2:0:0:
412,160,109102,2,0,L|430:223,1,53.9999983520508,2|0,1:2|0:0,0:0:0:0:
332,265,109329,2,0,L|318:214,1,53.9999983520508,2|0,3:2|0:0,0:0:0:0:
143,272,109556,6,0,L|30:273,1,107.999996704102,4|0,0:2|3:0,0:0:0:0:
251,273,110011,1,8,0:1:0:0:
143,111,110238,2,0,L|268:111,2,107.999996704102,0|0|2,0:2|3:0|0:0,0:0:0:0:
360,117,110920,2,0,L|468:116,1,107.999996704102,8|2,0:1|3:2,0:0:0:0:
98,268,111374,1,14,0:2:0:0:
256,192,111602,12,0,114556,0:0:0:0:
352,192,115011,6,0,L|352:32,1,153.000002918243,14|2,0:0|0:0,0:0:0:0:
136,192,115920,2,0,L|136:32,1,153.000002918243,4|2,0:1|0:0,0:0:0:0:
364,192,116829,6,0,L|188:192,1,153.000002918243,6|2,0:0|0:0,0:0:0:0:
424,192,117738,2,0,L|424:32,1,153.000002918243,6|2,0:0|0:0,0:0:0:0:
84,60,118647,6,2,L|216:60,2,120,6|2|2,0:0|0:0|0:0,0:0:0:0:
244,48,119556,2,0,L|294:81,1,60,2|0,0:0|0:0,0:0:0:0:
172,188,119859,2,0,L|172:116,1,60,2|0,0:0|0:0,0:0:0:0:
300,80,120162,2,0,L|316:16,1,60,2|0,0:0|0:0,0:0:0:0:
140,60,120465,6,2,L|28:124,2,120,6|2|2,0:1|0:0|0:0,0:0:0:0:
360,56,121374,2,2,L|480:56,2,120
84,60,122284,6,2,L|216:60,2,120,6|2|2,0:0|0:0|0:0,0:0:0:0:
244,48,123193,2,0,L|294:81,1,60,2|0,0:0|0:0,0:0:0:0:
172,188,123496,2,0,L|172:116,1,60,2|0,0:0|0:0,0:0:0:0:
332,136,123799,2,0,L|404:136,1,60,2|0,0:0|0:0,0:0:0:0:
180,188,124102,6,2,L|28:188,2,120,6|2|2,0:0|0:0|0:0,0:0:0:0:
420,188,125011,2,2,L|300:188,2,120,6|2|2,0:0|0:0|0:0,0:0:0:0:
168,168,125920,5,6,0:1:0:0:
91,168,126147,2,0,L|168:168,1,76.5000014591217,6|0,0:1|0:0,0:0:0:0:
356,172,126602,2,0,P|392:228|318:293,1,153.000002918243,2|0,0:0|0:0,0:0:0:0:
228,292,127284,2,0,L|144:292,1,76.5000014591217,2|0,0:0|0:0,0:0:0:0:
348,292,127738,6,0,L|444:292,1,76.5000014591217,2|0,0:0|0:0,0:0:0:0:
248,292,128193,2,0,L|164:292,1,76.5000014591217,2|0,0:0|0:0,0:0:0:0:
384,296,128647,1,2,0:0:0:0:
446,234,128874,1,0,0:0:0:0:
446,146,129102,1,0,0:0:0:0:
384,84,129329,1,2,0:0:0:0:
296,85,129556,5,0,0:0:0:0:
392,88,129784,2,0,L|500:88,1,76.5000014591217,2|0,0:0|0:0,0:0:0:0:
268,120,130238,2,0,P|228:160|292:224,1,153.000002918243,0|2,0:0|0:0,0:0:0:0:
380,228,130920,1,0,0:0:0:0:
180,232,131147,6,0,P|140:272|204:336,1,153.000002918243,0|2,0:0|0:0,0:0:0:0:
292,364,131829,1,2,0:0:0:0:
185,360,132056,1,0,0:0:0:0:
304,364,132284,1,0,0:0:0:0:
412,364,132511,1,2,0:0:0:0:
276,284,132738,1,0,0:0:0:0:
420,284,132965,1,2,0:0:0:0:
124,276,133193,5,6,0:1:0:0:
47,276,133420,2,0,L|124:276,1,76.5000014591217,6|0,0:1|0:0,0:0:0:0:
324,248,133874,2,0,P|348:216|274:151,1,153.000002918243,2|0,0:0|0:0,0:0:0:0:
184,152,134556,2,0,L|104:152,1,76.5000014591217,2|0,0:0|0:0,0:0:0:0:
308,292,135011,6,0,L|408:292,1,76.5000014591217,2|0,0:0|0:0,0:0:0:0:
208,292,135465,2,0,L|120:292,1,76.5000014591217,2|0,0:0|0:0,0:0:0:0:
320,296,135920,1,2,0:0:0:0:
320,208,136147,1,0,0:0:0:0:
258,146,136374,1,0,0:0:0:0:
164,144,136602,2,0,L|116:144,1,38.2500007295609,2|0,0:0|0:0,0:0:0:0:
344,104,136829,6,0,P|408:200|332:280,1,229.500004377365,2|0,0:0|0:0,0:0:0:0:
148,296,137738,2,0,L|240:296,1,76.5000014591217,2|0,0:0|0:0,0:0:0:0:
424,296,138193,2,0,L|364:216,1,76.5000014591217,2|0,0:0|0:0,0:0:0:0:
90,223,138647,6,0,L|227:222,2,120,2|0|0,0:2|0:0|0:0,0:0:0:0:
150,223,139405,1,0,0:0:0:0:
359,222,139556,2,0,L|496:221,2,120,2|2|2,0:2|0:2|0:2,0:0:0:0:
298,222,140314,1,0,0:0:0:0:
64,219,140465,6,0,L|252:218,1,180,6|0,0:2|0:0,0:0:0:0:
274,217,140996,1,0,0:0:0:0:
303,217,141071,1,0,0:0:0:0:
333,217,141147,1,0,0:0:0:0:
363,217,141223,1,0,0:0:0:0:
153,222,141374,2,0,L|29:222,2,120,2|0|0,0:2|0:0|0:0,0:0:0:0:
213,221,142132,1,0,0:0:0:0:
453,220,142284,6,0,L|270:220,1,180,2|0,0:2|0:0,0:0:0:0:
303,220,142814,1,0,0:0:0:0:
333,220,142890,1,0,0:0:0:0:
362,221,142965,1,0,0:0:0:0:
392,222,143041,1,0,0:0:0:0:
150,118,143193,2,0,L|292:117,2,120,2|0|0,0:2|0:0|0:0,0:0:0:0:
90,117,143950,1,0,0:0:0:0:
361,222,144102,6,0,L|495:220,2,120,2|0|0,0:2|0:0|0:0,0:0:0:0:
151,222,145011,2,0,L|17:220,2,120,2|0|0,0:2|0:0|0:0,0:0:0:0:
210,222,145768,1,0,0:0:0:0:
450,223,145920,6,0,L|263:224,1,180,2|0,0:2|0:0,0:0:0:0:
239,223,146450,1,0,0:0:0:0:
208,222,146526,1,0,0:0:0:0:
177,221,146602,1,0,0:0:0:0:
147,220,146677,1,0,0:0:0:0:
361,222,146829,2,0,P|444:149|444:142,1,120,2|0,0:2|0:0,0:0:0:0:
429,93,147284,1,0,0:0:0:0:
415,66,147359,1,0,0:0:0:0:
389,50,147435,1,0,0:0:0:0:
359,45,147511,1,0,0:0:0:0:
319,45,147587,1,0,0:0:0:0:
64,219,147738,6,0,L|252:218,1,180,6|0,0:2|0:0,0:0:0:0:
213,219,148268,1,0,0:0:0:0:
184,219,148344,1,0,0:0:0:0:
154,219,148420,1,0,0:0:0:0:
124,219,148496,1,0,0:0:0:0:
333,219,148647,2,0,L|191:218,2,120,2|0|0,0:2|0:0|0:0,0:0:0:0:
393,218,149405,1,0,0:0:0:0:
151,222,149556,6,0,L|31:224,2,120,2|0|0,0:2|0:0|0:0,0:0:0:0:
390,227,150465,1,2,0:2:0:0:
229,146,150768,1,0,0:0:0:0:
68,152,151071,2,0,L|135:152,1,60
361,222,151374,6,0,P|450:173|472:94,1,180,2|0,0:2|0:0,0:0:0:0:
468,132,151905,1,0,0:0:0:0:
451,156,151980,1,0,0:0:0:0:
421,163,152056,1,0,0:0:0:0:
384,163,152132,1,0,0:0:0:0:
143,163,152284,2,0,L|281:163,2,120,2|0|0,0:2|0:0|0:0,0:0:0:0:
83,160,153041,1,0,0:0:0:0:
369,163,153193,6,0,L|455:162,2,60,2|0|0,0:2|0:0|0:0,0:0:0:0:
143,163,153647,1,2,0:2:0:0:
83,162,153799,2,0,L|143:163,1,60
353,165,154102,2,0,L|456:166,1,90,4|0,0:2|0:2,0:0:0:0:
155,75,154556,2,0,L|13:75,1,135,4|0,0:2|0:0,0:0:0:0:
293,156,155011,6,0,L|406:156,1,107.999996704102,14|0,0:0|0:0,0:0:0:0:
98,158,155465,2,0,L|214:158,1,107.999996704102,0|0,1:0|0:0,0:0:0:0:
140,158,155806,2,0,P|89:220|139:267,1,161.999995056153,2|2,0:0|0:0,0:0:0:0:
468,286,156374,2,0,L|357:286,1,107.999996704102,0|0,1:0|0:0,0:0:0:0:
305,286,156715,1,0,0:0:0:0:
131,286,156829,6,0,L|23:286,1,107.999996704102,2|0,0:0|0:0,0:0:0:0:
414,158,157284,2,0,L|298:158,1,107.999996704102,0|0,1:0|0:0,0:0:0:0:
371,158,157625,2,0,P|422:220|372:267,1,161.999995056153,2|2,0:0|0:0,0:0:0:0:
20,249,158193,2,0,L|128:249,1,107.999996704102,2|0,1:2|0:0,0:0:0:0:
182,249,158534,1,0,0:0:0:0:
470,164,158647,6,0,L|362:164,1,107.999996704102,4|0,0:2|0:0,0:0:0:0:
427,163,158988,2,0,P|462:227|400:279,1,161.999995056153,2|2,0:0|0:0,0:0:0:0:
42,164,159556,2,0,L|150:164,1,107.999996704102,2|0,0:2|0:0,0:0:0:0:
84,164,159897,2,0,P|49:228|111:280,1,161.999995056153,2|2,0:0|0:0,0:0:0:0:
413,199,160465,6,0,P|435:148|413:100,1,107.999996704102,4|0,0:0|0:0,0:0:0:0:
361,103,160806,1,0,0:0:0:0:
153,129,160920,2,0,L|33:128,1,107.999996704102,0|0,1:0|0:0,0:0:0:0:
99,128,161261,1,0,0:0:0:0:
361,103,161374,6,0,L|470:104,1,107.999996704102,4|0,0:0|0:0,0:0:0:0:
97,104,161829,1,6,1:2:0:0:
66,120,161905,1,0,0:0:0:0:
57,154,161980,1,0,0:0:0:0:
67,188,162056,1,0,0:0:0:0:
98,207,162132,1,0,0:0:0:0:
142,207,162208,1,0,0:0:0:0:
323,207,162284,6,0,L|437:206,1,107.999996704102,4|2,0:0|0:0,0:0:0:0:
139,115,162738,2,0,L|117:236,1,107.999996704102,0|0,1:0|0:0,0:0:0:0:
344,196,163079,2,0,P|398:259|349:309,1,161.999995056153,2|2,0:0|0:0,0:0:0:0:
65,311,163647,2,0,L|180:311,1,107.999996704102,0|2,1:0|0:0,0:0:0:0:
227,311,163988,1,2,0:0:0:0:
443,70,164102,6,0,L|331:71,2,107.999996704102,2|0|2,0:0|0:0|1:0,0:0:0:0:
139,73,164784,1,0,0:0:0:0:
87,97,164897,1,0,0:0:0:0:
72,149,165011,1,2,0:0:0:0:
87,97,165124,1,2,0:0:0:0:
139,73,165238,1,0,0:0:0:0:
442,304,165465,2,0,L|321:304,1,107.999996704102,0|0,1:0|0:0,0:0:0:0:
388,80,165806,1,0,0:0:0:0:
171,79,165920,6,0,L|51:78,1,107.999996704102,4|0,0:0|0:0,0:0:0:0:
278,79,166374,2,0,L|163:78,1,107.999996704102,0|2,1:0|0:0,0:0:0:0:
115,78,166715,1,0,0:0:0:0:
343,305,166829,2,0,L|458:306,1,107.999996704102,2|0,0:0|0:0,0:0:0:0:
234,305,167284,2,0,L|349:306,1,107.999996704102,0|2,1:0|0:0,0:0:0:0:
287,306,167624,1,0,0:0:0:0:
72,313,167738,6,0,P|37:256|64:199,1,107.999996704102,4|0,0:0|0:0,0:0:0:0:
381,207,168193,2,0,L|479:129,1,107.999996704102,4|0,1:2|0:0,0:0:0:0:
249,136,168647,2,0,L|365:136,1,107.999996704102,2|0,0:0|0:0,0:0:0:0:
302,137,168988,1,0,0:0:0:0:
85,191,169102,1,2,1:2:0:0:
40,160,169215,1,0,0:0:0:0:
48,106,169329,1,0,0:0:0:0:
110,89,169443,1,0,3:0:0:0:
356,88,169556,6,0,L|464:88,1,107.999996704102,14|0,0:0|0:0,0:0:0:0:
276,156,170011,1,0,1:0:0:0:
330,156,170124,1,0,0:0:0:0:
384,156,170238,1,0,0:0:0:0:
172,156,170352,2,0,P|124:216|180:264,1,161.999995056153,2|2,0:0|0:0,0:0:0:0:
300,264,170920,1,0,1:0:0:0:
100,264,171147,1,0,0:0:0:0:
408,264,171374,6,0,L|300:264,1,107.999996704102,2|0,0:0|0:0,0:0:0:0:
112,264,171829,2,0,L|56:264,2,53.9999983520508,0|0|0,1:0|0:0|0:0,0:0:0:0:
368,264,172170,2,0,P|419:208|368:155,1,161.999995056153,2|2,0:0|0:0,0:0:0:0:
232,156,172738,1,0,1:0:0:0:
428,156,172965,1,0,0:0:0:0:
52,156,173193,6,0,L|176:156,1,107.999996704102,4|0,0:0|0:0,0:0:0:0:
224,156,173534,2,0,L|288:156,1,53.9999983520508,2|0,0:0|1:0,0:0:0:0:
84,156,173874,1,0,0:0:0:0:
440,156,174102,6,0,L|316:156,1,107.999996704102,2|0,0:0|0:0,0:0:0:0:
288,156,174443,2,0,L|224:156,1,53.9999983520508,2|0,0:0|1:0,0:0:0:0:
428,156,174784,1,0,0:0:0:0:
112,232,175011,6,0,P|52:280|72:340,1,107.999996704102,2|0,0:0|0:0,0:0:0:0:
112,344,175352,1,2,0:0:0:0:
300,344,175465,2,0,P|360:296|340:236,1,107.999996704102,0|0,1:0|0:0,0:0:0:0:
64,260,175920,2,0,L|192:260,1,107.999996704102,4|0,0:0|0:0,0:0:0:0:
360,264,176374,2,0,L|480:264,1,107.999996704102,0|0,1:0|0:0,0:0:0:0:
56,260,176829,6,0,L|188:260,1,107.999996704102,6|2,0:0|0:0,0:0:0:0:
352,260,177284,1,0,1:0:0:0:
298,260,177397,1,0,0:0:0:0:
244,260,177511,1,0,0:0:0:0:
448,260,177624,2,0,P|496:320|440:368,1,161.999995056153,2|2,0:0|0:0,0:0:0:0:
328,256,178193,1,0,1:0:0:0:
136,256,178420,1,2,0:0:0:0:
464,224,178647,6,0,L|320:220,2,107.999996704102,2|0|0,0:0|0:0|1:0,0:0:0:0:
160,224,179329,2,0,L|40:164,2,107.999996704102,2|0|2,0:0|0:0|0:0,0:0:0:0:
292,224,180011,1,0,1:2:0:0:
160,224,180238,2,0,L|108:213,1,53.9999983520508,2|2,0:0|0:0,0:0:0:0:
292,224,180465,6,0,L|424:224,2,107.999996704102,6|0|0,0:0|0:0|1:0,0:0:0:0:
440,224,181147,2,2,L|492:241,1,53.9999983520508
292,260,181374,2,0,L|156:260,2,107.999996704102,2|0|0,0:0|0:0|1:0,0:0:0:0:
140,264,182056,2,2,L|89:281,1,53.9999983520508
288,300,182284,6,0,L|424:300,1,107.999996704102,4|0,0:0|0:0,0:0:0:0:
92,360,182738,2,0,L|92:252,1,107.999996704102,2|0,1:2|0:0,0:0:0:0:
388,264,183193,1,6,0:0:0:0:
432,228,183306,1,0,0:0:0:0:
432,176,183420,1,0,0:0:0:0:
382,148,183534,1,0,0:0:0:0:
160,136,183647,1,2,1:3:0:0:
116,100,183761,1,0,0:0:0:0:
116,48,183874,1,0,0:0:0:0:
167,20,183988,1,0,0:0:0:0:
340,89,184102,6,0,L|466:90,2,107.999996704102,14|0|2,0:2|0:0|0:0,0:0:0:0:
140,92,184784,2,0,L|266:93,2,107.999996704102,4|0|2,0:2|0:0|0:0,0:0:0:0:
472,92,185465,6,0,L|346:93,2,107.999996704102,4|0|2,0:2|0:0|0:0,0:0:0:0:
72,125,186147,2,0,L|36:227,1,107.999996704102,4|0,0:0|0:0,0:0:0:0:
364,236,186602,2,0,L|404:123,1,107.999996704102,2|0,0:0|3:0,0:0:0:0:
72,128,187056,2,0,L|198:129,2,107.999996704102,4|0|0,0:2|0:0|0:0,0:0:0:0:
432,352,187738,6,0,P|256:244|80:352,1,431.999986816407,4|2,0:0|0:0,0:0:0:0:
296,44,188874,1,2,3:2:0:0:
124,160,189102,1,2,1:2:0:0:
360,200,189329,1,2,3:2:0:0:
40,268,189556,6,0,L|153:269,2,107.999996704102,4|0|8,0:2|3:0|0:1,0:0:0:0:
176,268,190238,1,0,0:2:0:0:
380,272,190465,2,0,L|412:144,1,107.999996704102,2|2,3:2|0:0,0:0:0:0:
100,116,190920,2,0,L|69:227,1,107.999996704102,8|2,0:1|3:2,0:0:0:0:
442,220,191374,1,14,1:2:0:0:
256,192,191602,12,0,194556,1:0:0:0:
411,208,195011,6,0,L|303:208,2,90,6|0|0,0:0|0:0|1:0,0:0:0:0:
194,207,195693,1,0,0:0:0:0:
238,208,195806,1,0,0:0:0:0:
283,208,195920,1,2,0:0:0:0:
328,207,196034,1,0,0:0:0:0:
372,209,196147,1,0,0:0:0:0:
84,209,196374,2,0,P|52:147|112:105,1,135,0|0,1:0|0:0,0:0:0:0:
182,107,196829,6,0,L|76:108,1,90,2|0,0:0|0:0,0:0:0:0:
380,106,197284,2,0,L|489:106,1,90,0|2,1:0|0:2,0:0:0:0:
402,106,197624,1,0,1:0:0:0:
221,110,197738,2,0,L|330:110,1,90,6|0,0:0|0:2,0:0:0:0:
341,111,198041,1,0,0:0:0:0:
310,111,198117,1,0,0:0:0:0:
129,105,198193,1,2,3:2:0:0:
97,115,198249,1,0,0:0:0:0:
84,136,198306,1,0,0:0:0:0:
92,190,198420,1,0,3:0:0:0:
154,207,198534,1,0,3:0:0:0:
358,185,198647,6,0,L|459:184,2,90,6|0|0,0:0|0:0|1:0,0:0:0:0:
177,184,199329,1,2,0:0:0:0:
231,184,199443,1,0,0:0:0:0:
284,184,199556,1,2,0:0:0:0:
338,183,199670,1,2,0:0:0:0:
392,183,199784,1,0,0:0:0:0:
72,110,200011,2,0,L|48:197,1,90,2|0,1:0|0:0,0:0:0:0:
373,108,200465,6,0,L|477:107,1,90,2|0,0:0|0:0,0:0:0:0:
98,133,200920,1,2,1:0:0:0:
232,133,201147,1,0,0:0:0:0:
246,175,201261,1,0,0:0:0:0:
232,133,201374,1,2,0:0:0:0:
183,135,201488,1,2,0:0:0:0:
115,135,201602,1,0,0:0:0:0:
448,145,201829,2,0,L|358:145,1,90,0|0,1:0|0:0,0:0:0:0:
312,144,202170,1,0,1:0:0:0:
64,131,202284,6,0,L|186:131,2,90,6|0|2,1:2|0:0|0:0,0:0:0:0:
109,129,202852,1,0,0:0:0:0:
355,183,202965,1,4,3:2:0:0:
256,183,203193,1,0,0:0:0:0:
157,183,203420,1,0,3:0:0:0:
206,183,203534,1,0,3:0:0:0:
457,129,203647,6,0,L|342:129,1,90,6|0,1:2|0:0,0:0:0:0:
329,153,203988,1,0,0:0:0:0:
337,207,204102,1,0,3:0:0:0:
397,224,204215,1,0,0:0:0:0:
149,230,204329,1,14,0:0:0:0:
256,192,204556,12,0,205352,0:0:0:0:
348,284,205920,5,6,0:1:0:0:
416,230,206147,1,0,0:0:0:0:
422,143,206374,1,0,0:0:0:0:
360,81,206601,1,0,0:0:0:0:
160,284,206829,1,2,0:0:0:0:
91,230,207056,1,0,0:0:0:0:
85,143,207283,1,0,0:0:0:0:
147,81,207510,1,0,0:0:0:0:
360,76,207738,6,0,L|472:76,1,76.5000014591217,2|0,0:0|0:0,0:0:0:0:
304,184,208193,2,0,L|412:184,1,76.5000014591217
180,284,208647,1,2,0:0:0:0:
111,230,208874,1,0,0:0:0:0:
105,143,209101,1,2,0:0:0:0:
167,81,209328,1,0,0:0:0:0:
380,80,209556,5,6,0:1:0:0:
256,80,209784,2,0,L|352:80,2,76.5000014591217
60,80,210465,2,0,L|44:188,1,76.5000014591217,2|0,0:0|0:0,0:0:0:0:
192,184,210920,2,0,L|208:288,1,76.5000014591217
412,264,211374,6,0,L|500:264,2,76.5000014591217,2|0|0,0:0|0:0|0:0,0:0:0:0:
316,264,212056,1,0,0:0:0:0:
100,272,212284,2,0,L|12:272,2,76.5000014591217,2|0|0,0:0|0:0|0:0,0:0:0:0:
204,276,212965,1,0,0:0:0:0:
416,272,213193,6,0,L|328:272,1,76.5000014591217,2|2,0:0|0:0,0:0:0:0:
240,276,213647,2,0,L|152:276,1,76.5000014591217
364,168,214102,2,0,L|344:72,1,76.5000014591217,2|2,0:0|0:0,0:0:0:0:
240,96,214556,2,0,L|152:88,1,76.5000014591217
376,96,215011,6,0,L|299:96,3,76.5000014591217,2|0|0|0,0:0|0:0|0:0|0:0,0:0:0:0:
100,96,215920,2,0,L|92:196,1,76.5000014591217,2|0,0:0|0:0,0:0:0:0:
236,180,216374,1,2,0:0:0:0:
268,216,216526,1,0,0:0:0:0:
300,256,216677,1,2,0:0:0:0:
80,256,216829,6,0,L|196:256,1,90,6|0,0:1|0:0,0:0:0:0:
280,256,217284,2,0,L|164:256,1,90
420,256,217738,6,0,L|304:256,1,90,2|0,0:0|0:0,0:0:0:0:
220,256,218193,2,0,L|336:256,1,90,2|0,0:0|0:0,0:0:0:0:
80,256,218647,6,0,L|104:144,1,90,2|0,0:0|0:0,0:0:0:0:
216,128,219102,2,0,L|104:128,1,90
336,256,219556,2,0,L|460:256,1,90,2|0,0:0|0:0,0:0:0:0:
312,96,220011,2,0,L|404:96,1,90,2|0,0:0|0:0,0:0:0:0:
114,93,220465,6,0,L|94:200,1,90,6|0,0:1|0:0,0:0:0:0:
278,180,220920,1,0,0:0:0:0:
71,180,221147,2,0,L|170:178,1,90,2|0,0:0|0:0,0:0:0:0:
350,180,221602,1,2,0:0:0:0:
160,179,221829,2,0,L|150:90,1,90,2|0,0:0|0:0,0:0:0:0:
358,87,222284,6,0,L|260:86,1,90,2|0,0:0|0:0,0:0:0:0:
456,88,222738,1,2,0:0:0:0:
267,88,222965,2,0,P|222:153|291:216,1,180,2|0,0:0|0:0,0:0:0:0:
444,220,223647,2,0,L|469:130,1,90,2|0,0:0|0:0,0:0:0:0:
172,128,224102,6,0,L|80:129,1,90,6|0,0:1|0:0,0:0:0:0:
270,148,224556,2,0,L|257:253,1,90,2|0,0:0|0:0,0:0:0:0:
448,235,225011,2,0,L|336:235,1,90,2|0,0:0|0:0,0:0:0:0:
169,235,225465,1,2,0:0:0:0:
358,235,225693,1,0,0:0:0:0:
169,235,225920,6,0,L|79:235,2,90,2|0|0,0:0|0:0|0:0,0:0:0:0:
358,235,226602,1,2,0:0:0:0:
178,235,227056,2,0,L|166:137,1,90
356,147,227511,1,0,0:0:0:0:
64,95,227738,6,0,P|38:179|123:244,1,180,6|0,0:1|0:0,0:0:0:0:
285,239,228420,2,0,P|386:179|398:111,1,180,2|0,0:0|0:0,0:0:0:0:
128,123,229329,1,2,0:0:0:0:
325,125,229556,6,0,L|374:308,1,180,2|0,0:0|0:0,0:0:0:0:
236,300,230238,1,0,0:0:0:0:
371,298,230465,2,0,L|394:211,1,90,2|0,0:0|0:0,0:0:0:0:
204,209,230920,1,2,0:0:0:0:
394,211,231147,1,2,0:0:0:0:
103,240,231374,6,0,P|60:121|165:52,1,270,6|0,0:1|0:0,0:0:0:0:
455,49,232284,2,0,P|474:122|346:243,1,270,2|0,0:0|0:0,0:0:0:0:
58,245,233193,1,2,0:0:0:0:
256,192,233420,12,0,234784,0:0:0:0:
332,320,235011,6,0,P|448:224|344:44,1,360,14|0,0:0|0:0,0:0:0:0:
292,60,236071,1,2,0:0:0:0:
208,80,236223,1,0,0:0:0:0:
148,128,236374,1,2,0:0:0:0:
112,196,236526,1,0,0:0:0:0:
128,272,236677,1,0,0:0:0:0:
344,268,236829,6,0,P|416:168|256:56,1,360,2|2,0:0|0:0,0:0:0:0:
196,56,237890,1,0,0:0:0:0:
272,56,238041,1,0,0:0:0:0:
428,56,238193,2,0,L|496:60,2,60,2|0|0,0:0|0:0|0:0,0:0:0:0:
212,56,238647,6,0,P|88:152|172:276,1,315,2|2,0:0|0:0,0:0:0:0:
248,288,239556,2,0,L|328:308,2,60,2|0|0,0:0|0:0|0:0,0:0:0:0:
124,296,240011,2,0,L|44:316,2,60
380,300,240465,6,0,L|396:236,2,60,2|0|0,0:0|0:0|0:0,0:0:0:0:
224,236,240920,2,0,L|208:172,2,60
388,184,241374,2,0,L|468:204,2,60,2|0|2,0:0|0:0|0:0,0:0:0:0:
216,176,241829,2,0,L|136:196,2,60,2|0|2,0:0|0:0|0:0,0:0:0:0:
452,180,242284,6,0,P|484:120|388:48,1,180,2|2,0:0|0:0,0:0:0:0:
376,40,242814,1,0,0:0:0:0:
296,40,242965,1,2,0:0:0:0:
260,40,243041,1,0,0:0:0:0:
224,40,243116,1,0,0:0:0:0:
188,40,243193,1,0,0:0:0:0:
152,40,243268,1,0,0:0:0:0:
116,40,243344,5,0,0:0:0:0:
192,112,243496,1,2,0:0:0:0:
268,112,243647,1,0,0:0:0:0:
344,112,243799,1,0,0:0:0:0:
420,112,243950,1,0,0:0:0:0:
192,112,244102,6,0,P|100:160|100:248,1,180,2|0,0:0|0:0,0:0:0:0:
100,256,244632,1,0,0:0:0:0:
114,281,244707,1,0,0:0:0:0:
137,301,244783,1,0,0:0:0:0:
165,311,244859,1,0,0:0:0:0:
324,308,245011,5,0,0:0:0:0:
348,291,245086,1,0,0:0:0:0:
367,268,245162,1,0,0:0:0:0:
379,240,245238,1,0,0:0:0:0:
382,211,245314,1,0,0:0:0:0:
224,192,245465,1,2,0:0:0:0:
198,177,245540,1,0,0:0:0:0:
180,153,245616,1,0,0:0:0:0:
174,124,245692,1,0,0:0:0:0:
180,94,245768,1,2,0:0:0:0:
408,72,245920,6,0,P|476:124|476:212,1,180,2|0,0:0|0:0,0:0:0:0:
468,240,246450,1,0,0:0:0:0:
454,265,246525,1,0,0:0:0:0:
431,285,246601,1,0,0:0:0:0:
403,295,246677,1,0,0:0:0:0:
244,292,246829,5,0,0:0:0:0:
220,275,246904,1,0,0:0:0:0:
201,252,246980,1,0,0:0:0:0:
189,224,247056,1,0,0:0:0:0:
186,195,247132,1,0,0:0:0:0:
344,176,247283,1,0,0:0:0:0:
370,161,247358,1,0,0:0:0:0:
388,137,247434,1,0,0:0:0:0:
394,108,247510,1,0,0:0:0:0:
392,80,247586,1,0,0:0:0:0:
180,80,247738,6,0,L|96:80,2,60,2|0|0,0:0|0:0|0:0,0:0:0:0:
332,80,248193,2,0,L|416:80,2,60,2|0|0,0:0|0:0|0:0,0:0:0:0:
120,80,248647,1,2,0:0:0:0:
352,76,249102,2,0,L|456:76,1,90,2|0,0:0|0:0,0:0:0:0:
156,112,249556,6,0,L|48:112,1,90,14|0,0:0|0:0,0:0:0:0:
248,112,250010,2,0,L|344:112,1,90,0|0,3:0|0:0,0:0:0:0:
396,112,250352,2,0,P|436:168|388:220,1,135,2|2,0:0|0:0,0:0:0:0:
220,256,250919,1,0,3:0:0:0:
352,251,251147,1,0,0:0:0:0:
132,256,251374,6,0,L|240:256,1,90,2|0,0:0|0:0,0:0:0:0:
356,252,251828,2,0,L|452:252,1,90,2|0,3:2|0:0,0:0:0:0:
388,256,252170,2,0,L|248:256,1,135,2|2,0:0|0:0,0:0:0:0:
344,156,252738,1,0,3:0:0:0:
208,160,252965,1,0,0:0:0:0:
496,156,253193,6,0,L|384:156,1,90,4|0,0:0|0:0,0:0:0:0:
340,156,253534,1,2,0:0:0:0:
180,156,253874,1,0,0:0:0:0:
416,156,254102,6,0,L|304:156,1,90
260,156,254444,1,2,0:0:0:0:
120,156,254784,1,0,0:0:0:0:
348,156,255011,6,0,L|460:156,1,90,2|0,0:0|0:0,0:0:0:0:
483,156,255353,1,2,0:0:0:0:
436,156,255465,2,0,L|312:156,1,90,0|0,3:0|0:0,0:0:0:0:
160,160,255919,2,0,L|132:276,1,90,4|0,0:0|0:0,0:0:0:0:
312,268,256374,2,0,L|400:196,1,90,0|0,3:0|0:0,0:0:0:0:
76,256,256829,6,0,L|184:256,1,90,6|0,0:0|0:0,0:0:0:0:
288,256,257283,2,0,L|192:256,1,90,0|0,3:0|0:0,0:0:0:0:
136,256,257624,2,0,P|96:200|144:148,1,135,2|2,0:0|0:0,0:0:0:0:
244,112,258192,1,0,3:0:0:0:
112,117,258420,1,0,0:0:0:0:
328,224,258647,6,0,L|452:224,2,90,2|0|0,0:0|0:0|3:0,0:0:0:0:
152,224,259329,2,0,L|48:224,2,90,2|4|2,0:0|0:0|0:0,0:0:0:0:
312,224,260010,1,0,3:2:0:0:
180,224,260238,1,2,0:0:0:0:
464,224,260465,6,0,L|364:224,2,90,6|0|0,0:0|0:0|3:0,0:0:0:0:
364,224,261147,1,0,0:0:0:0:
80,224,261374,2,0,L|180:224,2,90,6|0|0,0:0|0:0|3:2,0:0:0:0:
196,224,262056,1,2,0:0:0:0:
384,232,262283,6,0,L|400:124,1,90,4|0,0:0|0:0,0:0:0:0:
200,152,262738,2,0,L|184:260,1,90
480,232,263193,6,0,L|464:124,1,90,6|0,0:1|0:0,0:0:0:0:
136,148,263647,1,2,0:0:0:0:
256,192,263874,12,4,264784,3:0:0:0:
388,104,265465,6,0,P|420:172|368:204,1,135,2|0,0:0|0:0,0:0:0:0:
163,93,265920,6,0,L|55:93,1,107.999996704102,14|2,0:0|0:0,0:0:0:0:
370,98,266374,2,0,L|478:98,1,107.999996704102,0|0,1:0|0:0,0:0:0:0:
121,117,266715,2,0,P|53:166|85:221,1,161.999995056153,2|2,0:0|0:0,0:0:0:0:
379,146,267284,2,0,L|236:144,1,107.999996704102,2|0,1:0|0:0,0:0:0:0:
217,143,267624,1,0,0:0:0:0:
443,93,267738,6,0,L|467:208,1,107.999996704102,0|2,3:0|0:0,0:0:0:0:
141,98,268193,2,0,L|34:98,1,107.999996704102,0|0,1:0|0:0,0:0:0:0:
391,117,268534,2,0,P|459:166|427:221,1,161.999995056153,2|2,0:0|0:0,0:0:0:0:
133,238,269102,2,0,L|276:240,1,107.999996704102,2|0,1:0|0:0,0:0:0:0:
295,241,269442,1,0,0:0:0:0:
78,198,269556,6,0,L|42:304,1,107.999996704102,4|0,0:0|0:0,0:0:0:0:
97,304,269897,1,0,0:0:0:0:
313,308,270011,1,0,1:0:0:0:
132,273,270238,1,0,0:0:0:0:
434,198,270465,2,0,L|470:304,1,107.999996704102,2|0,0:0|0:0,0:0:0:0:
415,304,270806,1,0,0:0:0:0:
199,308,270920,1,0,1:0:0:0:
380,273,271147,1,2,0:0:0:0:
78,253,271374,6,0,L|225:253,1,107.999996704102,2|0,0:0|0:0,0:0:0:0:
240,254,271715,1,0,0:0:0:0:
131,253,271829,2,0,P|99:198|165:134,1,161.999995056153,0|0,1:0|1:0,0:0:0:0:
409,138,272284,2,0,L|454:252,1,107.999996704102,4|0,0:0|0:0,0:0:0:0:
146,120,272738,2,0,L|121:173,1,53.9999983520508,4|0,1:2|0:0,0:0:0:0:
339,172,272965,2,0,L|408:171,1,53.9999983520508,0|0,3:0|0:0,0:0:0:0:
147,170,273193,6,0,L|39:170,1,107.999996704102,14|2,0:0|0:0,0:0:0:0:
417,171,273647,1,0,1:0:0:0:
126,279,273874,2,0,L|344:279,1,215.999993408203,2|0,0:0|0:0,0:0:0:0:
39,170,274556,2,0,L|157:170,1,107.999996704102,2|2,1:0|0:0,0:0:0:0:
201,169,274897,1,0,0:0:0:0:
452,66,275011,6,0,P|480:164|389:224,1,215.999993408203,2|2,0:0|1:0,0:0:0:0:
57,229,275693,1,2,0:0:0:0:
111,230,275806,1,0,0:0:0:0:
166,229,275920,2,0,L|39:230,1,107.999996704102,2|0,0:0|0:0,0:0:0:0:
360,221,276374,1,0,1:0:0:0:
198,147,276602,2,0,L|98:148,1,53.9999983520508,0|2,0:0|0:0,0:0:0:0:
361,145,276829,6,0,L|468:145,1,107.999996704102,6|0,0:0|0:0,0:0:0:0:
166,145,277284,1,0,1:0:0:0:
328,143,277511,2,0,L|387:144,1,53.9999983520508,0|2,0:0|0:0,0:0:0:0:
151,145,277738,2,0,L|44:145,1,107.999996704102,2|0,0:0|0:0,0:0:0:0:
346,145,278193,1,0,1:0:0:0:
184,143,278420,2,0,L|125:144,1,53.9999983520508,0|2,0:0|0:0,0:0:0:0:
369,148,278647,6,0,L|477:148,1,107.999996704102,4|0,0:0|0:0,0:0:0:0:
151,72,279102,2,0,L|259:72,1,107.999996704102,0|0,1:0|0:0,0:0:0:0:
314,71,279443,1,0,0:0:0:0:
100,72,279556,2,0,L|32:72,1,53.9999983520508,4|0,0:0|1:0,0:0:0:0:
100,72,279784,2,0,L|168:72,1,53.9999983520508,0|0,1:0|0:0,0:0:0:0:
371,73,280011,2,0,L|355:130,1,53.9999983520508
141,137,280238,2,0,L|80:137,1,53.9999983520508,0|0,1:0|1:0,1:0:0:0:
364,110,280465,6,0,L|482:110,2,107.999996704102,14|0|0,1:2|0:0|0:0,0:0:0:0:
61,251,281147,2,0,L|169:251,1,107.999996704102,4|0,0:2|0:0,0:0:0:0:
115,250,281488,1,0,0:0:0:0:
61,250,281602,1,0,0:0:0:0:
363,261,281829,5,6,3:2:0:0:
309,263,281943,1,0,0:0:0:0:
256,264,282056,2,0,L|140:264,1,107.999996704102,0|0,0:0|1:0,0:0:0:0:
451,127,282511,2,0,L|343:127,2,107.999996704102,4|0|2,0:2|0:0|0:0,0:0:0:0:
148,254,283193,1,4,0:0:0:0:
321,256,283420,1,6,1:2:0:0:
19,126,283647,2,0,L|131:126,1,107.999996704102,4|0,3:2|1:0,0:0:0:0:
450,54,284102,6,0,L|436:112,1,53.9999983520508,14|0,1:2|0:0,0:0:0:0:
323,110,284329,2,0,L|337:168,1,53.9999983520508,0|0,3:0|0:0,0:0:0:0:
451,160,284556,1,0,3:0:0:0:
148,264,284784,2,0,L|256:264,1,107.999996704102,6|0,0:0|0:0,0:0:0:0:
309,263,285124,1,0,0:0:0:0:
363,261,285238,1,0,1:0:0:0:
61,262,285465,6,0,L|195:262,1,107.999996704102,6|2,3:2|0:0,0:0:0:0:
332,260,285920,1,0,0:0:0:0:
30,260,286147,2,0,L|50:141,1,107.999996704102,6|0,3:2|0:0,0:0:0:0:
119,153,286488,1,0,0:0:0:0:
190,153,286602,1,2,0:0:0:0:
48,153,286829,1,4,0:0:0:0:
350,166,287056,2,0,L|242:166,1,107.999996704102,4|6,1:2|0:0,0:0:0:0:
296,165,287397,1,0,0:0:0:0:
350,166,287511,1,0,0:0:0:0:
404,165,287624,1,0,0:0:0:0:
188,168,287738,6,0,L|67:168,2,107.999996704102,14|0|0,0:0|0:0|0:0,0:0:0:0:
492,166,288420,2,0,L|360:166,1,107.999996704102,6|0,0:0|0:0,0:0:0:0:
330,167,288761,1,0,0:0:0:0:
384,167,288874,1,2,1:0:0:0:
81,175,289102,5,4,3:2:0:0:
233,175,289329,1,2,0:0:0:0:
81,175,289556,1,0,0:0:0:0:
385,175,289784,2,0,L|404:284,1,107.999996704102,4|0,0:0|0:0,0:0:0:0:
242,283,290238,1,6,0:0:0:0:
404,283,290465,1,0,1:0:0:0:
101,287,290693,2,0,L|240:287,1,107.999996704102,2|4,0:0|0:0,0:0:0:0:
264,285,291034,1,0,0:0:0:0:
50,285,291147,2,0,L|31:217,1,53.9999983520508,0|0,3:0|0:0,0:0:0:0:
358,27,291374,6,0,P|449:91|301:359,1,495.000015106202,14|0,1:2|3:0,0:0:0:0:
107,338,292738,1,2,1:2:0:0:
62,307,292851,1,0,1:0:0:0:
70,253,292965,1,0,0:0:0:0:
132,236,293079,1,0,3:0:0:0:
369,272,293193,6,0,L|471:271,1,99.0000030212403,4|0,0:2|3:0,0:0:0:0:
260,161,293647,2,8,L|248:260,1,99.0000030212403,8|0,0:1|0:0,0:1:0:0:
420,177,294102,2,8,L|433:76,1,99.0000030212403,0|0,3:0|0:0,0:1:0:0:
136,84,294557,2,0,L|36:84,1,99.0000030212403,8|2,0:1|3:2,0:0:0:0:
86,84,294897,1,0,0:0:0:0:
426,84,295011,1,14,0:2:0:0:
256,192,295238,12,0,298193,0:0:0:0:
132,192,298647,6,0,L|344:192,1,198.000006042481,6|0,3:2|1:0,0:0:0:0:
136,108,299329,1,0,0:0:0:0:
92,144,299442,1,0,0:0:0:0:
68,192,299556,1,2,0:0:0:0:
96,240,299669,1,2,0:0:0:0:
127,277,299783,1,0,0:0:0:0:
312,280,300011,1,0,1:0:0:0:
127,277,300238,2,0,L|59:277,1,49.5000015106202
312,280,300465,6,0,L|424:280,1,99.0000030212403,2|0,3:2|0:0,0:0:0:0:
236,280,300920,2,0,L|136:280,1,99.0000030212403,0|2,1:0|0:0,0:0:0:0:
196,224,301261,1,0,0:0:0:0:
400,168,301374,2,0,L|300:168,1,99.0000030212403,6|0,3:2|0:0,0:0:0:0:
96,168,301829,1,0,1:0:0:0:
52,204,301942,1,0,1:0:0:0:
28,248,302056,1,0,0:0:0:0:
32,300,302169,1,0,0:0:0:0:
256,300,302284,6,0,L|364:300,2,99.0000030212403,14|2|0,3:2|0:0|1:0,0:0:0:0:
456,304,302965,1,2,0:0:0:0:
472,256,303078,1,0,0:0:0:0:
456,208,303192,1,2,3:2:0:0:
416,172,303305,1,2,3:2:0:0:
364,160,303419,1,0,3:0:0:0:
196,160,303647,2,0,L|88:160,1,99.0000030212403,0|0,1:0|0:0,0:0:0:0:
392,136,304102,6,0,L|492:136,2,99.0000030212403,2|0|2,3:2|0:0|1:2,0:0:0:0:
200,140,304784,1,0,0:0:0:0:
184,188,304897,1,0,0:0:0:0:
200,236,305011,1,2,3:2:0:0:
240,272,305124,1,2,0:0:0:0:
292,284,305238,1,0,0:0:0:0:
108,284,305465,1,0,1:0:0:0:
292,284,305693,2,0,L|376:284,1,49.5000015106202
108,284,305920,6,0,L|208:284,2,99.0000030212403,6|0|0,1:2|0:0|0:0,0:0:0:0:
404,284,306602,2,0,L|304:284,2,99.0000030212403,6|0|0,1:2|0:0|0:0,0:0:0:0:
108,280,307284,2,0,L|108:180,1,99.0000030212403,6|0,1:2|0:0,0:0:0:0:
280,184,307738,2,0,L|352:184,1,49.5000015106202,0|0,3:0|3:0,3:0:0:0:
84,180,307965,6,0,B|256:352|428:180|428:180|112:180,1,693.000021148682,6|0,1:2|0:0,0:0:0:0:
256,192,309784,12,0,310238,0:0:0:0:
160,192,310465,5,14,0:0:0:0:
260,192,312269,1,2,0:0:0:0:
432,192,314115,1,2,0:0:0:0:
256,192,315906,1,2,0:0:0:0:
448,196,317710,5,2,0:0:0:0:
256,192,319474,2,0,L|256:155,1,30,0|2,0:0|0:0,0:0:0:0:
256,192,319734,12,0,324691,0:0:0:0:
