osu file format v14

[General]
AudioFilename: Amatsu Kitsune.mp3
AudioLeadIn: 0
PreviewTime: 66383
Countdown: 0
SampleSet: Soft
StackLeniency: 0.7
Mode: 0
LetterboxInBreaks: 0
WidescreenStoryboard: 0

[Editor]
Bookmarks: 10173,17752,36699,46804,56909,67015,84699,89752,101120,111225,121331,131436,149120,169331,179436,189541,197120,204699,222383,229173
DistanceSpacing: 1.8
BeatDivisor: 4
GridSize: 4
TimelineZoom: 1

[Metadata]
Title:Amatsu Kitsune
TitleUnicode:アマツキツネ
Artist:*namirin
ArtistUnicode:*なみりん
Creator:Meg
Version:Extra
Source:
Tags:utaite nami 歌ってみた VOCALOID 鏡音リン Kagamine Rin まらしぃ Marashii 天狗
BeatmapID:881313
BeatmapSetID:405474

[Difficulty]
HPDrainRate:4
CircleSize:4
OverallDifficulty:9.3
ApproachRate:9.6
SliderMultiplier:1.7
SliderTickRate:1

[Events]
//Background and Video events
0,0,"amatsukitsune.jpg",0,0
//Break Periods
2,92478,99348
2,179636,183979
//Storyboard Layer 0 (Background)
//Storyboard Layer 1 (Fail)
//Storyboard Layer 2 (Pass)
//Storyboard Layer 3 (Foreground)
//Storyboard Sound Samples

[TimingPoints]
1331,315.789473684211,4,2,10,60,1,0
1962,-200,4,2,10,60,0,0
8909,-100,4,2,1,60,0,0
12699,-133.333333333333,4,2,1,60,0,0
14909,-100,4,2,1,60,0,0
35436,-100,4,2,3,60,0,0
36699,-133.333333333333,4,2,2,60,0,0
39225,-100,4,2,2,60,0,0
41752,-133.333333333333,4,2,2,60,0,0
44278,-100,4,2,2,60,0,0
45541,-100,4,2,3,60,0,0
46804,-100,4,2,2,60,0,0
67015,-83.3333333333333,4,2,5,70,0,1
89752,-100,4,2,5,70,0,0
92278,-100,4,2,5,60,0,0
99857,-100,4,2,3,60,0,0
101120,-133.333333333333,4,2,2,60,0,0
103646,-100,4,2,2,60,0,0
106173,-133.333333333333,4,2,2,60,0,0
108699,-100,4,2,2,60,0,0
110120,-100,4,2,3,60,0,0
111225,-100,4,2,2,60,0,0
131436,-83.3333333333333,4,2,5,70,0,1
149120,-100,4,2,5,60,0,0
156699,-100,4,2,3,60,0,0
158120,-100,4,2,5,60,0,0
159225,-100,4,2,3,60,0,0
160488,-83.3333333333333,4,2,3,60,0,0
161752,-71.4285714285714,4,2,3,60,0,0
163015,-62.5,4,2,3,60,0,0
165857,-71.4285714285714,4,2,3,60,0,0
166173,-83.3333333333333,4,2,3,60,0,0
166488,-100,4,2,3,60,0,0
166804,-76.9230769230769,4,2,3,60,0,0
169331,-100,4,2,2,60,0,0
178804,-100,4,2,10,60,0,0
184488,-100,4,2,2,60,0,0
189541,-76.9230769230769,4,2,5,80,0,1
202804,-76.9230769230769,4,2,3,80,0,1
204067,-100,4,2,10,50,0,1
204699,-100,4,1,5,80,0,0
204699,-100,4,2,1,80,0,0

[Colours]
Combo1 : 128,255,255
Combo2 : 255,128,0
Combo3 : 255,255,0
Combo4 : 66,66,255

[HitObjects]
415,151,1962,6,0,P|420:194|416:236,1,85
304,328,2594,6,0,L|220:310,1,85,2|0,0:0|0:0,0:0:0:0:
100,256,3225,2,0,L|183:238,1,85
415,151,3857,1,2,0:0:0:0:
415,151,4488,1,0,0:0:0:0:
336,64,4804,1,0,0:0:0:0:
220,87,5120,6,0,P|178:96|136:95,1,85,2|0,0:0|0:0,0:0:0:0:
32,200,5752,2,0,P|73:191|115:192,1,85
236,216,6383,2,0,B|228:264|252:300|252:300|248:340|206:365,1,170,2|0,0:0|0:0,0:0:0:0:
44,344,7331,1,0,0:0:0:0:
40,240,7488,2,0,L|35:219,1,21.25,0|0,3:0|3:0,0:0:0:0:
32,200,7646,6,0,L|69:33,1,170,6|0,0:0|0:0,0:0:0:0:
200,116,8594,1,0,0:0:0:0:
200,196,8909,5,4,0:0:0:0:
245,181,8988,1,0,0:0:0:0:
273,144,9067,1,0,0:0:0:0:
276,97,9146,1,0,0:0:0:0:
252,56,9225,1,0,0:0:0:0:
210,36,9304,1,0,0:0:0:0:
163,44,9383,2,0,L|155:85,1,42.5
12,205,9541,5,4,0:0:0:0:
53,172,9620,1,0,0:0:0:0:
104,158,9699,1,0,0:0:0:0:
156,167,9778,1,0,0:0:0:0:
200,196,9857,1,0,0:0:0:0:
243,225,9936,1,0,0:0:0:0:
295,234,10015,1,0,0:0:0:0:
346,220,10094,1,0,0:0:0:0:
386,187,10173,6,0,P|413:129|414:66,1,127.5,4|0,1:2|0:0,0:0:0:0:
408,32,10488,1,0,1:0:0:0:
472,224,10646,1,0,1:0:0:0:
256,32,10962,1,0,1:0:0:0:
256,32,11120,1,0,0:0:0:0:
200,196,11278,1,0,3:0:0:0:
200,196,11594,6,0,P|158:187|116:194,1,85,0|0,1:0|0:0,0:0:0:0:
256,320,11909,1,8,0:0:0:0:
298,313,11988,1,8,0:0:0:0:
340,307,12067,1,0,1:0:0:0:
168,280,12225,1,0,0:0:0:0:
356,192,12383,1,0,1:0:0:0:
80,240,12541,1,0,0:0:0:0:
371,76,12699,6,0,P|429:102|464:154,1,127.500004863739,6|0,0:0|0:0,0:0:0:0:
256,320,13173,2,0,P|253:288|258:256,1,63.7500024318696,0|8,0:0|0:0,0:0:0:0:
292,32,13646,1,0,0:0:0:0:
48,116,13804,1,0,0:0:0:0:
48,116,13883,1,0,0:0:0:0:
48,116,13962,6,0,L|55:243,1,127.500004863739,10|0,0:0|0:0,0:0:0:0:
376,348,14594,1,8,0:0:0:0:
256,320,14909,2,0,L|235:324,6,21.25
200,344,15225,6,0,P|197:301|200:259,1,85,4|0,1:2|0:0,0:0:0:0:
324,56,15541,1,0,1:0:0:0:
328,280,15699,1,0,1:0:0:0:
132,171,15857,1,0,0:0:0:0:
388,104,16015,1,0,1:0:0:0:
108,92,16173,1,0,0:0:0:0:
448,220,16331,1,0,1:0:0:0:
448,220,16646,6,0,L|363:223,1,85,0|0,1:0|0:0,0:0:0:0:
154,280,16962,1,0,1:0:0:0:
264,88,17120,1,8,0:0:0:0:
248,296,17278,1,8,0:0:0:0:
153,103,17436,1,8,0:0:0:0:
358,280,17594,1,0,0:0:0:0:
110,215,17752,6,0,P|77:268|95:327,1,127.5,6|0,0:0|0:0,0:0:0:0:
120,356,18067,2,0,P|78:345|36:345,1,85,10|0,0:0|0:0,0:0:0:0:
184,205,18383,1,2,0:0:0:0:
196,164,18462,1,2,0:0:0:0:
190,122,18541,2,0,L|153:103,1,42.5,2|0,0:0|0:0,0:0:0:0:
320,80,18699,1,10,0:0:0:0:
61,165,18857,1,2,0:0:0:0:
264,347,19015,6,0,P|268:304|260:263,1,85,2|0,0:0|0:0,0:0:0:0:
16,256,19331,2,0,P|58:254|99:245,1,85,8|0,0:0|0:0,0:0:0:0:
364,180,19646,1,2,0:0:0:0:
172,308,19804,1,2,0:0:0:0:
214,80,19962,2,0,L|195:163,1,85,8|2,0:0|0:0,0:0:0:0:
380,339,20278,6,0,B|364:300|364:300|380:260|380:260|356:228|363:179,1,170,6|0,1:2|1:0,0:0:0:0:
448,60,20752,1,0,1:0:0:0:
248,192,20909,1,0,0:0:0:0:
348,24,21067,1,0,1:0:0:0:
299,258,21225,1,0,0:0:0:0:
250,68,21383,1,0,1:0:0:0:
250,68,21699,5,0,1:0:0:0:
88,160,21857,1,0,0:0:0:0:
404,204,22015,1,0,1:0:0:0:
188,208,22173,1,0,0:0:0:0:
296,148,22331,1,0,0:0:0:0:
292,272,22488,2,0,L|271:354,1,85
470,292,22804,6,0,P|458:231|403:203,1,127.5,6|0,0:0|0:0,0:0:0:0:
368,191,23120,2,0,P|397:161|410:121,1,85,10|0,0:0|0:0,0:0:0:0:
188,63,23436,1,2,0:0:0:0:
145,62,23515,1,2,0:0:0:0:
104,73,23594,2,0,P|90:89|80:107,1,42.5,2|0,0:0|0:0,0:0:0:0:
296,44,23752,1,10,0:0:0:0:
212,288,23909,1,2,0:0:0:0:
456,248,24067,6,0,P|415:237|372:240,1,85,2|0,0:0|0:0,0:0:0:0:
232,160,24383,2,0,L|240:64,1,85,10|0,0:0|0:0,0:0:0:0:
48,220,24699,1,2,0:0:0:0:
40,261,24778,1,2,0:0:0:0:
41,303,24857,2,0,P|48:324|56:343,1,42.5,2|0,0:0|0:0,0:0:0:0:
250,268,25015,2,0,L|211:287,1,42.5,10|0,0:0|0:0,0:0:0:0:
20,144,25173,2,0,L|58:124,1,42.5,2|0,0:0|0:0,0:0:0:0:
300,144,25331,5,6,1:2:0:0:
275,254,25488,1,0,0:0:0:0:
192,177,25646,1,0,1:0:0:0:
380,152,25804,5,0,1:0:0:0:
227,319,25962,1,0,0:0:0:0:
160,104,26120,1,0,1:0:0:0:
408,225,26278,5,0,0:0:0:0:
150,307,26436,1,0,1:0:0:0:
209,42,26752,5,0,1:0:0:0:
209,42,26831,1,0,0:0:0:0:
209,42,26909,1,0,0:0:0:0:
256,196,27067,1,0,1:0:0:0:
380,152,27225,1,4,1:3:0:0:
160,104,27383,1,4,1:3:0:0:
227,319,27541,2,0,L|231:276,1,42.5,8|0,0:0|0:0,0:0:0:0:
380,152,27699,2,0,L|376:109,1,42.5,8|0,0:0|0:0,0:0:0:0:
468,324,27857,6,0,P|405:332|345:312,1,127.5,6|0,0:0|0:0,0:0:0:0:
308,294,28173,2,0,L|227:319,1,85,10|0,0:0|0:0,0:0:0:0:
20,236,28488,1,2,0:0:0:0:
57,216,28567,1,2,0:0:0:0:
99,211,28646,2,0,P|119:215|140:216,1,42.5,2|0,0:0|0:0,0:0:0:0:
92,328,28804,1,10,0:0:0:0:
52,108,28962,1,2,0:0:0:0:
248,88,29120,5,2,0:0:0:0:
168,268,29278,1,0,0:0:0:0:
16,144,29436,1,10,0:0:0:0:
248,236,29594,1,0,0:0:0:0:
92,328,29752,1,2,0:0:0:0:
108,164,29909,1,2,0:0:0:0:
328,360,30067,1,8,0:0:0:0:
312,196,30225,1,2,0:0:0:0:
104,316,30383,6,0,P|182:287|262:312,1,170,6|0,1:2|1:0,1:0:0:0:
456,192,30857,1,0,1:0:0:0:
328,360,31015,1,0,0:0:0:0:
312,60,31173,1,0,1:0:0:0:
416,296,31331,1,0,0:0:0:0:
159,268,31488,1,0,1:0:0:0:
158,268,31804,6,0,P|201:266|243:257,1,85,0|0,1:0|0:0,0:0:0:0:
384,144,32120,1,0,1:0:0:0:
208,80,32278,2,0,L|200:121,1,42.5,0|0,1:0|0:0,0:0:0:0:
336,248,32436,1,0,1:0:0:0:
88,292,32594,1,8,0:0:0:0:
85,250,32673,1,8,0:0:0:0:
106,214,32752,1,8,0:0:0:0:
296,336,32909,6,0,L|211:343,1,85,6|0,0:0|0:0,0:0:0:0:
140,196,33225,2,0,L|224:203,1,85,10|0,0:0|0:0,0:0:0:0:
458,286,33541,1,2,0:0:0:0:
406,279,33620,1,2,0:0:0:0:
368,242,33699,1,2,0:0:0:0:
360,191,33778,1,2,0:0:0:0:
384,144,33857,1,10,0:0:0:0:
158,268,34015,1,2,0:0:0:0:
443,204,34173,6,0,P|464:167|464:125,1,85,2|0,0:0|0:0,0:0:0:0:
208,32,34488,2,0,P|208:74|228:110,1,85,10|0,0:0|0:0,0:0:0:0:
332,320,34804,1,2,0:0:0:0:
332,320,34883,1,2,0:0:0:0:
332,320,34962,2,0,L|256:336,1,42.5,2|0,0:0|0:0,0:0:0:0:
84,232,35120,1,8,0:0:0:0:
272,208,35278,1,2,0:0:0:0:
96,311,35436,5,2,0:0:0:0:
43,302,35515,1,2,0:0:0:0:
7,262,35594,1,2,0:0:0:0:
5,208,35673,1,2,0:0:0:0:
36,164,35752,1,2,0:0:0:0:
87,150,35831,1,2,0:0:0:0:
137,170,35909,1,2,0:0:0:0:
163,217,35988,1,2,0:0:0:0:
207,247,36067,1,2,0:0:0:0:
259,255,36146,1,2,0:0:0:0:
310,238,36225,1,2,0:0:0:0:
347,201,36304,1,2,0:0:0:0:
365,151,36383,1,2,0:0:0:0:
357,98,36462,1,2,0:0:0:0:
328,54,36541,1,2,0:0:0:0:
280,28,36620,1,2,0:0:0:0:
226,25,36699,6,0,P|211:86|246:137,1,127.500004863739,6|2,0:0|0:0,0:0:0:0:
396,256,37173,2,0,P|414:230|420:198,1,63.7500024318696,0|2,1:0|0:0,0:0:0:0:
245,136,37646,1,2,0:0:0:0:
245,136,38278,1,2,0:0:0:0:
112,288,38752,1,0,3:0:0:0:
112,288,38831,1,0,3:0:0:0:
112,288,38909,2,0,P|141:274|172:267,1,63.7500024318696,0|0,3:0|0:0,0:0:0:0:
296,332,39225,5,2,0:0:0:0:
152,172,39383,1,0,0:0:0:0:
220,292,39541,1,10,0:0:0:0:
364,132,39699,1,0,0:0:0:0:
296,252,39857,1,2,0:0:0:0:
152,92,40015,1,0,0:0:0:0:
220,212,40173,1,10,0:0:0:0:
364,52,40331,1,0,0:0:0:0:
152,171,40488,6,0,P|111:161|81:131,1,85,2|0,0:0|0:0,0:0:0:0:
364,132,40804,2,0,L|447:145,1,85,10|0,0:0|0:0,0:0:0:0:
336,344,41120,1,2,0:0:0:0:
308,212,41278,1,0,0:0:0:0:
440,184,41436,1,8,0:0:0:0:
256,292,41594,1,2,0:0:0:0:
256,292,41673,1,2,0:0:0:0:
256,292,41752,6,0,L|128:284,1,127.500004863739,6|2,0:0|0:0,0:0:0:0:
40,180,42225,2,0,L|49:243,1,63.7500024318696,0|2,1:0|0:0,0:0:0:0:
104,72,42699,1,2,0:0:0:0:
104,72,43331,1,2,0:0:0:0:
204,156,43804,1,0,3:0:0:0:
204,156,43883,1,0,3:0:0:0:
204,156,43962,2,0,L|213:92,1,63.7500024318696,0|0,3:0|0:0,0:0:0:0:
428,64,44278,5,2,0:0:0:0:
292,164,44436,1,0,0:0:0:0:
410,182,44594,1,10,0:0:0:0:
310,46,44752,1,0,0:0:0:0:
494,186,44909,5,2,0:0:0:0:
394,322,45067,1,0,0:0:0:0:
512,304,45225,1,10,0:0:0:0:
376,204,45383,1,0,0:0:0:0:
440,48,45541,5,2,0:0:0:0:
292,164,45699,1,2,0:0:0:0:
250,201,45778,1,2,0:0:0:0:
195,207,45857,1,10,0:0:0:0:
146,179,45936,1,2,0:0:0:0:
123,128,46015,1,2,0:0:0:0:
135,73,46094,1,2,0:0:0:0:
176,36,46173,6,0,L|186:77,1,42.5,6|0,0:0|0:0,0:0:0:0:
336,120,46331,2,0,L|326:161,1,42.5
128,200,46488,2,0,L|137:241,1,42.5,8|0,0:0|0:0,0:0:0:0:
384,283,46646,2,0,L|374:324,1,42.5
80,363,46804,6,0,P|24:306|55:232,1,170,6|10,0:0|0:0,0:0:0:0:
212,120,47278,1,0,0:0:0:0:
180,308,47436,2,0,L|96:292,1,85
296,228,47752,1,10,0:0:0:0:
120,104,47909,1,0,0:0:0:0:
215,232,48067,6,0,P|222:190|217:148,1,85
388,60,48383,2,0,P|381:101|386:143,1,85,10|0,0:0|0:0,0:0:0:0:
200,60,48699,1,0,0:0:0:0:
296,228,48857,1,0,3:0:0:0:
296,228,48936,1,0,3:0:0:0:
296,228,49015,2,0,L|380:233,1,85,10|0,3:2|0:0,0:0:0:0:
96,260,49331,5,2,0:0:0:0:
64,140,49488,1,0,0:0:0:0:
200,60,49646,1,10,0:0:0:0:
168,180,49804,1,0,0:0:0:0:
307,288,49962,1,2,0:0:0:0:
268,144,50120,1,0,0:0:0:0:
431,47,50278,1,10,0:0:0:0:
393,192,50436,1,0,0:0:0:0:
143,108,50594,6,0,P|93:170|127:243,1,170,2|10,0:0|0:0,0:0:0:0:
307,288,51067,1,0,0:0:0:0:
240,56,51225,1,2,0:0:0:0:
168,180,51383,1,0,0:0:0:0:
408,292,51541,1,10,0:0:0:0:
180,308,51699,1,0,0:0:0:0:
420,164,51857,6,0,B|432:136|432:136|340:152|293:139,1,170,2|10,0:0|0:0,0:0:0:0:
124,48,52331,1,0,0:0:0:0:
120,240,52488,2,0,P|158:256|199:248,1,85
48,148,52804,1,10,0:0:0:0:
64,320,52962,1,0,0:0:0:0:
272,240,53120,6,0,P|256:201|221:177,1,85
156,324,53436,1,10,0:0:0:0:
328,316,53594,1,0,0:0:0:0:
164,132,53752,2,0,P|147:170|155:211,1,85,0|0,0:0|3:0,0:0:0:0:
188,256,53988,1,0,3:0:0:0:
188,256,54067,2,0,L|272:240,1,85,10|0,3:2|0:0,0:0:0:0:
404,116,54383,5,2,0:0:0:0:
232,168,54541,1,0,0:0:0:0:
420,84,54699,1,10,0:0:0:0:
384,284,54857,1,0,0:0:0:0:
280,152,55015,5,2,0:0:0:0:
195,310,55173,1,0,0:0:0:0:
268,118,55331,1,10,0:0:0:0:
384,284,55488,1,0,0:0:0:0:
136,220,55646,5,2,0:0:0:0:
265,36,55804,1,0,0:0:0:0:
322,32,55883,1,0,0:0:0:0:
375,49,55962,1,8,0:0:0:0:
419,84,56041,1,0,0:0:0:0:
448,133,56120,1,0,0:0:0:0:
456,189,56199,1,0,0:0:0:0:
443,244,56278,2,0,L|421:280,3,42.5,6|0|0|0,0:0|0:0|0:0|0:0,0:0:0:0:
367,236,56594,5,8,0:0:0:0:
387,177,56673,1,2,0:0:0:0:
360,121,56752,1,2,0:0:0:0:
301,101,56831,1,2,0:0:0:0:
245,129,56909,5,6,0:0:0:0:
236,144,57383,1,0,0:0:0:0:
48,256,57541,2,0,P|41:213|39:171,1,85,8|0,0:0|0:0,0:0:0:0:
140,52,57857,2,0,P|138:94|131:136,1,85
104,324,58173,5,8,0:3:0:0:
164,248,58331,2,0,P|244:227|320:261,1,170,8|0,0:3|0:0,0:0:0:0:
464,192,58804,2,0,P|426:208|390:188,1,85,8|0,0:0|0:0,0:0:0:0:
199,316,59120,2,0,P|237:299|273:319,1,85,2|0,0:0|0:0,0:0:0:0:
280,168,59436,6,0,L|302:42,1,127.5,2|0,0:0|0:0,0:0:0:0:
312,20,59752,2,0,L|228:33,1,85,8|8,0:3|0:3,0:0:0:0:
392,112,60067,2,0,P|430:128|472:126,1,85
448,28,60383,5,8,0:0:0:0:
360,192,60541,2,0,L|349:276,1,85,8|0,0:0|0:0,0:0:0:0:
120,120,60857,2,0,L|130:204,1,85,8|0,0:0|0:0,0:0:0:0:
360,48,61173,1,8,0:0:0:0:
256,240,61331,1,0,0:0:0:0:
212,56,61488,1,0,0:0:0:0:
212,56,61567,1,0,0:0:0:0:
212,56,61646,2,0,P|191:59|169:60,1,42.5,10|0,0:0|0:0,0:0:0:0:
52,156,61804,2,0,L|57:198,1,42.5,2|0,0:0|0:0,0:0:0:0:
151,360,61962,6,0,P|162:276|132:198,1,170,6|8,0:0|0:3,0:0:0:0:
32,296,62436,1,8,0:3:0:0:
220,148,62594,2,0,P|261:158|303:163,1,85,2|0,0:0|0:0,0:0:0:0:
328,312,62909,2,0,P|364:290|397:264,1,85
277,71,63225,6,0,L|255:239,1,170,2|0,0:0|0:0,0:0:0:0:
128,332,63699,1,0,0:0:0:0:
64,184,63857,2,0,P|63:141|72:100,1,85,8|0,0:0|0:0,0:0:0:0:
312,192,64173,2,0,P|320:233|320:275,1,85,2|0,0:0|0:0,0:0:0:0:
88,260,64488,5,4,1:2:0:0:
88,260,64804,1,0,1:0:0:0:
351,38,64962,5,0,1:0:0:0:
268,372,65278,1,0,1:0:0:0:
139,53,65594,1,4,1:2:0:0:
139,53,65909,1,8,1:2:0:0:
431,235,66067,6,0,P|430:278|416:318,1,85,8|0,1:2|0:0,0:0:0:0:
88,260,66383,5,8,0:0:0:0:
130,253,66462,1,8,0:0:0:0:
172,247,66541,1,8,0:0:0:0:
214,241,66620,1,8,0:0:0:0:
252,260,66699,5,8,0:0:0:0:
319,234,66778,1,8,0:0:0:0:
353,169,66857,1,8,0:0:0:0:
335,99,66936,1,8,0:0:0:0:
275,58,67015,6,0,L|174:73,1,101.999996887207,6|0,0:0|0:0,0:0:0:0:
308,304,67331,2,0,P|357:296|386:256,1,101.999996887207,12|0,0:0|0:0,0:0:0:0:
88,260,67646,1,2,0:0:0:0:
248,156,67804,1,2,0:0:0:0:
192,352,67962,1,8,0:0:0:0:
78,70,68120,1,0,0:0:0:0:
319,234,68278,6,0,L|333:132,1,101.999996887207,2|0,0:0|0:0,0:0:0:0:
102,158,68594,2,0,L|87:259,1,101.999996887207,8|0,0:0|0:0,0:0:0:0:
376,48,68909,1,2,0:0:0:0:
176,208,69067,1,2,0:0:0:0:
416,312,69225,2,0,P|414:261|394:214,1,101.999996887207,8|0,0:0|0:0,0:0:0:0:
176,48,69541,5,2,0:0:0:0:
332,160,69699,1,0,0:0:0:0:
139,161,69857,1,8,0:0:0:0:
293,47,70015,1,0,0:0:0:0:
234,229,70173,5,2,0:0:0:0:
132,140,70331,1,2,0:0:0:0:
339,139,70488,1,8,0:0:0:0:
74,55,70646,1,0,0:0:0:0:
74,55,70725,1,0,0:0:0:0:
74,55,70804,6,0,L|48:153,1,101.999996887207,2|0,0:0|0:0,0:0:0:0:
116,356,71120,2,0,P|135:309|140:258,1,101.999996887207,8|0,0:0|0:0,0:0:0:0:
216,92,71436,1,2,0:0:0:0:
322,241,71594,1,2,0:0:0:0:
140,258,71752,2,0,L|38:248,1,101.999996887207,8|0,0:0|0:0,0:0:0:0:
296,148,72067,5,2,0:0:0:0:
197,179,72225,1,0,0:0:0:0:
274,248,72383,1,8,0:0:0:0:
219,79,72541,1,0,0:0:0:0:
373,217,72699,1,2,0:0:0:0:
197,179,72857,1,2,0:0:0:0:
296,148,73015,1,8,0:0:0:0:
176,280,73173,1,0,0:0:0:0:
395,117,73331,5,2,0:0:0:0:
251,349,73488,1,0,0:0:0:0:
101,210,73646,1,8,0:0:0:0:
373,217,73804,1,0,0:0:0:0:
197,179,73962,1,2,0:0:0:0:
349,317,74120,1,2,0:0:0:0:
176,280,74278,1,8,0:0:0:0:
220,80,74436,1,0,0:0:0:0:
251,349,74594,5,2,0:0:0:0:
395,117,74752,1,0,0:0:0:0:
122,109,74909,1,8,0:0:0:0:
349,317,75067,1,0,0:0:0:0:
318,48,75225,1,2,0:0:0:0:
101,210,75383,1,2,0:0:0:0:
468,186,75541,1,8,0:0:0:0:
145,11,75699,1,0,0:0:0:0:
154,378,75857,5,2,0:0:0:0:
395,117,76015,1,0,0:0:0:0:
395,117,76094,1,0,0:0:0:0:
395,117,76173,1,12,0:0:0:0:
122,109,76331,1,0,0:0:0:0:
251,349,76488,1,6,0:0:0:0:
289,344,76567,1,0,0:0:0:0:
327,340,76646,1,0,0:0:0:0:
365,335,76725,1,0,0:0:0:0:
403,330,76804,6,0,L|413:280,1,50.9999984436036,12|0,0:0|0:0,0:0:0:0:
318,48,76962,2,0,L|307:97,1,50.9999984436036
176,280,77120,6,0,P|125:272|75:278,1,101.999996887207,2|0,0:0|0:0,0:0:0:0:
56,68,77436,2,0,L|75:168,1,101.999996887207,12|0,0:0|0:0,0:0:0:0:
296,168,77752,1,2,0:0:0:0:
136,208,77909,1,2,0:0:0:0:
320,160,78067,2,0,L|301:260,1,101.999996887207,8|0,0:0|0:0,0:0:0:0:
56,308,78383,6,0,P|106:310|155:297,1,101.999996887207,2|0,0:0|0:0,0:0:0:0:
144,136,78699,1,8,0:0:0:0:
251,349,78857,1,0,0:0:0:0:
364,76,79015,2,0,P|313:73|264:86,1,101.999996887207,2|2,0:0|0:0,0:0:0:0:
400,296,79331,2,0,L|414:195,1,101.999996887207,8|0,0:0|0:0,0:0:0:0:
136,208,79646,5,2,0:0:0:0:
320,160,79804,1,0,0:0:0:0:
148,324,79962,1,8,0:0:0:0:
91,93,80120,1,0,0:0:0:0:
419,210,80278,5,2,0:0:0:0:
188,68,80436,1,2,0:0:0:0:
396,112,80594,1,8,0:0:0:0:
88,272,80752,1,0,0:0:0:0:
443,310,80909,6,0,L|395:111,1,203.999993774414,2|8,0:0|0:0,0:0:0:0:
192,208,81383,1,0,0:0:0:0:
192,208,81462,1,0,0:0:0:0:
192,208,81541,2,0,P|240:221|291:216,1,101.999996887207,2|2,0:0|0:0,0:0:0:0:
456,32,81857,2,0,P|407:18|356:23,1,101.999996887207,8|0,0:0|0:0,0:0:0:0:
100,140,82173,5,2,0:0:0:0:
316,200,82331,1,0,0:0:0:0:
238,62,82488,1,8,0:0:0:0:
177,278,82646,1,0,0:0:0:0:
363,131,82804,2,0,P|394:171|394:221,1,101.999996887207,2|2,0:0|0:0,0:0:0:0:
292,320,83120,1,8,0:0:0:0:
152,68,83278,1,0,0:0:0:0:
32,268,83436,5,2,0:0:0:0:
216,184,83594,1,0,0:0:0:0:
82,342,83752,1,12,0:0:0:0:
100,140,83909,1,0,0:0:0:0:
291,320,84067,1,2,0:0:0:0:
248,344,84146,1,0,0:0:0:0:
198,338,84225,1,0,0:0:0:0:
161,304,84304,1,0,0:0:0:0:
151,254,84383,1,8,0:0:0:0:
171,209,84462,1,0,0:0:0:0:
216,184,84541,2,0,L|266:190,1,50.9999984436036
423,360,84699,6,0,P|467:270|436:175,1,203.999993774414,6|0,1:2|1:0,0:0:0:0:
232,264,85173,1,0,1:0:0:0:
232,264,85488,1,0,1:0:0:0:
232,264,85804,1,0,1:0:0:0:
232,264,86120,5,0,1:0:0:0:
197,226,86199,1,0,0:0:0:0:
150,210,86278,1,8,0:0:0:0:
100,219,86357,1,0,0:0:0:0:
61,252,86436,1,8,0:0:0:0:
43,299,86515,1,0,0:0:0:0:
50,349,86594,6,0,L|98:330,1,50.9999984436036,12|0,0:0|0:0,0:0:0:0:
200,144,86752,2,0,L|152:125,1,50.9999984436036,8|0,0:0|0:0,0:0:0:0:
296,348,86909,1,8,0:0:0:0:
300,297,86988,1,0,0:0:0:0:
304,246,87067,1,0,0:0:0:0:
309,195,87146,1,0,0:0:0:0:
313,144,87225,5,6,0:0:0:0:
140,312,87383,1,0,0:0:0:0:
208,120,87541,1,2,0:0:0:0:
407,255,87699,1,0,0:0:0:0:
349,81,87857,1,8,0:0:0:0:
129,179,88015,1,0,0:0:0:0:
179,24,88173,1,2,0:0:0:0:
412,83,88331,1,0,0:0:0:0:
244,256,88488,5,6,0:0:0:0:
272,32,88646,1,0,0:0:0:0:
129,179,88804,1,2,0:0:0:0:
407,255,88962,1,0,0:0:0:0:
128,324,89120,5,8,0:0:0:0:
267,68,89278,1,0,0:0:0:0:
339,350,89436,1,2,0:0:0:0:
478,42,89594,1,0,0:0:0:0:
46,235,89752,1,6,0:0:0:0:
256,192,89909,12,4,92278,0:0:0:0:
420,140,99857,5,2,0:0:0:0:
418,150,99936,1,2,0:0:0:0:
416,160,100015,1,2,0:0:0:0:
414,171,100094,1,2,0:0:0:0:
412,181,100173,1,2,0:0:0:0:
410,192,100252,1,2,0:0:0:0:
408,202,100331,1,2,0:0:0:0:
406,213,100409,1,2,0:0:0:0:
405,223,100488,1,2,0:0:0:0:
403,234,100567,1,2,0:0:0:0:
401,244,100646,1,2,0:0:0:0:
399,255,100725,1,2,0:0:0:0:
397,265,100804,1,2,0:0:0:0:
395,275,100883,1,2,0:0:0:0:
393,286,100962,1,2,0:0:0:0:
392,296,101041,1,2,0:0:0:0:
390,307,101120,5,6,0:0:0:0:
109,320,101436,1,2,0:0:0:0:
216,264,101594,1,0,1:0:0:0:
284,364,101752,1,2,0:0:0:0:
292,152,102067,1,2,0:0:0:0:
292,152,102699,1,2,0:0:0:0:
120,60,103173,1,0,3:0:0:0:
120,60,103252,1,0,3:0:0:0:
120,60,103331,2,0,P|114:92|111:124,1,63.7500024318696,0|0,3:0|0:0,0:0:0:0:
176,252,103646,6,0,P|134:244|91:245,1,85,2|0,0:0|0:0,0:0:0:0:
348,232,103962,1,10,0:0:0:0:
272,352,104120,1,0,0:0:0:0:
216,184,104278,2,0,P|211:142|226:102,1,85,2|0,0:0|0:0,0:0:0:0:
384,144,104594,1,10,0:0:0:0:
120,56,104752,1,0,0:0:0:0:
68,272,104909,5,2,0:0:0:0:
240,204,105067,1,0,0:0:0:0:
168,352,105225,1,10,0:0:0:0:
304,152,105383,1,0,0:0:0:0:
120,148,105541,1,2,0:0:0:0:
312,328,105699,1,0,0:0:0:0:
372,72,105857,2,0,P|335:50|293:47,1,85,10|0,0:0|0:0,0:0:0:0:
332,240,106173,6,0,L|455:209,1,127.500004863739,6|2,0:0|0:0,0:0:0:0:
375,334,106646,2,0,P|343:328|312:328,1,63.7500024318696,0|2,1:0|0:0,0:0:0:0:
168,352,107120,1,2,0:0:0:0:
84,252,107752,1,2,0:0:0:0:
144,140,108225,1,0,3:0:0:0:
144,140,108304,1,0,3:0:0:0:
144,140,108383,2,0,P|151:108|153:77,1,63.7500024318696,0|0,3:0|0:0,0:0:0:0:
48,92,108699,5,2,0:0:0:0:
228,16,108857,1,0,0:0:0:0:
96,32,109015,1,10,0:0:0:0:
288,64,109173,1,0,0:0:0:0:
64,224,109331,5,2,0:0:0:0:
256,256,109488,1,0,0:0:0:0:
124,272,109646,1,10,0:0:0:0:
304,196,109804,1,0,0:0:0:0:
176,144,109962,5,2,0:0:0:0:
334,339,110120,1,2,0:0:0:0:
354,335,110199,1,2,0:0:0:0:
375,331,110278,1,10,0:0:0:0:
396,327,110357,1,2,0:0:0:0:
417,323,110436,1,2,0:0:0:0:
438,319,110515,1,2,0:0:0:0:
458,314,110594,5,2,0:0:0:0:
435,269,110673,1,2,0:0:0:0:
399,231,110752,1,2,0:0:0:0:
354,206,110831,1,2,0:0:0:0:
304,196,110909,1,10,0:0:0:0:
252,200,110988,1,2,0:0:0:0:
204,219,111067,1,2,0:0:0:0:
164,251,111146,1,2,0:0:0:0:
135,296,111225,6,0,P|56:309|6:246,1,170,6|8,0:0|0:0,0:0:0:0:
256,312,111699,1,0,0:0:0:0:
84,236,111857,2,0,L|77:151,1,85
208,44,112173,2,0,L|201:128,1,85,10|0,0:0|0:0,0:0:0:0:
340,59,112488,6,0,P|380:47|421:56,1,85
240,224,112804,1,10,0:0:0:0:
384,144,112962,1,0,0:0:0:0:
200,128,113120,1,0,0:0:0:0:
340,312,113278,1,0,0:0:0:0:
340,312,113357,1,0,0:0:0:0:
339,312,113436,2,0,P|351:271|349:228,1,85,10|0,0:0|0:0,0:0:0:0:
252,64,113752,5,2,0:0:0:0:
136,208,113909,1,0,0:0:0:0:
44,48,114067,1,10,0:0:0:0:
108,280,114225,1,0,0:0:0:0:
280,136,114383,1,0,0:0:0:0:
144,348,114541,1,0,0:0:0:0:
48,124,114699,1,10,0:0:0:0:
328,76,114857,1,0,0:0:0:0:
192,274,115015,6,0,L|107:279,1,85
195,140,115331,2,0,L|280:135,1,85,10|0,0:0|0:0,0:0:0:0:
363,335,115646,1,0,0:0:0:0:
419,79,115804,1,0,0:0:0:0:
163,23,115962,1,0,0:0:0:0:
107,279,116120,1,0,0:0:0:0:
476,192,116278,5,6,0:0:0:0:
280,276,118331,1,0,1:0:0:0:
251,244,118409,1,0,1:0:0:0:
214,224,118488,1,0,1:0:0:0:
384,240,118646,2,0,L|425:231,1,42.5,0|0,1:0|0:0,0:0:0:0:
172,218,118804,6,0,P|130:221|89:235,1,85,4|0,0:0|0:0,0:0:0:0:
285,360,119120,2,0,L|280:276,1,85,10|0,0:0|0:0,0:0:0:0:
151,55,119436,2,0,P|184:82|225:90,1,85
456,192,119752,2,0,P|423:165|382:157,1,85,10|0,0:0|0:0,0:0:0:0:
214,224,120067,5,6,0:0:0:0:
187,269,120146,1,0,0:0:0:0:
142,296,120225,1,0,0:0:0:0:
89,297,120304,1,0,0:0:0:0:
43,273,120383,1,10,0:0:0:0:
68,228,120462,1,0,0:0:0:0:
113,201,120541,1,0,0:0:0:0:
165,199,120620,1,0,0:0:0:0:
214,224,120699,5,0,0:0:0:0:
206,170,120778,1,0,0:0:0:0:
199,118,120857,1,0,0:0:0:0:
192,65,120936,1,0,0:0:0:0:
185,13,121015,1,10,0:0:0:0:
236,3,121094,1,0,0:0:0:0:
282,27,121173,1,0,0:0:0:0:
303,74,121252,1,0,0:0:0:0:
289,125,121331,5,6,0:0:0:0:
296,140,121804,1,0,0:0:0:0:
455,59,121962,2,0,P|463:101|461:143,1,85,8|0,0:0|0:0,0:0:0:0:
384,288,122278,2,0,P|376:246|378:204,1,85
303,74,122594,6,0,L|133:81,1,170,2|8,0:0|0:3,0:0:0:0:
56,228,123067,1,8,0:3:0:0:
176,308,123225,2,0,P|216:295|248:268,1,85,8|0,0:0|0:0,0:0:0:0:
196,116,123541,2,0,P|176:153|172:195,1,85,2|0,0:0|0:0,0:0:0:0:
360,188,123857,6,0,L|275:182,1,85,2|0,0:0|0:0,0:0:0:0:
91,313,124173,2,0,L|175:307,1,85
320,284,124488,1,8,0:3:0:0:
136,180,124646,1,8,0:3:0:0:
368,92,124804,1,8,0:3:0:0:
248,284,124962,6,0,L|254:199,1,85,8|0,0:0|0:0,0:0:0:0:
432,344,125278,2,0,L|425:259,1,85,8|0,0:0|0:0,0:0:0:0:
176,360,125594,1,8,0:0:0:0:
254,199,125752,1,0,0:0:0:0:
91,313,125909,1,0,0:0:0:0:
91,313,125988,1,0,0:0:0:0:
91,313,126067,2,0,L|50:300,1,42.5,10|0,0:0|0:0,0:0:0:0:
136,180,126225,2,0,L|176:192,1,42.5,2|0,0:0|0:0,0:0:0:0:
295,342,126383,6,0,P|363:300|431:343,1,170,6|2,0:0|0:0,0:0:0:0:
432,144,126857,1,0,0:0:0:0:
364,376,127015,1,8,0:0:0:0:
238,115,127331,2,0,L|254:199,1,85
412,264,127646,5,2,0:0:0:0:
304,80,127804,1,0,0:0:0:0:
176,251,127962,2,0,P|133:256|91:251,1,85
305,258,128278,2,0,L|294:342,1,85,8|0,0:0|0:0,0:0:0:0:
168,176,128594,2,0,L|157:91,1,85,2|0,0:0|0:0,0:0:0:0:
448,64,128909,5,4,1:2:0:0:
448,64,129225,1,0,1:0:0:0:
64,128,129383,5,0,1:0:0:0:
448,192,129699,1,0,1:0:0:0:
64,256,130015,1,4,1:2:0:0:
64,256,130331,1,8,1:2:0:0:
447,320,130488,6,0,P|458:278|461:236,1,85,8|0,1:2|0:0,0:0:0:0:
332,68,130804,5,8,0:0:0:0:
322,109,130883,1,8,0:0:0:0:
313,150,130962,1,8,0:0:0:0:
303,192,131041,1,8,0:0:0:0:
315,234,131120,5,8,0:0:0:0:
263,286,131199,1,8,0:0:0:0:
194,311,131278,1,8,0:0:0:0:
122,300,131357,1,8,0:0:0:0:
64,256,131436,6,0,P|48:207|51:157,1,101.999996887207,6|0,0:0|0:0,0:0:0:0:
256,56,131752,2,0,L|232:155,1,101.999996887207,12|0,0:0|0:0,0:0:0:0:
112,60,132067,1,2,0:0:0:0:
392,156,132225,1,2,0:0:0:0:
248,364,132383,1,8,0:0:0:0:
232,155,132541,1,0,0:0:0:0:
476,279,132699,6,0,P|426:291|375:293,1,101.999996887207,2|0,0:0|0:0,0:0:0:0:
168,380,133015,2,0,P|173:330|208:293,1,101.999996887207,8|0,0:0|0:0,0:0:0:0:
356,104,133331,1,2,0:0:0:0:
280,296,133488,1,2,0:0:0:0:
72,52,133646,1,8,0:0:0:0:
148,244,133804,1,0,0:0:0:0:
368,84,133962,6,0,L|469:73,1,101.999996887207,2|0,0:0|0:0,0:0:0:0:
144,152,134278,2,0,L|42:141,1,101.999996887207,8|0,0:0|0:0,0:0:0:0:
368,220,134594,2,0,L|469:209,1,101.999996887207,2|2,0:0|0:0,0:0:0:0:
144,288,134909,2,0,L|42:277,1,101.999996887207,8|0,0:0|0:0,0:0:0:0:
368,84,135225,5,2,0:0:0:0:
144,152,135383,1,0,0:0:0:0:
368,220,135541,1,8,0:0:0:0:
144,288,135699,1,0,0:0:0:0:
368,356,135857,2,0,P|351:308|310:279,1,101.999996887207,2|2,0:0|0:0,0:0:0:0:
244,56,136173,2,0,P|239:106|247:156,1,101.999996887207,8|0,0:0|0:0,0:0:0:0:
424,168,136488,5,2,0:0:0:0:
293,164,136646,1,0,0:0:0:0:
427,155,136804,1,8,0:0:0:0:
461,293,136962,1,0,0:0:0:0:
430,142,137120,1,2,0:0:0:0:
250,288,137278,1,2,0:0:0:0:
433,129,137436,1,8,0:0:0:0:
354,368,137594,1,0,0:0:0:0:
436,116,137752,5,2,0:0:0:0:
293,164,137909,1,0,0:0:0:0:
439,103,138067,1,8,0:0:0:0:
256,39,138225,1,0,0:0:0:0:
442,90,138383,1,2,0:0:0:0:
186,239,138541,1,2,0:0:0:0:
445,77,138699,1,8,0:0:0:0:
128,40,138857,1,0,0:0:0:0:
448,64,139015,5,2,0:0:0:0:
308,272,139173,1,0,0:0:0:0:
82,159,139331,1,8,0:0:0:0:
232,360,139488,1,0,0:0:0:0:
289,52,139646,1,2,0:0:0:0:
112,336,139804,1,2,0:0:0:0:
447,348,139962,1,8,0:0:0:0:
84,192,140120,1,0,0:0:0:0:
503,60,140278,5,2,0:0:0:0:
252,288,140436,1,0,0:0:0:0:
252,288,140515,1,0,0:0:0:0:
252,288,140594,1,12,0:0:0:0:
28,36,140752,1,0,0:0:0:0:
300,224,140909,1,6,0:0:0:0:
332,277,140988,1,0,0:0:0:0:
317,337,141067,1,0,0:0:0:0:
263,368,141146,1,0,0:0:0:0:
203,354,141225,6,0,L|148:344,1,50.9999984436036,12|0,0:0|0:0,0:0:0:0:
8,120,141383,2,0,L|63:110,1,50.9999984436036
300,224,141541,6,0,L|199:242,1,101.999996887207,2|0,0:0|0:0,0:0:0:0:
340,92,141857,2,0,P|391:94|440:80,1,101.999996887207,12|0,0:0|0:0,0:0:0:0:
184,132,142173,1,2,0:0:0:0:
368,200,142331,1,2,0:0:0:0:
255,12,142488,2,0,P|250:62|263:111,1,101.999996887207,8|0,0:0|0:0,0:0:0:0:
384,340,142804,6,0,P|294:296|196:318,1,203.999993774414,2|8,0:0|0:0,0:0:0:0:
56,340,143278,1,0,0:0:0:0:
92,176,143436,2,0,L|84:74,1,101.999996887207,2|2,0:0|0:0,0:0:0:0:
300,28,143752,1,8,0:0:0:0:
184,132,143909,1,0,0:0:0:0:
384,340,144067,5,2,0:0:0:0:
336,156,144225,1,0,0:0:0:0:
182,352,144383,1,8,0:0:0:0:
230,168,144541,1,0,0:0:0:0:
318,356,144699,1,2,0:0:0:0:
324,50,144857,1,2,0:0:0:0:
250,360,145015,1,8,0:0:0:0:
218,62,145173,1,0,0:0:0:0:
383,340,145331,6,0,P|284:359|182:352,1,203.999993774414,2|8,0:0|0:0,0:0:0:0:
384,144,145804,1,0,0:0:0:0:
384,144,145883,1,0,0:0:0:0:
384,144,145962,2,0,P|391:194|387:244,1,101.999996887207,2|2,0:0|0:0,0:0:0:0:
124,244,146278,2,0,P|120:194|128:143,1,101.999996887207,8|0,0:0|0:0,0:0:0:0:
444,92,146594,6,0,P|466:190|452:291,1,203.999993774414,6|8,0:0|0:0,0:0:0:0:
252,344,147067,1,0,0:0:0:0:
286,159,147225,2,0,P|333:140|383:143,1,101.999996887207,2|2,0:0|0:0,0:0:0:0:
156,340,147541,2,0,P|108:358|58:355,1,101.999996887207,8|0,0:0|0:0,0:0:0:0:
88,212,147857,5,6,0:0:0:0:
252,344,148015,1,0,0:0:0:0:
172,100,148173,1,8,0:0:0:0:
267,312,148331,1,0,0:0:0:0:
300,44,148488,6,0,L|292:94,1,50.9999984436036,8|0,0:0|0:0,0:0:0:0:
296,292,148646,2,0,L|265:250,1,50.9999984436036,8|0,0:0|0:0,0:0:0:0:
437,58,148804,2,0,L|405:97,1,50.9999984436036,8|0,0:0|0:0,0:0:0:0:
331,288,148962,2,0,L|325:237,1,50.9999984436036,8|0,0:0|0:0,0:0:0:0:
140,31,149120,6,0,P|97:100|142:166,1,170,6|8,0:0|0:0,0:0:0:0:
384,144,149594,1,0,0:0:0:0:
208,223,149752,1,2,0:0:0:0:
300,44,149909,1,2,0:0:0:0:
332,288,150067,1,8,0:0:0:0:
104,192,150225,1,0,0:0:0:0:
320,176,150383,6,0,L|403:160,1,85,2|0,0:0|0:0,0:0:0:0:
456,276,150699,1,8,0:0:0:0:
480,40,150857,1,0,0:0:0:0:
256,115,151015,2,0,P|213:115|174:100,1,85,2|2,0:0|0:0,0:0:0:0:
36,256,151331,2,0,P|36:298|51:337,1,85,8|0,0:0|0:0,0:0:0:0:
288,312,151646,6,0,B|248:268|248:268|137:275,1,170,6|8,0:0|0:0,0:0:0:0:
104,192,152120,1,0,0:0:0:0:
352,360,152278,2,0,P|365:320|356:278,1,85,2|2,0:0|0:0,0:0:0:0:
137,275,152594,1,8,0:0:0:0:
440,160,152752,1,0,0:0:0:0:
188,80,152909,6,0,P|179:121|192:161,1,85,2|0,0:0|0:0,0:0:0:0:
440,296,153225,2,0,L|356:278,1,85,8|0,0:0|0:0,0:0:0:0:
280,304,153462,1,0,0:0:0:0:
252,328,153541,2,0,L|246:285,1,42.5,2|0,0:0|0:0,0:0:0:0:
104,96,153699,2,0,L|98:138,1,42.5,2|0,0:0|0:0,0:0:0:0:
137,275,153857,1,8,0:0:0:0:
328,40,154015,1,0,0:0:0:0:
328,40,154094,1,0,0:0:0:0:
328,40,154173,6,0,P|352:120|304:188,1,170,6|8,0:0|0:0,0:0:0:0:
176,117,154646,2,0,L|260:104,1,85,0|2,0:0|0:0,0:0:0:0:
440,140,154962,1,2,0:0:0:0:
440,356,155120,1,8,0:0:0:0:
401,319,155199,1,0,0:0:0:0:
353,298,155278,1,0,0:0:0:0:
300,293,155357,1,0,0:0:0:0:
249,307,155436,5,2,0:0:0:0:
408,240,155594,1,0,0:0:0:0:
88,176,155752,1,8,0:0:0:0:
440,356,155909,2,0,L|451:271,1,85,0|2,0:0|0:0,0:0:0:0:
404,56,156225,1,2,0:0:0:0:
252,216,156383,1,8,0:0:0:0:
40,56,156541,1,0,0:0:0:0:
40,56,156620,1,0,0:0:0:0:
40,56,156699,5,14,0:0:0:0:
368,40,156857,1,10,0:0:0:0:
392,368,157015,1,10,0:0:0:0:
40,56,157173,1,10,0:0:0:0:
40,56,157488,1,10,0:0:0:0:
40,56,157804,6,0,P|32:141|50:224,1,170,6|0,0:0|0:0,0:0:0:0:
328,208,158278,2,0,P|289:190|247:189,1,85,8|0,0:0|0:0,0:0:0:0:
56,332,158594,1,2,0:0:0:0:
108,323,158673,1,2,0:0:0:0:
160,314,158752,1,2,0:0:0:0:
213,305,158831,1,2,0:0:0:0:
264,296,158909,1,8,0:0:0:0:
312,319,158988,1,8,0:0:0:0:
364,315,159067,1,8,0:0:0:0:
408,285,159146,1,8,0:0:0:0:
432,239,159225,6,0,L|425:154,1,85,6|0,0:0|0:0,0:0:0:0:
264,24,159541,2,0,L|270:108,1,85,8|0,0:0|0:0,0:0:0:0:
160,314,159857,1,2,0:0:0:0:
143,327,159936,1,2,0:0:0:0:
124,336,160015,1,2,0:0:0:0:
103,340,160094,1,2,0:0:0:0:
82,339,160173,1,10,0:0:0:0:
61,334,160252,1,2,0:0:0:0:
43,323,160331,1,2,0:0:0:0:
28,309,160409,1,2,0:0:0:0:
16,292,160488,6,0,P|4:243|21:195,1,101.999996887207,6|0,0:0|0:0,0:0:0:0:
88,76,160804,2,0,L|189:84,1,101.999996887207,8|0,0:0|0:0,0:0:0:0:
432,239,161120,1,2,0:0:0:0:
423,197,161199,1,2,0:0:0:0:
400,161,161278,1,2,0:0:0:0:
367,135,161357,1,2,0:0:0:0:
327,121,161436,1,10,0:0:0:0:
285,122,161515,1,2,0:0:0:0:
248,140,161594,1,2,0:0:0:0:
213,165,161673,1,2,0:0:0:0:
193,202,161752,6,0,L|195:320,1,118.999996368408,6|0,0:0|0:0,0:0:0:0:
400,161,162067,2,0,L|397:42,1,118.999996368408,8|0,0:0|0:0,0:0:0:0:
171,76,162383,1,2,0:0:0:0:
100,88,162462,1,2,0:0:0:0:
74,157,162541,1,2,0:0:0:0:
120,214,162620,1,2,0:0:0:0:
193,202,162699,1,10,0:0:0:0:
265,190,162778,1,2,0:0:0:0:
311,246,162857,1,2,0:0:0:0:
286,315,162936,1,2,0:0:0:0:
214,327,163015,6,0,P|150:309|84:325,1,136,6|0,0:0|0:0,0:0:0:0:
297,56,163331,2,0,P|361:74|427:58,1,136,10|0,0:0|0:0,0:0:0:0:
148,144,163646,1,2,0:0:0:0:
364,240,163804,1,2,0:0:0:0:
20,248,163962,1,10,0:0:0:0:
492,136,164120,1,2,0:0:0:0:
175,21,164278,6,0,P|140:78|147:144,1,136,6|0,0:0|0:0,0:0:0:0:
428,308,164594,1,10,0:0:0:0:
380,260,164673,1,2,0:0:0:0:
314,247,164752,1,2,0:0:0:0:
252,272,164831,1,2,0:0:0:0:
214,327,164909,1,2,0:0:0:0:
156,359,164988,1,2,0:0:0:0:
91,344,165067,1,2,0:0:0:0:
53,289,165146,1,2,0:0:0:0:
62,223,165225,6,0,P|83:196|109:174,1,68,10|0,0:0|0:0,0:0:0:0:
200,56,165383,2,0,P|233:60|265:71,1,68,2|0,0:0|0:0,0:0:0:0:
414,91,165541,6,0,P|435:155|433:222,1,136,2|0,0:0|0:0,0:0:0:0:
144,260,165857,6,0,P|125:203|125:144,1,118.999996368408,10|0,0:0|0:0,0:0:0:0:
352,128,166173,6,0,P|364:177|360:227,1,101.999996887207,2|0,0:0|0:0,0:0:0:0:
212,232,166488,6,0,P|196:192|195:150,1,85,10|0,0:0|0:0,0:0:0:0:
366,44,166804,5,12,0:0:0:0:
326,58,166883,1,0,0:0:0:0:
284,64,166962,1,0,0:0:0:0:
241,64,167041,1,0,0:0:0:0:
200,56,167120,1,0,0:0:0:0:
160,48,167199,1,0,0:0:0:0:
117,56,167278,5,4,0:0:0:0:
142,103,167356,1,0,0:0:0:0:
151,158,167435,1,0,0:0:0:0:
144,213,167514,1,0,0:0:0:0:
120,262,167593,1,0,0:0:0:0:
82,302,167672,1,0,0:0:0:0:
32,327,167752,6,0,P|26:299|25:272,1,55.2499974708558,12|0,0:0|0:0,0:0:0:0:
223,136,167909,2,0,P|230:162|232:190,1,55.2499974708558
10,172,168067,2,0,P|37:171|64:179,1,55.2499974708558
268,365,168225,5,12,0:0:0:0:
323,365,168304,1,0,0:0:0:0:
374,344,168383,1,0,0:0:0:0:
408,302,168462,1,0,0:0:0:0:
408,248,168541,1,0,0:0:0:0:
366,214,168620,1,0,0:0:0:0:
309,203,168699,5,6,0:0:0:0:
285,133,168778,1,2,0:0:0:0:
309,62,168857,1,2,0:0:0:0:
372,22,168936,1,2,0:0:0:0:
446,28,169015,1,2,0:0:0:0:
500,79,169094,1,2,0:0:0:0:
512,153,169173,1,2,0:0:0:0:
476,218,169252,1,2,0:0:0:0:
408,248,169331,5,6,0:0:0:0:
396,236,169804,1,0,0:0:0:0:
180,280,169962,2,0,P|221:287|262:277,1,85,8|0,0:0|0:0,0:0:0:0:
400,132,170278,2,0,P|358:124|317:134,1,85
136,348,170594,6,0,P|100:275|145:207,1,170,2|0,0:0|0:0,0:0:0:0:
368,316,171067,1,0,0:0:0:0:
368,316,171146,1,0,0:0:0:0:
368,316,171225,2,0,L|284:305,1,85,8|0,0:0|0:0,0:0:0:0:
96,140,171541,2,0,L|179:129,1,85,2|0,0:0|0:0,0:0:0:0:
400,132,171857,6,0,L|407:47,1,85
200,56,172173,1,0,0:0:0:0:
360,220,172331,1,0,0:0:0:0:
96,300,172488,1,8,0:3:0:0:
172,176,172646,1,8,0:3:0:0:
241,303,172804,1,8,0:3:0:0:
96,140,172962,6,0,P|88:98|92:56,1,85,8|0,0:0|0:0,0:0:0:0:
360,220,173278,2,0,P|367:178|363:136,1,85,8|0,0:0|0:0,0:0:0:0:
96,300,173594,1,8,0:0:0:0:
160,104,173752,1,2,0:0:0:0:
272,228,173909,1,0,0:0:0:0:
272,228,173988,1,0,0:0:0:0:
272,228,174067,2,0,L|284:187,1,42.5,10|0,0:0|0:0,0:0:0:0:
96,232,174225,2,0,L|108:272,1,42.5,2|0,0:0|0:0,0:0:0:0:
224,352,174383,6,0,L|392:326,1,170,6|0,0:0|0:0,0:0:0:0:
464,120,174857,1,0,0:0:0:0:
272,228,175015,2,0,L|268:143,1,85,8|0,0:0|0:0,0:0:0:0:
424,56,175331,2,0,L|427:140,1,85
200,276,175646,6,0,L|192:106,1,170,2|8,0:0|0:3,0:0:0:0:
336,56,176120,1,8,0:3:0:0:
356,232,176278,2,0,P|313:234|271:227,1,85,8|0,0:0|0:0,0:0:0:0:
36,296,176594,2,0,P|78:297|120:290,1,85,2|0,0:0|0:0,0:0:0:0:
312,336,176909,5,4,1:2:0:0:
312,336,177225,1,0,1:0:0:0:
56,212,177383,5,0,1:0:0:0:
392,308,177699,1,0,1:0:0:0:
48,127,178015,1,4,1:2:0:0:
48,127,178331,1,8,1:2:0:0:
471,280,178488,6,0,P|487:240|492:198,1,85,8|0,1:2|0:0,0:0:0:0:
440,68,178804,5,0,0:0:0:0:
425,77,178883,5,0,0:0:0:0:
400,84,178962,5,0,0:0:0:0:
366,81,179041,5,0,0:0:0:0:
326,65,179120,5,0,0:0:0:0:
275,57,179199,5,0,0:0:0:0:
219,79,179278,5,0,0:0:0:0:
175,131,179357,5,0,0:0:0:0:
162,206,179436,5,2,0:0:0:0:
256,192,184488,5,2,0:0:0:0:
256,192,185752,1,2,0:0:0:0:
256,192,187015,5,2,0:0:0:0:
256,192,187331,1,2,0:0:0:0:
256,192,187646,1,2,0:0:0:0:
256,192,187962,1,2,0:0:0:0:
256,192,188278,5,8,0:0:0:0:
285,228,188357,1,8,0:0:0:0:
290,275,188436,1,8,0:0:0:0:
270,317,188515,1,8,0:0:0:0:
229,341,188594,1,8,0:0:0:0:
182,340,188673,1,8,0:0:0:0:
143,313,188752,1,8,0:0:0:0:
125,269,188831,1,8,0:0:0:0:
134,223,188909,5,8,0:0:0:0:
178,252,188988,1,8,0:0:0:0:
229,264,189067,1,8,0:0:0:0:
282,257,189146,1,8,0:0:0:0:
329,233,189225,1,8,0:0:0:0:
364,194,189304,1,8,0:0:0:0:
384,145,189383,1,8,0:0:0:0:
386,92,189462,1,8,0:0:0:0:
369,42,189541,6,0,L|259:28,1,110.499994941712,6|0,0:0|0:0,0:0:0:0:
68,164,189857,2,0,P|117:140|171:147,1,110.499994941712,12|0,0:0|0:0,0:0:0:0:
348,344,190173,1,2,0:0:0:0:
292,104,190331,1,2,0:0:0:0:
204,336,190488,1,8,0:0:0:0:
449,297,190646,1,0,0:0:0:0:
168,344,190804,6,0,L|56:328,1,110.499994941712,2|0,0:0|0:0,0:0:0:0:
152,88,191120,1,8,0:0:0:0:
220,208,191278,1,0,0:0:0:0:
248,48,191436,1,2,0:0:0:0:
124,248,191594,1,2,0:0:0:0:
352,68,191752,1,8,0:0:0:0:
20,228,191909,1,0,0:0:0:0:
336,208,192067,5,2,0:0:0:0:
152,88,192225,1,0,0:0:0:0:
312,286,192383,1,8,0:0:0:0:
248,48,192541,1,0,0:0:0:0:
251,340,192699,1,2,0:0:0:0:
352,68,192857,1,2,0:0:0:0:
171,354,193015,1,8,0:0:0:0:
427,142,193173,1,0,0:0:0:0:
95,322,193331,6,0,P|96:218|192:176,1,220.999989883423,2|8,0:0|0:0,0:0:0:0:
436,344,193804,1,0,0:0:0:0:
436,344,193883,1,0,0:0:0:0:
436,344,193962,2,0,L|445:233,1,110.499994941712,2|2,0:0|0:0,0:0:0:0:
166,161,194278,2,0,L|176:272,1,110.499994941712,8|0,0:0|0:0,0:0:0:0:
427,142,194594,5,6,0:0:0:0:
219,54,194752,1,0,0:0:0:0:
338,349,194909,1,8,0:0:0:0:
130,262,195067,1,0,0:0:0:0:
464,204,195225,2,0,L|478:94,1,110.499994941712,2|2,0:0|0:0,0:0:0:0:
232,232,195541,2,0,P|227:286|247:337,1,110.499994941712,8|0,0:0|0:0,0:0:0:0:
388,268,195857,5,2,0:0:0:0:
130,262,196015,1,0,0:0:0:0:
408,136,196173,1,8,0:0:0:0:
110,130,196331,1,0,0:0:0:0:
360,344,196488,1,0,0:0:0:0:
414,346,196567,1,0,0:0:0:0:
457,314,196646,1,0,0:0:0:0:
469,261,196725,1,0,0:0:0:0:
445,212,196804,6,0,P|432:187|425:160,1,55.2499974708558,8|0,0:0|0:0,0:0:0:0:
280,72,196962,2,0,P|273:98|260:123,1,55.2499974708558
56,296,197120,6,0,L|274:265,1,220.999989883423,4|0,1:2|1:0,0:0:0:0:
364,56,197594,1,0,1:0:0:0:
364,56,197909,1,0,1:0:0:0:
364,56,198225,1,0,1:0:0:0:
364,56,198541,5,0,1:0:0:0:
331,111,198620,1,0,0:0:0:0:
281,151,198699,1,8,0:0:0:0:
220,170,198778,1,0,0:0:0:0:
156,165,198857,1,0,0:0:0:0:
99,137,198936,1,0,0:0:0:0:
55,90,199015,6,0,P|44:65|42:37,1,55.2499974708558,8|0,0:0|0:0,0:0:0:0:
248,44,199173,2,0,P|246:71|234:96,1,55.2499974708558
44,224,199331,2,0,P|32:198|30:171,1,55.2499974708558,8|0,0:0|0:0,0:0:0:0:
352,188,199488,2,0,P|350:215|338:240,1,55.2499974708558
32,357,199646,5,6,0:0:0:0:
228,312,199804,1,0,0:0:0:0:
120,200,199962,1,0,0:0:0:0:
136,364,200120,1,0,0:0:0:0:
55,90,200278,5,8,0:0:0:0:
92,304,200436,1,0,0:0:0:0:
259,165,200594,1,0,0:0:0:0:
44,224,200752,1,0,0:0:0:0:
370,265,200909,5,6,0:0:0:0:
120,200,201067,1,0,0:0:0:0:
212,357,201225,1,0,0:0:0:0:
320,80,201383,1,0,0:0:0:0:
92,304,201541,5,8,0:0:0:0:
408,136,201699,1,0,0:0:0:0:
152,0,201857,1,0,0:0:0:0:
141,378,202015,1,0,0:0:0:0:
474,197,202173,5,6,0:0:0:0:
474,197,202804,5,2,0:0:0:0:
454,204,202883,1,2,0:0:0:0:
434,210,202962,1,2,0:0:0:0:
414,215,203041,1,2,0:0:0:0:
394,218,203120,1,2,0:0:0:0:
373,220,203199,1,2,0:0:0:0:
352,220,203278,1,2,0:0:0:0:
332,220,203357,1,2,0:0:0:0:
312,216,203436,6,0,L|300:162,1,55.2499974708558,8|0,0:0|0:0,0:0:0:0:
192,56,203594,2,0,L|203:109,1,55.2499974708558,8|0,0:0|0:0,0:0:0:0:
144,308,203752,2,0,L|132:254,1,55.2499974708558,8|0,0:0|0:0,0:0:0:0:
4,28,203909,2,0,L|15:81,1,55.2499974708558,8|0,0:0|0:0,0:0:0:0:
264,332,204067,6,0,B|308:324|308:324|364:360|428:334,1,170,2|0,0:0|0:0,0:0:0:0:
427,335,204699,5,14,1:2:0:0:
