osu file format v14

[General]
AudioFilename: slow name.mp3
AudioLeadIn: 0
PreviewTime: 108565
Countdown: 0
SampleSet: Soft
StackLeniency: 0.5
Mode: 0
LetterboxInBreaks: 0
WidescreenStoryboard: 1

[Editor]
Bookmarks: 1674,13674,25674,37849,46662,49662,61674,67662,73674,97592,109592,119904,130592,133592,145592,159092,183092,195092,207092,219092,231092,237092,243092,261092,274592,277592,289592,295592,302904,304779
DistanceSpacing: 0.5
BeatDivisor: 4
GridSize: 32
TimelineZoom: 3.65

[Metadata]
Title:SLoWMoTIoN
TitleUnicode:すろぉもぉしょん
Artist:nameless
ArtistUnicode:nameless
Creator:Milan-
Version:LoLIS
Source:
Tags:moe kawaii desu ピノキオP様 Pinocchio slow motion
BeatmapID:988793
BeatmapSetID:295848

[Difficulty]
HPDrainRate:6
CircleSize:4.3
OverallDifficulty:8
ApproachRate:9
SliderMultiplier:1.7
SliderTickRate:1

[Events]
//Background and Video events
Video,0,"slow name.avi"
0,0,"a.jpg",0,0
//Break Periods
//Storyboard Layer 0 (Background)
//Storyboard Layer 1 (Fail)
//Storyboard Layer 2 (Pass)
//Storyboard Layer 3 (Foreground)
//Storyboard Sound Samples

[TimingPoints]
1597,375,4,1,1,65,1,0
10597,-100,4,2,1,65,0,0
11909,-125,4,2,1,65,0,0
13222,-90.9090909090909,4,3,1,68,0,0
13597,-100,4,2,1,75,0,0
25597,-125,4,2,1,60,0,0
35909,-125,4,2,1,70,0,0
37972,-111.111111111111,4,2,1,70,0,0
46597,-100,4,2,1,75,0,0
48097,-100,4,2,1,70,0,0
49597,-125,4,2,1,60,0,0
59722,-125,4,2,1,70,0,0
61222,-83.3333333333333,4,2,1,70,0,0
61597,-100,4,2,1,75,0,0
67597,-125,4,2,1,70,0,0
70597,-125,4,2,1,75,0,0
73222,-100,4,3,1,65,0,0
73597,-100,4,2,1,80,0,1
85222,-100,4,3,1,75,0,0
85597,-100,4,2,1,80,0,1
94222,-100,4,3,1,80,0,1
94597,-100,4,2,1,80,0,1
96659,-125,4,2,1,80,0,1
97222,-125,4,2,1,65,0,1
97597,-100,4,2,1,75,0,0
109597,-166.666666666667,4,2,1,50,0,0
118597,-200,4,2,1,50,0,0
119909,-90.9090909090909,4,2,1,75,0,0
122159,-125,4,2,1,75,0,0
122534,-100,4,2,1,75,0,0
123284,-90.9090909090909,4,2,1,75,0,0
123659,-125,4,2,1,75,0,0
124222,-111.111111111111,4,2,1,75,0,0
124597,-111.111111111111,4,2,1,70,0,0
130597,-100,4,2,1,75,0,0
132097,-100,4,2,1,70,0,0
133597,-125,4,2,1,60,0,0
144097,-111.111111111111,4,2,1,70,0,0
144472,-100,4,2,1,70,0,0
145597,-111.111111111111,4,2,1,60,0,0
150847,-100,4,2,1,65,0,0
151597,-125,4,1,1,75,0,0
154597,-125,4,2,1,70,0,0
157597,-125,4,2,1,65,0,0
157972,-111.111111111111,4,2,1,65,0,0
158722,-125,4,2,1,65,0,0
159097,-100,4,2,1,80,0,1
170722,-100,4,2,1,75,0,0
171097,-100,4,2,1,80,0,1
182159,-125,4,2,1,80,0,1
182722,-83.3333333333333,4,2,1,70,0,1
183097,-100,4,2,1,70,0,0
184034,-125,4,2,1,70,0,0
184597,-111.111111111111,4,2,1,70,0,0
185722,-125,4,2,1,70,0,0
186097,-100,4,2,1,70,0,0
187034,-125,4,2,1,70,0,0
187597,-111.111111111111,4,2,1,70,0,0
189097,-125,4,2,1,65,0,0
193597,-111.111111111111,4,2,1,70,0,0
194722,-125,4,2,1,65,0,0
195097,-100,4,2,1,75,0,0
201097,-125,4,2,1,75,0,0
201472,-90.9090909090909,4,2,1,75,0,0
201847,-125,4,2,1,75,0,0
202222,-90.9090909090909,4,2,1,75,0,0
202597,-125,4,2,1,75,0,0
202972,-90.9090909090909,4,2,1,75,0,0
203347,-125,4,2,1,75,0,0
203722,-90.9090909090909,4,2,1,75,0,0
204097,-100,4,2,1,75,0,0
205597,-125,4,2,1,75,0,0
207097,-125,4,1,1,55,0,0
213097,-125,4,1,1,58,0,0
219097,-111.111111111111,4,1,1,62,0,0
225097,-111.111111111111,4,1,1,66,0,0
229597,-125,4,1,1,69,0,0
231097,-125,4,2,1,73,0,0
235597,-100,4,2,1,78,0,0
237097,-125,4,2,1,70,0,1
237190,-111.111111111111,4,2,1,75,0,0
238784,-125,4,2,1,75,0,0
240847,-125,4,2,1,75,0,0
241409,-111.111111111111,4,2,1,75,0,0
241784,-125,4,2,1,75,0,0
243097,-100,4,2,1,80,0,1
248722,-100,4,2,1,75,0,1
249003,-100,4,2,1,75,0,0
249472,-125,4,2,1,80,0,1
255097,-100,4,2,1,80,0,1
260534,-125,4,2,1,70,0,0
261097,-100,4,2,1,80,0,1
269722,-100,4,2,1,75,0,1
270097,-100,4,2,1,80,0,1
274597,-100,4,2,1,70,0,0
274784,-125,4,2,1,50,0,0
276659,-166.666666666667,4,2,1,60,0,0
277597,-100,4,2,1,75,0,0
301597,-100,4,2,1,70,0,0

[Colours]
Combo1 : 219,77,101
Combo2 : 198,204,149
Combo3 : 118,108,236
Combo4 : 105,209,159

[HitObjects]
350,118,1597,5,2,0:0:0:0:
254,154,1784,1,0,0:0:0:0:
254,154,1878,1,0,0:0:0:0:
254,154,1972,1,2,0:0:0:0:
274,54,2159,1,0,0:0:0:0:
274,54,2253,1,0,0:0:0:0:
274,54,2347,1,2,0:0:0:0:
179,92,2534,1,2,0:0:0:0:
179,92,2628,1,0,0:0:0:0:
179,92,2722,1,0,0:0:0:0:
350,118,2909,5,2,0:0:0:0:
350,118,3003,1,0,0:0:0:0:
350,118,3097,1,0,0:0:0:0:
211,239,3284,1,2,0:0:0:0:
211,239,3378,1,0,0:0:0:0:
211,239,3472,1,0,0:0:0:0:
382,265,3659,1,2,0:0:0:0:
382,265,3753,1,0,0:0:0:0:
382,265,3847,1,2,0:0:0:0:
254,154,4034,1,0,0:0:0:0:
212,146,4127,1,0,0:0:0:0:
171,157,4221,1,2,0:0:0:0:
139,184,4315,1,0,0:0:0:0:
121,222,4409,1,0,0:0:0:0:
121,265,4502,1,0,0:0:0:0:
139,303,4597,6,0,L|225:313,1,85,2|0,0:0|0:0,0:0:0:0:
231,321,4878,1,0,0:0:0:0:
239,328,4972,1,2,0:0:0:0:
305,202,5159,1,0,0:0:0:0:
302,215,5253,1,0,0:0:0:0:
299,228,5347,1,2,0:0:0:0:
224,125,5534,1,2,0:0:0:0:
225,139,5628,1,0,0:0:0:0:
225,152,5722,1,0,0:0:0:0:
135,60,5909,5,2,0:0:0:0:
138,72,6003,1,0,0:0:0:0:
142,85,6097,1,0,0:0:0:0:
127,201,6284,1,2,0:0:0:0:
131,188,6378,1,0,0:0:0:0:
134,176,6472,1,0,0:0:0:0:
219,22,6659,1,2,0:0:0:0:
222,34,6753,1,0,0:0:0:0:
226,47,6847,1,2,0:0:0:0:
225,200,7034,1,0,0:0:0:0:
245,163,7127,1,0,0:0:0:0:
277,134,7221,1,2,0:0:0:0:
315,117,7315,1,0,0:0:0:0:
357,112,7409,1,0,0:0:0:0:
399,121,7502,1,0,0:0:0:0:
435,143,7597,6,0,L|452:237,1,85,6|0,0:0|0:0,0:0:0:0:
458,233,7878,1,0,0:0:0:0:
466,238,7972,1,2,0:0:0:0:
377,308,8159,1,0,0:0:0:0:
387,306,8253,1,0,0:0:0:0:
396,302,8347,1,2,0:0:0:0:
313,225,8534,1,2,0:0:0:0:
323,227,8628,1,0,0:0:0:0:
332,231,8722,1,0,0:0:0:0:
278,321,8909,5,2,0:0:0:0:
269,325,9003,1,0,0:0:0:0:
259,328,9097,1,0,0:0:0:0:
190,221,9284,1,2,0:0:0:0:
200,223,9378,1,0,0:0:0:0:
209,227,9472,1,0,0:0:0:0:
160,326,9659,1,2,0:0:0:0:
151,330,9753,1,0,0:0:0:0:
141,332,9847,1,2,0:0:0:0:
48,220,10034,1,0,0:0:0:0:
88,232,10127,1,0,0:0:0:0:
129,226,10221,1,2,0:0:0:0:
164,202,10315,1,0,0:0:0:0:
184,165,10409,1,0,0:0:0:0:
187,123,10502,1,0,0:0:0:0:
170,84,10597,6,0,P|161:44|168:-12,1,85,6|0,1:0|3:0,0:0:0:0:
176,12,10878,1,0,3:0:0:0:
187,24,10972,1,8,0:0:0:0:
277,63,11347,5,12,0:0:0:0:
93,136,11534,1,8,0:0:0:0:
182,179,11909,6,0,P|211:221|217:272,1,102,12|0,0:0|0:0,0:0:0:0:
208,286,12284,1,0,0:0:0:0:
133,253,12472,2,0,P|112:251|61:262,1,68
218,366,12847,1,12,0:0:0:0:
324,295,13222,6,0,P|303:304|283:317,1,46.7500014266968,8|4,3:0|0:0,0:0:0:0:
370,225,13409,2,0,P|348:216|325:211,1,46.7500014266968,8|4,0:0|0:0,0:0:0:0:
453,211,13597,6,0,P|431:154|364:99,1,127.5,6|0,0:1|0:0,0:0:0:0:
362,108,13972,2,0,P|326:85|305:48,1,85,10|2,0:0|0:0,0:0:0:0:
473,17,14347,2,0,L|389:26,1,85,2|0,0:1|0:0,0:0:0:0:
249,124,14722,1,8,0:0:0:0:
306,39,14909,1,0,0:0:0:0:
143,15,15097,6,0,P|139:57|151:98,1,85,2|0,0:0|0:0,0:0:0:0:
215,138,15378,1,0,0:0:0:0:
215,138,15472,2,0,P|171:149|129:176,1,85,10|0,0:0|0:0,0:0:0:0:
81,212,15753,1,0,0:0:0:0:
81,212,15847,2,0,P|118:215|168:243,1,85,2|0,0:0|0:0,0:0:0:0:
222,347,16222,1,8,0:0:0:0:
240,309,16315,1,8,0:0:0:0:
276,287,16409,1,8,0:0:0:0:
318,284,16503,1,8,0:0:0:0:
358,298,16597,6,0,P|420:293|472:244,1,127.5,6|0,0:1|0:0,0:0:0:0:
450,250,16972,2,0,P|434:222|432:161,1,85,8|2,0:0|0:0,0:0:0:0:
506,76,17347,2,0,P|443:71|391:22,1,127.5,2|0,0:1|0:0,0:0:0:0:
398,11,17722,2,0,P|366:9|302:30,1,85,8|0,0:0|0:0,0:0:0:0:
214,128,18097,5,2,0:0:0:0:
315,121,18284,1,0,0:0:0:0:
212,32,18472,1,10,0:0:0:0:
212,32,18565,1,0,0:0:0:0:
212,32,18659,1,0,0:0:0:0:
142,200,18847,1,2,0:0:0:0:
315,121,19034,1,8,0:0:0:0:
361,288,19222,1,8,0:0:0:0:
324,267,19315,1,8,0:0:0:0:
281,261,19409,1,8,0:0:0:0:
240,274,19503,1,8,0:0:0:0:
205,299,19597,6,0,P|154:317|70:297,1,127.5,6|0,0:1|0:0,0:0:0:0:
67,290,19972,2,0,P|68:249|75:204,1,85,8|2,0:0|0:0,0:0:0:0:
157,72,20347,2,0,P|162:114|165:157,1,85,2|0,0:1|0:0,0:0:0:0:
205,299,20722,1,8,0:0:0:0:
240,274,20815,1,8,0:0:0:0:
281,261,20909,1,8,0:0:0:0:
324,267,21003,1,8,0:0:0:0:
361,288,21097,6,0,P|412:306|496:286,1,127.5,6|0,0:1|0:0,0:0:0:0:
484,273,21472,2,0,P|462:317|459:363,1,85,8|2,0:0|0:0,0:0:0:0:
426,208,21847,1,2,0:1:0:0:
375,379,22034,1,8,0:0:0:0:
250,258,22222,1,8,0:0:0:0:
227,221,22315,1,8,0:0:0:0:
219,180,22409,1,8,0:0:0:0:
224,138,22503,1,8,0:0:0:0:
243,100,22597,5,4,0:0:0:0:
314,175,22972,5,8,0:0:0:0:
342,80,23347,5,8,0:0:0:0:
135,77,23534,1,8,0:0:0:0:
268,149,23722,1,8,0:0:0:0:
68,208,23909,1,8,0:0:0:0:
236,247,24097,5,4,0:0:0:0:
177,170,24472,5,8,0:0:0:0:
268,149,24847,5,8,0:0:0:0:
297,316,25034,1,8,0:0:0:0:
434,204,25222,1,8,0:0:0:0:
452,166,25315,1,8,0:0:0:0:
455,121,25409,1,8,0:0:0:0:
446,79,25503,1,8,0:0:0:0:
417,47,25597,6,0,P|385:40|325:42,1,68,2|0,1:1|0:0,0:0:0:0:
249,3,26159,2,0,P|257:40|269:145,1,136,2|0,0:0|0:0,0:0:0:0:
325,197,26722,1,0,1:1:0:0:
253,235,26909,2,0,P|230:232|176:234,1,68,2|2,0:0|1:1,0:0:0:0:
323,276,27284,1,2,3:0:0:0:
323,276,27659,6,0,P|396:280|473:258,1,136,2|0,0:0|0:0,0:0:0:0:
389,138,28222,2,0,P|382:175|380:207,1,68,0|2,1:0|0:0,0:0:0:0:
470,156,28597,1,2,1:1:0:0:
304,173,28784,1,2,3:0:0:0:
304,173,29159,6,0,P|294:130|294:32,1,136,2|0,0:0|0:0,0:0:0:0:
436,28,29722,2,0,P|405:44|373:53,1,68,0|2,1:0|0:0,0:0:0:0:
216,11,30097,1,2,1:0:0:0:
366,62,30284,1,2,3:0:0:0:
366,62,30659,6,0,P|367:129|355:196,1,136,2|0,0:0|0:0,0:0:0:0:
238,270,31222,2,0,P|217:264|157:254,1,68,0|2,1:0|0:0,0:0:0:0:
270,188,31597,1,2,1:0:0:0:
318,334,31784,1,2,3:0:0:0:
318,334,32065,6,0,L|350:329,2,17,0|0|0,3:0|3:0|3:0,3:0:0:0:
187,350,32628,2,0,L|203:352,2,17,0|0|0,3:0|3:0|3:0,3:0:0:0:
83,196,33097,5,2,1:0:0:0:
120,268,33284,2,0,L|119:284,2,17,0|0|0,3:0|3:0|3:0,3:0:0:0:
47,124,33659,1,2,3:0:0:0:
167,199,34128,2,0,L|168:183,2,17,0|0|0,3:0|3:0|3:0,3:0:0:0:
47,124,34597,5,2,1:0:0:0:
83,196,34784,2,0,L|82:212,4,17,0|0|0|0|0,3:0|3:0|3:0|3:0|3:0,3:0:0:0:
167,199,35159,2,0,L|168:183,4,17,0|0|0|0|0,3:0|3:0|3:0|3:0|3:0,3:0:0:0:
252,171,35534,2,0,L|251:187,2,17,2|0|0,3:0|3:0|3:0,3:0:0:0:
47,124,35909,5,12,0:0:0:0:
83,196,36284,5,8,0:0:0:0:
167,199,36659,5,8,0:0:0:0:
17,51,36847,1,8,0:0:0:0:
83,196,37034,1,8,0:0:0:0:
206,59,37222,1,8,0:0:0:0:
238,51,37315,1,8,0:0:0:0:
271,58,37409,1,8,0:0:0:0:
301,72,37503,1,8,0:0:0:0:
207,68,37784,5,8,0:0:0:0:
209,78,37878,1,8,0:0:0:0:
211,86,37972,2,0,P|137:72|63:91,1,152.999995330811,12|0,0:0|0:0,0:0:0:0:
0,158,38534,1,0,0:0:0:0:
89,178,38722,1,8,0:0:0:0:
26,244,38909,6,0,L|101:230,1,76.4999976654053,2|2,0:0|0:1,0:0:0:0:
192,322,39284,2,0,L|116:308,1,76.4999976654053,2|8,0:0|0:0,0:0:0:0:
237,236,39659,1,0,0:0:0:0:
237,236,39847,2,0,P|282:308|266:387,1,152.999995330811,0|8,0:0|0:0,0:0:0:0:
192,322,40409,1,0,0:0:0:0:
159,168,40597,6,0,P|148:205|144:243,2,76.4999976654053,2|0|8,0:1|0:0|0:0,0:0:0:0:
240,124,41159,1,0,0:0:0:0:
161,76,41347,2,0,L|244:87,1,76.4999976654053
332,0,41722,2,0,L|249:11,1,76.4999976654053,8|0,0:0|0:0,0:0:0:0:
362,103,42097,6,0,L|445:114,2,76.4999976654053,2|0|8,0:1|0:0|0:0,0:0:0:0:
287,156,42659,1,0,0:0:0:0:
370,195,42847,2,0,P|390:267|368:339,1,152.999995330811,0|8,0:0|0:0,0:0:0:0:
459,332,43409,1,0,0:0:0:0:
289,364,43597,6,0,L|195:346,2,76.4999976654053,2|0|8,0:1|0:0|0:0,0:0:0:0:
274,273,44159,1,0,0:0:0:0:
239,187,44347,2,0,L|246:263,1,76.4999976654053
325,202,44722,1,8,0:0:0:0:
159,235,44909,6,0,P|126:236|63:220,1,76.4999976654053,2|2,0:0|0:1,0:0:0:0:
186,108,45284,2,0,P|216:98|265:95,1,76.4999976654053,2|8,0:0|0:0,0:0:0:0:
239,187,45659,1,0,0:0:0:0:
239,187,45847,2,0,P|281:192|330:188,1,76.4999976654053
390,41,46222,2,0,P|364:69|353:106,1,76.4999976654053,8|0,0:0|0:0,0:0:0:0:
401,250,46597,5,12,0:0:0:0:
270,109,46784,1,8,0:0:0:0:
423,165,46972,1,8,0:0:0:0:
218,254,47159,1,8,0:0:0:0:
338,167,47347,1,8,0:0:0:0:
338,167,47440,1,8,0:0:0:0:
152,104,47628,1,8,0:0:0:0:
152,104,47722,2,8,P|124:104|85:113,2,56.6666666666667
211,156,48097,5,12,0:0:0:0:
304,36,48284,1,8,0:0:0:0:
203,173,48472,1,8,0:0:0:0:
319,31,48659,1,8,0:0:0:0:
197,187,48847,2,8,P|197:218|203:262,2,56.6666666666667,8|8|8,0:3|0:3|0:3,0:0:0:0:
276,148,49222,2,0,P|268:128|256:110,1,42.5,8|4,0:3|0:3,0:0:0:0:
124,266,49409,2,0,P|131:285|144:302,1,42.5,8|4,0:3|0:3,0:0:0:0:
290,251,49597,5,2,1:1:0:0:
290,251,50159,6,0,P|303:274|314:323,1,68,2|0,0:0|0:0,0:0:0:0:
366,212,50534,1,2,0:0:0:0:
366,212,50722,2,0,P|330:176|281:167,1,102,8|0,0:0|0:0,0:0:0:0:
270,175,51097,5,2,1:0:0:0:
192,220,51659,6,0,P|158:228|125:225,1,68,2|0,0:0|0:0,0:0:0:0:
78,140,52034,1,2,0:0:0:0:
26,230,52222,2,0,P|74:216|124:224,1,102,8|0,0:0|0:0,0:0:0:0:
134,235,52597,5,2,1:0:0:0:
205,310,53159,6,0,P|218:277|256:240,1,68,2|0,0:0|0:0,0:0:0:0:
340,278,53534,1,2,0:0:0:0:
340,278,53722,2,0,P|297:298|274:348,1,102,8|0,0:0|0:0,0:0:0:0:
281,357,54097,5,2,1:0:0:0:
404,331,54659,2,0,P|419:301|423:267,1,68,2|0,0:0|0:0,0:0:0:0:
373,203,55034,1,2,0:0:0:0:
340,278,55222,2,0,P|290:271|250:239,1,102,8|0,0:0|0:0,0:0:0:0:
247,226,55597,5,2,1:0:0:0:
142,160,56159,6,0,P|153:191|159:225,1,68,2|0,0:0|0:0,0:0:0:0:
54,171,56534,1,2,0:0:0:0:
54,171,56722,2,0,P|65:117|104:79,1,102,8|0,0:0|0:0,0:0:0:0:
110,83,57097,5,2,1:0:0:0:
203,103,57659,6,0,P|244:105|290:85,1,68,2|0,0:0|0:0,0:0:0:0:
230,25,58034,1,2,0:0:0:0:
312,153,58222,2,0,P|316:99|332:41,1,102,8|0,0:0|0:0,0:0:0:0:
319,165,58597,5,4,1:2:0:0:
347,221,59722,5,8,0:0:0:0:
347,221,59815,1,8,0:0:0:0:
347,221,59909,1,8,0:0:0:0:
456,69,60097,1,8,0:0:0:0:
279,127,60284,1,8,0:0:0:0:
279,127,60378,1,8,0:0:0:0:
279,127,60472,1,8,0:0:0:0:
456,185,60659,1,8,0:0:0:0:
346,31,60847,2,0,P|297:15|238:17,1,102,10|0,0:0|0:0,0:0:0:0:
229,27,61222,6,0,P|182:46|74:14,1,152.999995330811,10|0,0:1|0:0,0:0:0:0:
119,6,61597,6,0,P|134:45|133:95,1,85,4|0,0:0|0:0,0:0:0:0:
98,155,61878,1,0,0:0:0:0:
98,155,61972,2,0,P|139:160|180:148,1,85,2|0,0:1|0:0,0:0:0:0:
350,103,62347,2,0,P|309:91|268:97,1,85,2|0,0:1|0:0,0:0:0:0:
227,251,62722,1,8,0:0:0:0:
304,185,62909,1,0,0:0:0:0:
180,148,63097,6,0,L|199:246,1,85,4|0,1:2|0:0,0:0:0:0:
169,306,63378,1,0,0:0:0:0:
169,306,63472,2,0,P|121:306|89:289,1,85,2|0,0:1|0:0,0:0:0:0:
280,244,63847,1,2,0:1:0:0:
107,206,64034,1,0,0:0:0:0:
235,90,64222,1,8,0:0:0:0:
241,100,64315,1,8,0:0:0:0:
248,110,64409,1,8,0:0:0:0:
254,120,64503,1,8,0:0:0:0:
261,130,64597,6,0,P|218:135|171:119,1,85,4|0,1:2|0:0,0:0:0:0:
103,147,64878,1,0,0:0:0:0:
103,147,64972,2,0,P|76:107|78:49,1,85,2|0,0:1|0:0,0:0:0:0:
158,202,65347,2,0,P|159:245|146:285,1,85,2|0,0:1|0:0,0:0:0:0:
14,354,65722,1,8,0:0:0:0:
46,257,65909,1,0,0:0:0:0:
155,295,66097,6,0,P|191:293|245:278,1,85,4|0,1:2|0:0,0:0:0:0:
305,228,66378,1,0,0:0:0:0:
305,228,66472,2,0,L|308:117,1,85,2|0,0:1|0:0,0:0:0:0:
378,269,66847,1,10,0:1:0:0:
219,198,67034,1,8,0:0:0:0:
388,60,67222,1,8,0:0:0:0:
401,99,67315,1,8,0:0:0:0:
389,139,67409,1,8,0:0:0:0:
349,153,67503,1,8,0:0:0:0:
307,143,67597,6,0,P|285:132|233:78,1,68,4|0,0:0|0:0,0:0:0:0:
226,23,67972,1,8,0:0:0:0:
186,161,68159,1,8,0:0:0:0:
226,23,68347,2,0,P|176:12|70:32,1,136,0|8,0:0|0:0,0:0:0:0:
128,95,68909,1,0,0:0:0:0:
46,164,69097,6,0,L|40:93,1,68,4|0,0:0|0:0,0:0:0:0:
115,226,69472,1,8,0:0:0:0:
128,95,69659,1,8,0:0:0:0:
115,226,69847,2,0,L|109:293,1,68
40,171,70222,2,0,L|34:100,1,68,8|0,0:0|0:0,0:0:0:0:
192,169,70597,5,2,1:0:0:0:
25,100,70784,1,8,0:0:0:0:
215,74,70972,1,8,0:0:0:0:
115,226,71159,1,8,0:0:0:0:
115,226,71253,1,8,0:0:0:0:
115,226,71347,1,10,0:1:0:0:
128,38,71534,1,8,0:0:0:0:
300,126,71722,1,8,0:0:0:0:
333,124,71815,1,8,0:0:0:0:
364,111,71909,1,8,0:0:0:0:
385,84,72003,1,8,0:0:0:0:
379,50,72097,6,0,P|363:104|397:166,1,102,10|0,0:1|0:0,0:0:0:0:
405,58,72472,5,14,0:1:0:0:
342,220,73222,6,0,P|360:224|384:224,1,42.5,8|4,0:0|0:0,0:0:0:0:
290,293,73409,2,0,P|272:297|247:297,1,42.5,8|4,0:0|0:0,0:0:0:0:
355,354,73597,6,2,P|439:358|519:331,1,170,6|8,0:1|0:0,0:1:0:0:
342,220,74159,1,0,0:0:0:0:
290,293,74347,2,2,P|205:297|125:270,1,170,2|8,0:1|0:0,0:1:0:0:
213,121,74909,1,0,0:0:0:0:
213,121,75003,1,0,0:0:0:0:
213,121,75097,6,0,L|221:216,1,85,2|0,0:0|0:0,0:0:0:0:
298,161,75378,1,0,0:0:0:0:
298,161,75472,2,0,L|305:76,1,85,10|0,0:0|0:0,0:0:0:0:
380,130,75753,1,0,0:0:0:0:
380,130,75847,2,0,L|388:225,1,85,2|0,0:0|0:0,0:0:0:0:
452,272,76128,1,0,0:0:0:0:
452,272,76222,2,0,L|444:356,1,85,10|0,0:0|0:0,0:0:0:0:
303,245,76597,6,2,P|218:241|138:268,1,170,2|8,0:1|0:0,0:1:0:0:
227,130,77159,1,0,0:0:0:0:
132,170,77347,2,2,P|50:155|-7:95,1,170,2|8,0:1|0:0,0:1:0:0:
122,0,77909,1,0,0:0:0:0:
122,0,78003,1,0,0:0:0:0:
122,0,78097,6,0,L|99:108,1,85,2|0,0:0|0:0,0:0:0:0:
132,170,78378,1,0,0:0:0:0:
132,170,78472,2,0,P|175:146|223:138,1,85,10|0,0:0|0:0,0:0:0:0:
275,191,78753,1,0,0:0:0:0:
275,191,78847,2,0,P|232:215|184:223,1,85,2|0,0:0|0:0,0:0:0:0:
136,262,79128,1,0,0:0:0:0:
136,262,79222,2,0,P|177:271|213:293,1,85,10|0,0:0|0:0,0:0:0:0:
58,329,79597,6,0,P|38:291|35:249,1,85,2|0,0:1|0:0,0:0:0:0:
102,133,79972,2,0,L|200:123,1,85,8|0,0:0|0:0,0:0:0:0:
260,244,80347,2,0,L|175:235,1,85
293,113,80722,1,8,0:0:0:0:
152,49,80909,1,0,0:0:0:0:
300,120,81097,6,0,L|283:26,1,85,2|0,0:1|0:0,0:0:0:0:
418,90,81472,2,0,L|400:184,1,85,8|0,0:0|0:0,0:0:0:0:
235,199,81847,2,0,L|217:104,1,85
373,258,82222,1,8,0:0:0:0:
312,130,82409,1,0,0:0:0:0:
312,130,82503,1,0,0:0:0:0:
312,130,82597,5,2,1:0:0:0:
455,213,82784,1,0,1:0:0:0:
406,56,82972,1,0,0:0:0:0:
406,56,83065,1,0,0:0:0:0:
406,56,83159,1,2,1:0:0:0:
216,111,83347,1,0,1:0:0:0:
399,146,83534,1,0,0:0:0:0:
241,236,83722,1,10,0:1:0:0:
232,194,83816,1,8,0:0:0:0:
223,153,83910,1,8,0:0:0:0:
216,111,84003,1,8,0:0:0:0:
329,211,84284,5,12,0:0:0:0:
232,194,84659,5,12,0:0:0:0:
366,93,84847,1,0,0:0:0:0:
224,208,85034,1,0,0:0:0:0:
370,40,85222,2,0,P|372:61|375:82,1,42.5,8|4,0:0|0:0,0:0:0:0:
441,186,85409,2,0,P|439:164|436:144,1,42.5,8|4,0:0|0:0,0:0:0:0:
394,250,85597,6,2,P|332:243|203:295,1,170,6|8,0:1|0:0,0:1:0:0:
97,258,86159,1,0,0:0:0:0:
151,344,86347,2,2,P|192:271|175:190,1,170,2|8,0:1|0:0,0:1:0:0:
18,236,86909,1,0,0:0:0:0:
18,236,87003,1,0,0:0:0:0:
17,235,87097,6,0,P|54:254|96:257,1,85,2|0,0:0|0:0,0:0:0:0:
79,177,87378,1,0,0:0:0:0:
79,177,87472,2,0,P|74:136|83:94,1,85,10|0,0:0|0:0,0:0:0:0:
151,53,87753,1,0,0:0:0:0:
151,53,87847,2,0,P|193:49|230:30,1,85,2|0,0:0|0:0,0:0:0:0:
303,69,88128,1,0,0:0:0:0:
303,69,88222,2,0,P|345:73|382:92,1,85,10|0,0:0|0:0,0:0:0:0:
405,230,88597,6,0,P|345:211|313:158,1,127.5,6|0,0:1|0:0,0:0:0:0:
324,165,88972,1,8,0:0:0:0:
315,206,89065,1,8,0:0:0:0:
303,247,89159,1,8,0:0:0:0:
290,287,89253,1,8,0:0:0:0:
275,327,89347,6,0,P|230:283|167:281,1,127.5,10|0,0:1|0:0,0:0:0:0:
159,292,89722,1,8,0:0:0:0:
148,251,89815,1,8,0:0:0:0:
140,209,89909,1,8,0:0:0:0:
128,167,90003,1,8,0:0:0:0:
114,126,90097,6,0,P|176:123|221:80,1,127.5,10|0,0:1|0:0,0:0:0:0:
234,78,90472,1,8,0:0:0:0:
193,65,90565,1,8,0:0:0:0:
152,52,90659,1,8,0:0:0:0:
110,41,90753,1,8,0:0:0:0:
68,30,90847,5,10,0:1:0:0:
0,186,91034,2,0,L|46:177,1,42.5
172,169,91222,1,8,0:0:0:0:
167,189,91315,1,8,0:0:0:0:
161,209,91409,1,8,0:0:0:0:
155,229,91503,1,8,0:0:0:0:
149,249,91597,6,0,L|245:231,1,85,10|0,0:1|0:0,0:0:0:0:
297,343,91972,2,0,L|201:325,1,85,8|0,0:0|0:0,0:0:0:0:
370,213,92347,2,0,L|382:384,1,170,0|8,0:0|0:0,0:0:0:0:
232,233,92909,6,0,L|243:63,1,170,6|0,0:1|0:0,0:0:0:0:
409,78,93472,2,0,P|378:106|339:123,1,85,8|0,0:0|0:0,0:0:0:0:
173,18,93847,2,0,P|212:34|243:62,1,85
257,196,94222,2,0,L|253:139,1,42.5,8|4,0:0|0:0,0:0:0:0:
338,0,94409,2,0,L|335:42,1,42.5,8|4,0:0|0:0,0:0:0:0:
244,207,94597,5,12,0:0:0:0:
409,78,94784,1,8,0:0:0:0:
419,91,95159,5,8,0:0:0:0:
207,57,95347,1,8,0:0:0:0:
199,73,95722,5,12,0:0:0:0:
357,220,95909,1,8,0:0:0:0:
157,281,96097,1,8,0:0:0:0:
157,281,96190,1,8,0:0:0:0:
157,281,96284,1,10,0:0:0:0:
157,281,96659,6,0,P|205:249|221:159,1,136,2|2,0:0|3:0,0:0:0:0:
106,178,97222,2,0,L|148:202,2,34,0|0|0,3:0|3:0|3:0,3:0:0:0:
196,70,97597,6,0,P|258:74|310:111,1,127.5,6|0,0:1|0:0,0:0:0:0:
323,129,97972,2,0,L|330:44,1,85,8|2,0:0|0:0,0:0:0:0:
225,176,98347,2,0,L|232:260,1,85,2|0,0:1|0:0,0:0:0:0:
342,335,98722,1,8,0:0:0:0:
241,274,98909,1,0,0:0:0:0:
377,241,99097,6,0,P|418:228|460:229,1,85,2|0,0:0|0:0,0:0:0:0:
512,170,99378,1,0,0:0:0:0:
512,170,99472,2,0,L|495:75,1,85,10|0,0:0|0:0,0:0:0:0:
440,30,99753,1,0,0:0:0:0:
440,30,99847,1,2,0:0:0:0:
345,137,100034,1,8,0:0:0:0:
242,34,100222,1,8,0:0:0:0:
202,19,100315,1,8,0:0:0:0:
161,29,100409,1,8,0:0:0:0:
129,57,100503,1,8,0:0:0:0:
111,94,100597,6,0,P|55:123|-14:109,1,127.5,6|0,0:1|0:0,0:0:0:0:
5,96,100972,2,0,P|24:134|30:176,1,85,8|2,0:0|0:0,0:0:0:0:
0,297,101347,2,0,P|55:268|117:278,1,127.5,2|0,0:1|0:0,0:0:0:0:
131,294,101722,2,0,P|171:305|212:295,1,85,8|0,0:0|0:0,0:0:0:0:
359,184,102097,5,2,0:0:0:0:
259,203,102284,1,0,0:0:0:0:
259,203,102378,1,0,0:0:0:0:
259,203,102472,1,10,0:0:0:0:
334,287,102659,1,2,0:0:0:0:
295,110,102847,1,2,0:0:0:0:
464,173,103034,1,8,0:0:0:0:
259,203,103222,1,8,0:0:0:0:
216,201,103315,1,8,0:0:0:0:
177,181,103409,1,8,0:0:0:0:
156,143,103503,1,8,0:0:0:0:
154,100,103597,6,0,P|94:140|35:128,1,127.5,6|0,0:1|0:0,0:0:0:0:
26,119,103972,2,0,L|39:217,1,85,8|2,0:0|0:0,0:0:0:0:
126,275,104347,2,0,L|114:359,1,85,2|0,0:1|0:0,0:0:0:0:
216,201,104722,1,8,0:0:0:0:
251,176,104815,1,8,0:0:0:0:
292,163,104909,1,8,0:0:0:0:
335,169,105003,1,8,0:0:0:0:
372,190,105097,6,0,P|423:208|507:188,1,127.5,6|0,0:1|0:0,0:0:0:0:
477,185,105472,2,0,P|449:152|443:111,1,85,8|2,0:0|0:0,0:0:0:0:
487,19,105847,1,2,0:1:0:0:
344,94,106034,1,8,0:0:0:0:
477,185,106222,1,8,0:0:0:0:
496,223,106316,1,8,0:0:0:0:
501,265,106410,1,8,0:0:0:0:
493,306,106504,1,8,0:0:0:0:
470,343,106597,5,14,0:1:0:0:
405,257,106972,5,8,0:0:0:0:
368,352,107347,5,8,0:0:0:0:
326,186,107534,1,8,0:0:0:0:
299,310,107722,1,8,0:0:0:0:
400,155,107909,1,8,0:0:0:0:
229,234,108097,1,8,0:0:0:0:
229,234,108190,1,8,0:0:0:0:
229,234,108284,2,0,P|205:220|170:207,1,42.5,2|0,0:0|0:0,0:0:0:0:
292,92,109222,5,8,0:0:0:0:
292,92,109315,1,8,0:0:0:0:
292,92,109409,1,8,0:0:0:0:
292,92,109503,1,8,0:0:0:0:
292,91,109597,6,0,P|246:114|196:118,1,101.999996887207,2|0,0:0|0:0,0:0:0:0:
114,76,110159,2,0,L|129:182,1,101.999996887207
128,176,110722,1,0,0:0:0:0:
40,119,110909,2,0,L|55:225,2,101.999996887207,2|0|0,0:0|0:0|0:0,0:0:0:0:
114,25,111847,2,0,P|116:50|113:76,1,50.9999984436036
189,109,112222,2,0,P|200:85|205:61,1,50.9999984436036
128,176,112597,5,2,0:0:0:0:
128,176,112784,2,0,P|179:182|224:226,1,101.999996887207
296,193,113347,2,0,P|295:218|292:244,2,50.9999984436036
226,292,113909,2,0,P|271:272|324:269,1,101.999996887207,2|0,0:0|0:0,0:0:0:0:
387,158,114472,2,0,P|382:183|379:209,1,50.9999984436036,0|0,0:1|0:1,0:1:0:0:
315,117,114847,2,0,P|309:92|306:66,1,50.9999984436036,0|0,0:1|0:1,0:1:0:0:
255,177,115222,1,0,0:1:0:0:
173,174,115409,1,0,0:1:0:0:
97,142,115597,6,0,P|129:104|187:91,1,101.999996887207,2|0,0:0|0:0,0:0:0:0:
177,90,116159,1,0,0:0:0:0:
259,118,116347,2,0,P|293:113|315:104,2,50.9999984436036
198,172,116909,1,0,0:0:0:0:
285,214,117097,6,0,P|236:196|178:200,1,101.999996887207,2|0,0:0|0:0,0:0:0:0:
129,255,117659,1,0,0:0:0:0:
129,255,117847,2,0,L|139:311,2,50.9999984436036
106,176,118409,1,0,0:0:0:0:
36,251,118597,6,2,B|44:163|44:163|72:81|72:81|97:126|97:126|107:186,1,276.25,6|0,0:1|0:0,0:1:0:0:
106,176,119909,5,2,1:0:0:0:
172,113,121034,5,8,0:0:0:0:
117,276,121222,1,8,0:0:0:0:
285,243,121409,1,8,0:0:0:0:
191,210,121784,6,0,P|205:251|209:302,1,93.5000028533936,4|8,0:0|0:0,0:0:0:0:
262,162,122159,6,0,P|276:113|310:75,1,102,4|0,0:0|0:0,0:0:0:0:
328,74,122534,6,0,L|349:74,4,21.25,0|0|0|0|0,3:0|3:0|3:0|3:0|3:0,3:0:0:0:
172,113,122909,1,0,0:0:0:0:
190,209,123284,6,0,P|185:257|158:295,1,93.5000028533936,4|8,0:0|0:0,0:0:0:0:
172,113,123659,6,0,P|179:50|232:-1,1,136,4|0,0:0|0:0,0:0:0:0:
344,87,124222,6,0,P|307:96|270:92,1,76.4999976654053,8|0,0:0|0:0,0:0:0:0:
97,117,124597,6,0,P|133:107|171:112,1,76.4999976654053,2|0,0:1|0:0,0:0:0:0:
113,257,124971,1,8,0:0:0:0:
187,202,125159,1,0,0:0:0:0:
222,286,125347,2,0,L|216:208,1,76.4999976654053
323,151,125722,2,0,L|317:227,1,76.4999976654053,8|0,0:0|0:0,0:0:0:0:
205,108,126097,6,0,L|199:31,2,76.4999976654053,2|0|8,0:1|0:0|0:0,0:0:0:0:
287,66,126659,1,0,0:0:0:0:
230,196,126847,2,0,P|187:195|150:180,1,76.4999976654053
74,49,127222,2,0,L|84:125,1,76.4999976654053,8|0,0:0|0:0,0:0:0:0:
36,279,127597,5,2,0:1:0:0:
101,215,127784,1,0,0:0:0:0:
180,324,127972,2,0,P|247:291|323:294,1,152.999995330811,8|0,0:0|0:0,0:0:0:0:
323,294,128534,1,0,0:0:0:0:
401,241,128722,2,0,P|415:275|415:313,1,76.4999976654053,8|0,0:0|0:0,0:0:0:0:
318,208,129097,6,0,P|317:169|332:135,2,76.4999976654053,2|0|8,0:1|0:0|0:0,0:0:0:0:
401,241,129659,1,0,0:0:0:0:
327,298,129847,2,0,L|408:279,1,76.4999976654053
493,171,130222,2,0,L|418:153,1,76.4999976654053,8|0,0:0|0:0,0:0:0:0:
246,114,130597,5,12,0:0:0:0:
426,73,130784,1,8,0:0:0:0:
287,45,130972,1,8,0:0:0:0:
289,237,131159,1,8,0:0:0:0:
348,94,131347,6,0,P|300:121|245:113,1,113.333333333333,8|8,0:0|0:0,0:0:0:0:
206,45,131722,2,8,P|178:38|124:42,2,56.6666666666667
168,121,132097,5,12,0:0:0:0:
121,194,132472,5,8,0:0:0:0:
203,214,132847,6,0,P|203:245|209:289,2,56.6666666666667,8|8|8,0:3|0:3|0:3,0:0:0:0:
304,203,133222,2,0,P|296:222|284:240,1,42.5,8|4,0:3|0:3,0:0:0:0:
118,280,133409,2,0,P|125:299|138:316,1,42.5,8|4,0:3|0:3,0:0:0:0:
278,357,133597,5,4,0:0:0:0:
278,357,133972,6,0,L|354:345,1,68,2|0,0:0|0:0,0:0:0:0:
187,318,134534,5,0,0:0:0:0:
278,357,134722,2,0,L|354:345,1,68,8|0,0:0|0:0,0:0:0:0:
187,318,135097,5,0,1:0:0:0:
312,258,135472,6,0,L|236:246,1,68,2|0,0:0|0:0,0:0:0:0:
403,219,136034,5,0,0:0:0:0:
312,258,136222,2,0,L|236:246,1,68,8|0,0:0|0:0,0:0:0:0:
403,219,136597,5,4,1:0:0:0:
295,108,136972,6,0,P|313:136|324:169,1,68,2|0,0:0|0:0,0:0:0:0:
203,78,137534,5,0,0:0:0:0:
295,108,137722,2,0,P|313:136|324:169,1,68,8|0,0:0|0:0,0:0:0:0:
203,78,138097,5,0,1:0:0:0:
187,237,138472,6,0,P|205:208|215:176,1,68,2|0,0:0|0:0,0:0:0:0:
94,267,139034,5,0,0:0:0:0:
187,237,139222,2,0,P|205:208|215:176,1,68,8|0,0:0|0:0,0:0:0:0:
94,267,139597,5,4,1:2:0:0:
149,357,139972,6,0,L|65:354,1,68,2|0,0:0|0:0,0:0:0:0:
234,310,140534,5,0,0:0:0:0:
149,357,140722,2,0,L|65:354,1,68,8|0,0:0|0:0,0:0:0:0:
234,310,141097,5,0,1:0:0:0:
142,228,141472,6,0,L|226:225,1,68,2|0,0:0|0:0,0:0:0:0:
57,181,142034,5,0,0:0:0:0:
142,228,142222,2,0,L|226:225,1,68,8|0,0:0|0:0,0:0:0:0:
57,181,142597,5,4,1:2:0:0:
136,47,142972,5,2,0:0:0:0:
136,47,143159,1,0,0:0:0:0:
57,181,143347,1,4,0:2:0:0:
228,57,143722,5,2,0:0:0:0:
228,57,143909,1,0,0:0:0:0:
43,104,144097,6,0,P|104:118|135:182,1,114.749996498108,12|0,0:0|0:0,0:0:0:0:
56,181,144472,6,0,P|39:127|63:60,1,127.5,8|0,0:0|0:0,0:0:0:0:
136,47,144847,5,12,0:0:0:0:
242,71,145222,5,2,3:2:0:0:
242,71,145315,1,0,3:2:0:0:
242,71,145409,1,2,3:2:0:0:
242,71,145503,1,0,3:2:0:0:
242,71,145597,6,0,L|326:58,1,76.4999976654053,4|0,0:0|0:0,0:0:0:0:
370,169,145972,2,0,L|286:156,1,76.4999976654053,2|0,0:1|0:0,0:0:0:0:
216,165,146253,1,0,0:0:0:0:
216,164,146347,2,0,P|194:194|187:232,1,76.4999976654053,2|0,0:1|0:0,0:0:0:0:
289,344,146722,2,0,P|257:323|220:317,1,76.4999976654053,8|0,0:0|0:0,0:0:0:0:
99,255,147097,6,0,P|67:276|29:282,1,76.4999976654053,2|0,1:1|0:0,0:0:0:0:
37,203,147378,1,0,0:0:0:0:
37,203,147472,2,0,P|68:181|106:175,1,76.4999976654053,2|0,0:1|0:0,0:0:0:0:
234,224,147847,1,2,0:1:0:0:
200,138,148034,1,0,0:0:0:0:
352,53,148222,1,8,0:0:0:0:
349,63,148315,1,8,0:0:0:0:
345,73,148409,1,8,0:0:0:0:
341,83,148503,1,8,0:0:0:0:
337,92,148597,6,0,P|298:89|263:74,1,76.4999976654053,4|0,0:0|0:0,0:0:0:0:
201,24,148878,1,0,0:0:0:0:
201,24,148972,2,0,P|162:26|127:41,1,76.4999976654053,2|0,0:1|0:0,0:0:0:0:
38,131,149347,2,0,L|43:40,1,76.4999976654053,2|0,0:1|0:0,0:0:0:0:
128,128,149722,2,0,L|132:204,1,76.4999976654053,8|0,0:0|0:0,0:0:0:0:
217,119,150097,6,0,L|222:28,1,76.4999976654053,2|0,1:0|0:0,0:0:0:0:
301,85,150378,1,0,0:0:0:0:
301,85,150472,2,0,L|296:-6,1,76.4999976654053,2|0,0:1|0:0,0:0:0:0:
128,128,150847,1,8,0:0:0:0:
304,167,151034,1,8,0:0:0:0:
148,251,151222,1,8,0:0:0:0:
135,290,151315,1,8,0:0:0:0:
147,330,151409,1,8,0:0:0:0:
187,344,151503,1,8,0:0:0:0:
229,341,151597,6,0,P|251:330|303:276,1,68,4|0,0:0|0:0,0:0:0:0:
321,232,151878,1,0,0:0:0:0:
321,232,151972,2,0,L|299:148,1,68,10|0,0:0|0:0,0:0:0:0:
243,96,152253,1,0,0:0:0:0:
243,96,152347,5,0,0:0:0:0:
227,122,152440,1,0,0:0:0:0:
199,134,152534,1,0,0:0:0:0:
168,134,152628,1,0,0:0:0:0:
139,122,152722,1,0,0:0:0:0:
113,105,152815,1,0,0:0:0:0:
82,99,152909,1,0,0:0:0:0:
52,108,153003,1,0,0:0:0:0:
31,131,153097,6,0,P|33:164|40:197,1,68,10|0,0:0|0:0,0:0:0:0:
31,279,153378,1,0,0:0:0:0:
30,278,153472,2,0,P|56:298|89:307,1,68,10|0,0:0|0:0,0:0:0:0:
164,273,153753,1,0,0:0:0:0:
164,273,153847,5,0,0:0:0:0:
190,257,153940,1,0,0:0:0:0:
220,254,154034,1,0,0:0:0:0:
250,259,154128,1,0,0:0:0:0:
275,276,154222,2,0,L|285:332,1,34,8|8,0:0|0:0,0:0:0:0:
363,319,154409,2,0,L|351:354,1,34,8|8,0:0|0:0,0:0:0:0:
429,384,154597,5,12,0:0:0:0:
347,221,154784,1,8,0:0:0:0:
347,221,154878,1,8,0:0:0:0:
347,221,154972,1,8,0:0:0:0:
209,361,155159,1,8,0:0:0:0:
363,319,155347,5,8,0:0:0:0:
165,246,155534,1,8,0:0:0:0:
165,246,155628,1,8,0:0:0:0:
165,246,155722,1,8,0:0:0:0:
379,125,155909,1,12,0:0:0:0:
472,95,157597,6,0,P|429:121|378:124,1,102,2|0,1:2|0:0,0:0:0:0:
427,178,157972,6,0,P|374:156|317:157,1,114.749996498108,2|0,1:2|0:0,0:0:0:0:
368,207,158347,5,8,0:3:0:0:
243,184,158534,1,8,0:3:0:0:
122,153,158722,6,0,P|94:173|62:185,1,68,4|0,0:3|0:0,0:0:0:0:
50,186,159003,1,0,0:0:0:0:
37,185,159097,6,2,P|114:215|151:289,1,170,6|8,0:1|0:0,0:1:0:0:
243,184,159659,1,0,0:0:0:0:
336,224,159847,2,2,P|413:193|450:119,1,170,2|8,0:1|0:0,0:1:0:0:
332,31,160409,1,0,0:0:0:0:
332,31,160503,1,0,0:0:0:0:
332,31,160597,6,0,L|340:126,1,85,2|0,0:0|0:0,0:0:0:0:
280,164,160878,1,0,0:0:0:0:
280,164,160972,2,0,P|238:169|200:151,1,85,10|0,0:0|0:0,0:0:0:0:
150,92,161253,1,0,0:0:0:0:
150,93,161347,2,0,P|108:87|70:105,1,85,2|0,0:0|0:0,0:0:0:0:
35,178,161628,1,0,0:0:0:0:
35,178,161722,2,0,L|27:273,1,85,10|0,0:0|0:0,0:0:0:0:
141,384,162097,6,2,P|207:337|299:330,1,170,2|8,0:1|0:0,0:1:0:0:
480,244,162659,1,0,0:0:0:0:
390,293,162847,2,2,P|306:286|237:237,1,170,2|8,0:1|0:0,0:1:0:0:
297,122,163409,1,0,0:0:0:0:
297,122,163503,1,0,0:0:0:0:
297,122,163597,6,0,L|381:111,1,85,2|0,0:0|0:0,0:0:0:0:
332,40,163878,1,0,0:0:0:0:
332,40,163972,2,0,L|248:29,1,85,10|0,0:0|0:0,0:0:0:0:
184,88,164253,1,0,0:0:0:0:
184,88,164347,2,0,P|164:50|162:8,1,85,2|0,0:0|0:0,0:0:0:0:
86,47,164628,1,0,0:0:0:0:
86,47,164722,2,0,P|66:84|64:126,1,85,10|0,0:0|0:0,0:0:0:0:
159,249,165097,6,0,L|75:238,1,85,2|0,0:1|0:0,0:0:0:0:
184,88,165472,2,0,L|268:77,1,85,8|0,0:0|0:0,0:0:0:0:
317,215,165847,2,0,L|232:206,1,85
348,96,166222,1,8,0:0:0:0:
390,258,166409,1,0,0:0:0:0:
348,96,166597,6,0,P|327:58|294:33,1,85,2|0,0:1|0:0,0:0:0:0:
171,114,166972,2,0,P|210:130|252:126,1,85,8|0,0:0|0:0,0:0:0:0:
418,180,167347,2,0,P|376:175|337:191,1,85
267,266,167722,1,8,0:0:0:0:
171,114,167909,1,0,0:0:0:0:
171,114,168003,1,0,0:0:0:0:
171,114,168097,5,2,1:0:0:0:
148,236,168284,1,2,1:0:0:0:
148,236,168378,1,0,0:0:0:0:
148,236,168472,1,0,0:0:0:0:
291,143,168659,1,2,1:0:0:0:
118,40,168847,1,2,1:0:0:0:
324,47,169034,1,0,0:0:0:0:
196,175,169222,1,8,0:0:0:0:
203,133,169315,1,8,0:0:0:0:
212,92,169409,1,8,0:0:0:0:
221,50,169503,1,8,0:0:0:0:
291,143,169784,5,12,0:0:0:0:
324,47,170159,5,12,0:0:0:0:
203,133,170347,1,0,0:0:0:0:
374,178,170534,1,0,0:0:0:0:
253,264,170722,6,0,P|261:291|270:308,1,42.5,8|4,0:3|0:3,0:0:0:0:
291,143,170909,2,0,P|299:115|308:99,1,42.5,8|4,0:3|0:3,0:0:0:0:
170,169,171097,6,2,P|108:176|-21:124,1,170,6|8,0:1|0:0,0:1:0:0:
166,16,171659,1,0,0:0:0:0:
235,90,171847,2,2,P|297:97|426:45,1,170,2|8,0:1|0:0,0:1:0:0:
511,193,172409,1,0,0:0:0:0:
511,193,172503,1,0,0:0:0:0:
512,194,172597,6,0,P|475:175|433:172,1,85,2|0,0:0|0:0,0:0:0:0:
372,223,172878,1,0,0:0:0:0:
372,223,172972,2,0,L|382:324,1,85,10|0,0:0|0:0,0:0:0:0:
293,249,173253,1,0,0:0:0:0:
293,249,173347,2,0,L|303:148,1,85,2|0,0:0|0:0,0:0:0:0:
211,240,173628,1,0,0:0:0:0:
211,240,173722,2,0,L|221:341,1,85,10|0,0:0|0:0,0:0:0:0:
76,239,174097,6,0,L|91:88,1,127.5,6|0,0:1|0:0,0:0:0:0:
99,119,174472,1,8,0:0:0:0:
138,133,174565,1,8,0:0:0:0:
180,125,174659,1,8,0:0:0:0:
211,96,174753,1,8,0:0:0:0:
222,54,174847,6,0,P|274:17|337:13,1,127.5,10|0,0:1|0:0,0:0:0:0:
345,25,175222,1,8,0:0:0:0:
336,66,175315,1,8,0:0:0:0:
346,107,175409,1,8,0:0:0:0:
379,133,175503,1,8,0:0:0:0:
421,139,175597,6,0,L|433:265,1,127.5,10|0,0:1|0:0,0:0:0:0:
442,277,175972,1,8,0:0:0:0:
401,266,176065,1,8,0:0:0:0:
359,258,176159,1,8,0:0:0:0:
317,249,176253,1,8,0:0:0:0:
275,239,176347,5,10,0:1:0:0:
209,95,176534,2,0,L|219:159,1,42.5
108,276,176722,1,8,0:0:0:0:
111,255,176815,1,8,0:0:0:0:
115,235,176909,1,8,0:0:0:0:
119,214,177003,1,8,0:0:0:0:
123,194,177097,6,0,L|110:97,1,85,10|0,0:1|0:0,0:0:0:0:
220,10,177472,2,0,L|208:94,1,85,8|0,0:0|0:0,0:0:0:0:
254,233,177847,2,0,P|319:180|403:173,1,170,0|8,0:0|0:0,0:0:0:0:
509,330,178409,6,0,P|425:323|359:270,1,170,6|0,0:1|0:0,0:0:0:0:
484,123,178972,2,0,P|495:163|493:205,1,85,8|0,0:0|0:0,0:0:0:0:
303,84,179347,2,0,P|300:41|312:1,1,85
413,174,179722,2,0,P|398:196|371:225,1,42.5,8|4,0:3|0:3,0:0:0:0:
290,166,179909,2,0,P|267:161|250:151,1,42.5,8|4,0:3|0:3,0:0:0:0:
322,268,180097,5,12,0:0:0:0:
116,213,180284,1,8,0:0:0:0:
334,284,180659,5,8,0:0:0:0:
128,339,180846,1,8,0:0:0:0:
345,300,181222,5,12,0:0:0:0:
139,245,181409,1,8,0:0:0:0:
290,92,181597,1,8,0:0:0:0:
290,92,181690,1,8,0:0:0:0:
290,92,181784,1,8,0:0:0:0:
289,92,182159,6,0,P|265:154|207:185,1,136,2|0,0:0|0:0,0:0:0:0:
177,65,182722,6,2,P|182:110|213:73,1,101.999996887207,2|2,0:1|0:1,0:1:0:0:
216,88,183097,6,0,P|161:58|98:62,1,127.5,2|0,1:0|1:0,0:0:0:0:
104,160,184034,6,2,L|273:137,1,170,2|0,1:0|0:0,0:1:0:0:
287,146,184597,6,0,P|325:144|403:53,1,152.999995330811,2|2,1:0|0:2,0:0:0:0:
332,230,185159,2,0,P|412:232|481:183,1,152.999995330811,2|2,1:0|0:2,0:0:0:0:
485,20,185722,6,0,L|495:121,1,102,2|0,1:0|0:0,0:0:0:0:
507,133,186097,6,0,P|453:99|390:99,1,127.5,6|0,1:0|1:0,0:0:0:0:
302,158,187034,6,2,P|243:173|135:116,1,170,2|0,1:0|0:0,0:1:0:0:
139,111,187597,6,0,L|150:282,1,152.999995330811,2|2,1:0|0:0,0:0:0:0:
235,173,188159,2,0,L|224:344,1,152.999995330811,2|2,1:0|0:0,0:0:0:0:
329,116,188722,5,8,0:0:0:0:
330,138,188815,1,8,0:0:0:0:
331,161,188909,1,8,0:0:0:0:
333,184,189003,1,8,0:0:0:0:
334,207,189097,5,6,0:1:0:0:
346,227,189847,5,0,0:0:0:0:
232,155,190597,5,4,0:0:0:0:
238,177,191347,5,0,0:0:0:0:
170,60,192097,5,4,0:0:0:0:
232,155,192847,5,4,0:0:0:0:
339,212,193597,6,0,L|425:200,1,76.4999976654053,2|0,0:0|0:0,0:0:0:0:
453,127,193878,1,0,0:0:0:0:
453,127,193972,2,0,L|367:115,1,76.4999976654053,2|0,0:0|0:0,0:0:0:0:
293,101,194253,1,0,0:0:0:0:
293,101,194347,1,2,0:0:0:0:
293,101,194722,6,2,L|306:226,1,102,2|0,0:1|0:0,0:1:0:0:
316,221,195097,6,0,P|274:213|231:216,1,85,6|0,0:1|0:0,0:0:0:0:
86,292,195472,1,10,0:1:0:0:
132,201,195659,1,0,0:1:0:0:
34,138,195847,1,2,0:1:0:0:
128,179,196034,1,0,0:1:0:0:
192,77,196222,1,10,0:1:0:0:
129,158,196409,1,0,0:1:0:0:
259,206,196597,6,0,P|301:204|341:190,1,85,2|0,0:1|0:0,0:0:0:0:
192,77,196972,2,0,P|152:62|109:60,1,85,8|0,0:1|0:0,0:0:0:0:
45,98,197253,1,0,0:0:0:0:
45,98,197347,2,0,P|23:60|21:15,1,85,2|0,0:1|0:0,0:0:0:0:
129,158,197722,2,0,P|125:200|104:236,1,85,8|0,0:0|0:0,0:0:0:0:
8,345,198097,6,0,P|47:330|90:328,1,85,2|0,0:1|0:0,0:0:0:0:
270,329,198472,1,8,0:0:0:0:
179,375,198659,1,0,0:0:0:0:
256,224,198847,2,0,L|246:128,1,85,2|0,0:1|0:0,0:0:0:0:
337,183,199128,1,0,0:0:0:0:
337,183,199222,2,0,L|328:267,1,85,10|0,0:1|0:0,0:0:0:0:
177,208,199597,6,0,L|165:76,1,127.5,2|0,0:1|0:0,0:0:0:0:
152,67,199972,2,0,P|112:51|65:52,1,85,8|0,0:0|0:0,0:0:0:0:
90,151,200347,1,0,0:0:0:0:
259,76,200534,1,0,0:0:0:0:
259,76,200628,1,0,0:0:0:0:
259,76,200722,2,0,P|299:60|346:61,1,85,8|0,0:0|0:0,0:0:0:0:
430,170,201097,6,2,P|379:174|332:158,1,102,2|0,0:1|0:0,0:1:0:0:
314,140,201472,6,0,L|337:314,1,140.25000428009,4|0,0:0|0:0,0:0:0:0:
336,301,201847,6,2,P|285:297|237:313,1,102,2|0,0:1|0:0,0:1:0:0:
219,331,202222,6,0,L|242:157,1,140.25000428009,4|0,0:0|0:0,0:0:0:0:
231,173,202597,6,2,P|183:156|132:160,1,102,2|0,0:1|0:0,0:1:0:0:
118,172,202972,6,0,P|157:117|144:50,1,140.25000428009,4|0,0:0|0:0,0:0:0:0:
157,62,203347,6,2,P|204:78|255:74,1,102,2|0,0:1|0:0,0:1:0:0:
269,63,203722,6,0,P|229:118|242:185,1,140.25000428009,4|0,0:0|0:0,0:0:0:0:
255,196,204097,5,8,1:0:0:0:
404,97,204284,1,8,0:0:0:0:
318,249,204472,1,8,0:0:0:0:
431,175,204659,1,8,0:0:0:0:
386,293,204847,2,0,P|434:274|471:230,1,85,8|0,0:0|0:0,0:0:0:0:
304,82,205222,1,8,0:0:0:0:
307,123,205315,1,8,0:0:0:0:
310,165,205409,1,8,0:0:0:0:
313,208,205503,1,8,0:0:0:0:
318,249,205597,6,0,P|260:223|186:225,1,136,4|2,0:0|0:0,0:0:0:0:
58,249,206347,6,0,P|125:251|187:225,1,136,4|2,0:0|0:0,0:0:0:0:
186,125,207097,6,0,P|175:174|187:223,1,102,4|0,0:0|0:0,0:0:0:0:
200,235,207472,1,0,0:0:0:0:
290,169,207659,2,0,L|257:176,2,34
295,80,208034,2,0,L|328:87,2,34
200,16,208409,1,2,0:2:0:0:
200,16,208503,1,0,0:0:0:0:
200,16,208597,6,0,P|210:65|199:114,1,102,2|0,0:0|0:0,0:0:0:0:
186,125,208972,1,0,0:0:0:0:
106,53,209159,2,0,L|113:87,2,34
32,88,209534,1,0,0:2:0:0:
71,159,209722,1,0,0:0:0:0:
79,177,209815,1,0,0:0:0:0:
83,196,209909,1,0,0:2:0:0:
86,216,210003,1,0,0:0:0:0:
85,236,210097,6,0,L|191:216,1,102,2|0,0:0|0:0,0:0:0:0:
200,225,210472,1,0,0:0:0:0:
291,161,210659,2,0,L|258:157,2,34
362,230,211034,2,0,L|328:234,2,34
460,161,211409,1,2,0:2:0:0:
460,161,211503,1,0,0:0:0:0:
460,160,211597,6,0,P|445:208|449:258,1,102,2|0,0:0|0:0,0:0:0:0:
460,272,211972,1,0,0:0:0:0:
401,361,212159,2,0,L|434:355,2,34
292,328,212534,1,0,0:0:0:0:
292,328,212628,1,0,0:0:0:0:
292,328,212722,1,0,0:0:0:0:
302,310,212815,1,0,0:0:0:0:
306,289,212909,1,0,0:0:0:0:
299,269,213003,1,0,0:0:0:0:
282,256,213097,6,0,L|173:268,1,102,2|0,0:1|0:0,0:0:0:0:
168,279,213472,1,0,0:0:0:0:
82,226,213659,2,0,L|88:260,2,34
128,158,214034,2,0,L|133:124,2,34
45,119,214409,1,2,0:2:0:0:
45,119,214503,1,0,0:0:0:0:
44,119,214597,6,0,P|63:71|102:40,1,102,2|0,0:0|0:0,0:0:0:0:
119,44,214972,1,0,0:0:0:0:
225,7,215159,2,0,L|177:-1,2,34
303,30,215534,1,0,0:0:0:0:
244,86,215722,1,0,0:0:0:0:
236,104,215815,1,0,0:0:0:0:
230,123,215909,1,0,0:0:0:0:
227,143,216003,1,0,0:0:0:0:
226,163,216097,6,0,L|354:147,1,102,2|0,0:0|0:0,0:0:0:0:
341,159,216472,1,0,0:0:0:0:
431,99,216659,2,0,L|419:136,2,34
512,172,217034,2,0,L|500:135,2,34
465,248,217409,1,2,0:2:0:0:
465,248,217503,1,0,0:0:0:0:
465,248,217597,6,0,P|417:238|343:248,1,102,2|0,0:0|0:0,0:0:0:0:
351,253,217972,1,0,0:0:0:0:
267,243,218159,2,0,L|259:209,2,34
241,330,218534,1,0,0:0:0:0:
241,330,218628,1,0,0:0:0:0:
241,330,218722,1,0,0:0:0:0:
223,340,218815,1,0,0:0:0:0:
202,344,218909,1,0,0:0:0:0:
182,337,219003,1,0,0:0:0:0:
169,320,219097,6,0,L|145:220,1,76.4999976654053,6|0,0:0|0:0,0:0:0:0:
153,230,219378,1,0,0:0:0:0:
156,215,219472,1,0,0:0:0:0:
62,270,219659,1,0,0:0:0:0:
62,270,219753,1,0,0:0:0:0:
62,270,219847,1,2,0:1:0:0:
86,132,220034,1,0,0:0:0:0:
86,132,220128,1,0,0:0:0:0:
86,132,220222,1,0,0:0:0:0:
234,174,220409,5,2,0:2:0:0:
234,174,220503,1,0,0:0:0:0:
234,174,220597,1,6,0:0:0:0:
180,93,220784,1,0,0:0:0:0:
180,93,220878,1,0,0:0:0:0:
180,93,220972,1,0,0:0:0:0:
140,220,221159,1,0,0:0:0:0:
140,220,221253,1,0,0:0:0:0:
140,220,221347,1,2,0:0:0:0:
321,128,221534,1,0,0:0:0:0:
353,148,221627,1,0,0:0:0:0:
377,177,221721,1,0,0:0:0:0:
392,212,221815,1,0,0:0:0:0:
397,250,221909,1,0,0:0:0:0:
390,288,222002,1,0,0:0:0:0:
372,321,222097,6,0,L|286:313,1,76.4999976654053,6|0,0:0|0:0,0:0:0:0:
283,320,222378,1,0,0:0:0:0:
270,327,222472,1,0,0:0:0:0:
290,225,222659,1,0,0:0:0:0:
290,225,222753,1,0,0:0:0:0:
290,225,222847,1,2,0:0:0:0:
162,320,223034,1,0,0:0:0:0:
162,320,223128,1,0,0:0:0:0:
162,320,223222,1,0,0:0:0:0:
205,175,223409,5,2,0:2:0:0:
205,175,223503,1,0,0:0:0:0:
205,175,223597,1,6,0:0:0:0:
118,225,223784,1,0,0:0:0:0:
118,225,223878,1,0,0:0:0:0:
118,225,223972,1,0,0:0:0:0:
187,83,224159,1,0,0:0:0:0:
187,83,224253,1,0,0:0:0:0:
187,83,224347,1,2,0:0:0:0:
293,201,224534,1,0,0:0:0:0:
330,209,224627,1,0,0:0:0:0:
368,206,224721,1,0,0:0:0:0:
403,191,224815,1,0,0:0:0:0:
432,166,224909,1,0,0:0:0:0:
452,134,225002,1,0,0:0:0:0:
462,97,225097,6,0,L|437:13,1,76.4999976654053,6|0,0:0|0:0,0:0:0:0:
430,33,225378,1,0,0:0:0:0:
420,43,225472,1,0,0:0:0:0:
309,5,225659,1,0,0:0:0:0:
314,19,225753,1,0,0:0:0:0:
319,33,225847,1,2,0:0:0:0:
230,119,226034,1,0,0:0:0:0:
235,105,226128,1,0,0:0:0:0:
240,91,226222,1,0,0:0:0:0:
321,165,226409,5,0,0:0:0:0:
326,179,226503,1,0,0:0:0:0:
331,193,226597,1,6,0:0:0:0:
235,288,226784,1,0,0:0:0:0:
240,274,226878,1,0,0:0:0:0:
245,260,226972,1,0,0:0:0:0:
132,196,227159,1,0,0:0:0:0:
137,210,227253,1,0,0:0:0:0:
142,224,227347,1,2,0:0:0:0:
230,119,227534,1,0,0:0:0:0:
231,81,227627,1,0,0:0:0:0:
216,46,227721,1,0,0:0:0:0:
188,20,227815,1,0,0:0:0:0:
152,8,227909,1,0,0:0:0:0:
114,13,228002,1,0,0:0:0:0:
82,33,228097,6,0,P|41:48|-8:42,1,76.4999976654053,6|0,0:0|0:0,0:0:0:0:
19,62,228378,1,0,0:0:0:0:
29,78,228472,1,2,0:0:0:0:
141,159,228659,1,0,0:0:0:0:
136,177,228753,1,0,0:0:0:0:
132,196,228847,1,2,0:0:0:0:
13,267,229034,1,0,0:0:0:0:
18,285,229128,1,0,0:0:0:0:
22,304,229222,1,2,0:0:0:0:
141,372,229409,5,0,0:0:0:0:
145,353,229503,1,0,0:0:0:0:
150,335,229597,1,6,0:0:0:0:
246,222,229784,1,0,0:0:0:0:
251,240,229878,1,0,0:0:0:0:
255,259,229972,1,2,0:0:0:0:
132,196,230159,1,0,0:0:0:0:
136,177,230253,1,0,0:0:0:0:
141,159,230347,1,2,0:0:0:0:
295,31,230534,1,0,0:2:0:0:
281,61,230627,1,0,0:0:0:0:
256,85,230721,1,2,0:0:0:0:
225,97,230815,1,0,0:0:0:0:
191,97,230909,1,2,0:0:0:0:
160,85,231002,1,0,0:0:0:0:
135,62,231096,5,4,1:0:0:0:
260,195,231284,1,0,0:0:0:0:
109,145,231472,1,0,1:0:0:0:
192,289,231659,1,0,0:0:0:0:
40,198,231847,1,0,1:0:0:0:
260,195,232034,1,0,0:0:0:0:
129,346,232222,1,0,1:0:0:0:
332,248,232409,1,0,0:0:0:0:
116,267,232597,5,0,1:0:0:0:
343,333,232784,1,0,0:0:0:0:
125,186,232972,1,0,1:0:0:0:
267,299,233159,1,0,0:0:0:0:
181,117,233347,1,0,1:0:0:0:
190,323,233534,1,0,0:0:0:0:
103,91,233722,1,0,1:0:0:0:
202,229,233909,1,0,0:0:0:0:
320,103,234097,6,0,P|324:69|320:35,1,68,2|0,1:1|0:0,0:0:0:0:
113,100,234472,1,2,1:2:0:0:
196,245,234659,1,0,0:0:0:0:
341,122,234847,6,0,P|353:90|359:57,1,68,2|0,1:1|0:0,0:0:0:0:
124,110,235222,1,2,1:2:0:0:
134,118,235315,1,0,1:0:0:0:
144,127,235409,1,0,1:0:0:0:
154,135,235503,1,0,1:0:0:0:
164,143,235597,5,2,1:1:0:0:
200,121,235690,1,0,1:0:0:0:
242,114,235784,1,0,1:0:0:0:
283,122,235878,1,0,1:0:0:0:
319,144,235972,1,0,1:0:0:0:
344,178,236065,1,0,1:0:0:0:
379,200,236158,1,0,1:0:0:0:
421,208,236252,1,0,1:0:0:0:
463,198,236347,6,0,L|493:196,8,21.25,0|0|0|0|0|0|0|0|0,1:0|1:0|1:0|1:0|1:0|1:0|1:0|1:0|1:0,1:0:0:0:
330,268,237097,5,4,0:0:0:0:
431,307,238409,6,0,P|385:274|329:267,1,114.749996498108,12|0,0:0|0:0,0:0:0:0:
275,224,238784,6,0,L|288:338,1,102,8|0,0:0|0:0,0:0:0:0:
235,376,239159,5,12,0:0:0:0:
207,194,239347,1,8,0:0:0:0:
370,252,239534,1,8,0:0:0:0:
207,194,239722,1,8,1:0:0:0:
180,172,239815,1,8,1:0:0:0:
168,139,239909,1,8,1:0:0:0:
177,105,240003,1,8,1:0:0:0:
203,83,240097,6,0,P|236:75|294:73,1,68,6|0,1:0|1:0,1:0:0:0:
346,95,240378,1,0,1:0:0:0:
346,95,240472,1,0,1:0:0:0:
376,110,240565,1,0,1:0:0:0:
410,109,240659,1,0,1:0:0:0:
439,91,240753,1,0,1:0:0:0:
454,60,240847,2,0,L|472:178,1,102,6|0,0:1|0:0,0:0:0:0:
484,236,241222,1,8,0:0:0:0:
355,299,241409,6,0,L|373:182,1,114.749996498108,12|0,0:0|0:0,0:0:0:0:
321,237,241784,6,0,L|305:136,1,102,8|0,0:0|0:0,0:0:0:0:
291,62,242159,1,12,0:0:0:0:
229,191,242347,1,8,0:0:0:0:
119,99,242534,1,8,0:0:0:0:
305,76,242722,1,8,0:0:0:0:
305,76,242815,1,8,0:0:0:0:
305,76,242909,1,8,0:0:0:0:
305,76,243003,1,8,0:0:0:0:
305,76,243097,6,0,L|404:64,1,85,6|0,0:1|0:0,0:0:0:0:
442,195,243472,2,0,L|343:183,1,85,8|0,0:0|0:0,0:0:0:0:
272,319,243847,2,0,L|371:307,1,85
229,191,244222,1,8,0:0:0:0:
365,316,244409,1,0,0:0:0:0:
229,191,244597,6,0,P|219:149|223:107,1,85,2|0,0:1|0:0,0:0:0:0:
327,1,244972,2,0,P|331:43|322:85,1,85,8|0,0:0|0:0,0:0:0:0:
131,146,245347,2,0,L|39:137,1,85
189,27,245722,1,8,0:0:0:0:
236,198,245909,1,0,0:0:0:0:
236,198,246003,1,0,0:0:0:0:
236,198,246097,5,2,1:0:0:0:
386,116,246284,1,2,1:0:0:0:
386,116,246378,1,0,0:0:0:0:
386,116,246472,1,0,0:0:0:0:
213,115,246659,1,2,1:0:0:0:
368,18,246847,1,2,1:0:0:0:
399,208,247034,1,0,0:0:0:0:
213,115,247222,1,8,0:0:0:0:
250,93,247316,1,8,0:0:0:0:
286,72,247410,1,8,0:0:0:0:
324,53,247503,1,8,0:0:0:0:
274,176,247784,5,12,0:0:0:0:
383,172,248159,5,12,0:0:0:0:
173,199,248347,1,0,0:0:0:0:
331,97,248534,1,0,0:0:0:0:
335,287,248722,6,0,P|343:314|352:331,1,42.5,8|4,0:3|0:3,0:0:0:0:
456,220,248909,2,0,P|464:200|470:180,1,42.5,8|4,0:3|0:3,0:0:0:0:
274,176,249284,5,0,3:0:0:0:
274,176,249378,1,0,3:0:0:0:
273,175,249472,2,0,P|320:192|370:186,1,102,4|0,0:0|0:0,0:0:0:0:
413,114,249847,6,8,P|430:130|449:160,2,45.3333333333333,8|8|8,0:3|0:3|0:3,0:3:0:0:
331,97,250222,2,4,P|313:80|294:50,2,45.3333333333333,4|4|4,0:3|0:3|0:3,0:3:0:0:
376,33,250597,5,4,0:3:0:0:
273,175,250784,1,4,0:0:0:0:
273,175,250878,1,0,0:0:0:0:
273,175,250972,1,0,0:0:0:0:
450,166,251159,1,4,0:0:0:0:
331,97,251347,1,8,0:0:0:0:
300,83,251440,1,8,0:0:0:0:
266,79,251534,1,8,0:0:0:0:
233,86,251628,1,8,0:0:0:0:
203,103,251722,1,8,0:0:0:0:
284,267,251909,1,8,0:0:0:0:
85,255,252097,5,4,0:0:0:0:
190,198,252284,1,8,0:0:0:0:
190,198,252378,1,8,0:0:0:0:
190,198,252472,1,8,0:0:0:0:
227,363,252659,1,8,0:0:0:0:
363,232,252847,6,8,P|395:228|428:231,2,45.3333333333333
284,266,253222,1,8,0:0:0:0:
378,131,253409,1,8,0:0:0:0:
378,131,253503,1,8,0:0:0:0:
378,131,253597,6,0,L|364:46,1,68,4|8,0:0|0:0,0:0:0:0:
463,166,253972,1,8,0:0:0:0:
285,126,254159,1,8,0:0:0:0:
361,230,254347,1,8,0:0:0:0:
327,226,254440,1,8,0:0:0:0:
294,236,254534,1,8,0:0:0:0:
267,256,254628,1,8,0:0:0:0:
251,286,254722,1,8,0:0:0:0:
232,314,254815,1,8,0:0:0:0:
204,332,254909,1,8,0:0:0:0:
171,339,255003,1,8,0:0:0:0:
138,333,255097,6,0,L|156:237,1,85,6|0,0:1|0:0,0:0:0:0:
40,181,255472,2,0,L|55:264,1,85,8|0,0:0|0:0,0:0:0:0:
218,166,255847,2,0,P|178:150|136:148,1,85
153,249,256222,1,8,0:0:0:0:
188,66,256409,1,0,0:0:0:0:
152,248,256597,6,0,P|191:263|234:266,1,85,2|0,0:1|0:0,0:0:0:0:
341,195,256972,2,0,L|333:279,1,85,8|0,0:0|0:0,0:0:0:0:
218,166,257347,2,0,L|210:81,1,85
340,12,257722,2,0,L|333:78,1,42.5,8|4,0:3|0:3,0:0:0:0:
341,195,257909,2,0,L|334:129,1,42.5,8|4,0:3|0:3,0:0:0:0:
422,35,258097,5,4,0:0:0:0:
254,124,258284,1,8,0:0:0:0:
254,124,258378,1,8,0:0:0:0:
254,124,258472,1,8,0:0:0:0:
216,105,258565,1,8,0:0:0:0:
174,100,258659,1,8,0:0:0:0:
133,109,258753,1,8,0:0:0:0:
97,132,258847,2,0,L|104:216,1,85,8|0,0:0|0:0,0:0:0:0:
200,326,259222,1,8,0:0:0:0:
200,326,259315,1,8,0:0:0:0:
200,326,259409,1,8,0:0:0:0:
200,326,259503,1,8,0:0:0:0:
200,326,259597,5,8,0:0:0:0:
203,283,259690,1,8,0:0:0:0:
207,241,259784,2,0,L|199:175,1,42.5,8|0,0:0|0:0,0:0:0:0:
305,101,259972,1,8,0:0:0:0:
308,144,260065,1,8,0:0:0:0:
312,186,260159,1,8,0:0:0:0:
304,101,260534,6,0,B|258:119|258:119|156:93,1,136,2|0,0:0|0:0,0:0:0:0:
383,52,261097,5,6,0:1:0:0:
234,213,261284,1,0,0:0:0:0:
305,22,261472,1,8,0:0:0:0:
310,253,261659,1,0,0:0:0:0:
305,22,261847,1,2,0:1:0:0:
459,182,262034,1,0,0:0:0:0:
241,71,262222,1,8,0:0:0:0:
480,103,262409,1,0,0:0:0:0:
241,71,262597,5,2,0:0:0:0:
471,24,262784,1,0,0:0:0:0:
471,24,262878,1,0,0:0:0:0:
471,24,262972,1,10,0:0:0:0:
159,125,263159,1,0,0:0:0:0:
400,112,263347,1,2,0:0:0:0:
133,216,263534,1,2,0:0:0:0:
133,216,263628,1,0,0:0:0:0:
133,216,263722,1,10,0:0:0:0:
373,287,263909,1,0,0:0:0:0:
241,71,264097,5,2,0:1:0:0:
243,274,264284,1,0,0:0:0:0:
400,112,264472,1,8,0:0:0:0:
407,122,264565,1,8,0:0:0:0:
414,132,264659,1,8,0:0:0:0:
420,142,264753,1,8,0:0:0:0:
427,152,264847,1,10,0:1:0:0:
274,164,265034,1,0,0:0:0:0:
454,230,265222,1,8,0:0:0:0:
461,240,265315,1,8,0:0:0:0:
468,250,265409,1,8,0:0:0:0:
474,260,265503,1,8,0:0:0:0:
481,270,265597,5,10,0:1:0:0:
274,292,265784,1,0,0:0:0:0:
379,111,265972,2,8,P|386:135|391:174,1,42.5
227,205,266159,2,8,P|231:184|237:163,1,42.5
369,279,266347,1,10,0:1:0:0:
177,293,266534,1,0,0:0:0:0:
301,332,266722,1,8,0:1:0:0:
294,322,266815,1,8,0:0:0:0:
287,312,266909,1,8,0:0:0:0:
281,302,267003,1,8,0:0:0:0:
274,292,267097,6,0,L|289:113,1,170,4|8,0:0|0:0,0:0:0:0:
168,31,267659,1,0,0:0:0:0:
65,34,267847,2,0,P|100:108|179:132,1,170,2|8,0:0|0:0,0:0:0:0:
402,23,268409,6,0,P|323:47|287:121,1,170,6|0,0:1|0:0,0:0:0:0:
400,210,268972,2,0,L|390:126,1,85,8|0,0:0|0:0,0:0:0:0:
274,225,269347,2,0,L|263:309,1,85
425,331,269722,2,0,P|407:310|372:291,1,42.5,8|4,0:3|0:3,0:0:0:0:
302,384,269909,2,0,P|318:370|331:354,1,42.5,8|4,0:3|0:3,0:0:0:0:
400,210,270097,5,12,0:0:0:0:
185,282,270284,1,8,0:0:0:0:
163,272,270659,5,8,0:0:0:0:
410,193,270847,1,8,0:0:0:0:
425,169,271222,5,12,0:0:0:0:
142,262,271409,1,8,0:0:0:0:
337,84,271597,5,8,0:0:0:0:
331,322,271784,1,8,0:0:0:0:
314,332,272159,5,8,0:0:0:0:
356,75,272347,1,8,0:0:0:0:
376,64,272722,5,12,0:0:0:0:
293,341,272909,1,8,0:0:0:0:
165,147,273097,5,8,0:0:0:0:
419,266,273284,1,8,0:0:0:0:
426,285,273659,5,8,0:0:0:0:
218,76,273847,1,8,0:0:0:0:
226,55,274222,5,12,0:0:0:0:
358,339,274409,1,8,0:0:0:0:
232,60,276659,6,2,B|230:105|216:131|216:131|248:166|248:166|221:193|221:193|201:188|164:195,1,203.999993774414,2|0,0:0|0:0,0:1:0:0:
106,174,277597,6,0,P|147:199|191:277,1,127.5,6|0,0:1|0:0,0:0:0:0:
176,282,277972,2,0,P|217:287|258:277,1,85,8|0,0:0|0:0,0:0:0:0:
422,219,278347,2,0,P|381:209|340:215,1,85,2|0,0:1|0:0,0:0:0:0:
371,358,278722,1,8,0:0:0:0:
288,298,278909,1,0,0:0:0:0:
195,375,279097,6,0,P|157:374|105:348,1,85,2|0,0:0|0:0,0:0:0:0:
71,293,279378,1,0,0:0:0:0:
71,293,279472,2,0,L|76:202,1,85,10|0,0:0|0:0,0:0:0:0:
124,47,279847,1,2,0:0:0:0:
147,145,280034,1,0,0:0:0:0:
221,75,280222,1,10,0:0:0:0:
124,47,280409,1,0,0:0:0:0:
245,173,280597,6,0,L|388:148,1,127.5,2|0,0:1|0:0,0:0:0:0:
388,162,280972,2,0,P|399:133|396:74,1,85,8|0,0:0|0:0,0:0:0:0:
311,240,281347,2,0,P|307:282|320:322,1,85,2|0,0:1|0:0,0:0:0:0:
408,269,281722,1,8,0:0:0:0:
245,173,281909,1,0,0:0:0:0:
245,173,282003,1,0,0:0:0:0:
245,173,282097,5,2,0:0:0:0:
342,142,282284,1,0,0:0:0:0:
149,203,282472,2,0,P|106:202|69:183,1,85,10|0,0:0|0:0,0:0:0:0:
139,109,282847,1,2,0:0:0:0:
139,109,282940,1,0,0:0:0:0:
139,109,283034,1,0,0:0:0:0:
237,255,283222,2,0,P|247:214|244:172,1,85,10|0,0:0|0:0,0:0:0:0:
358,21,283597,6,0,P|332:87|347:153,1,127.5,2|0,0:1|0:0,0:0:0:0:
356,155,283972,2,0,L|446:142,1,85,8|0,0:0|0:0,0:0:0:0:
250,41,284347,2,0,L|160:28,1,85,2|0,0:1|0:0,0:0:0:0:
266,133,284722,1,8,0:0:0:0:
104,101,284909,1,0,0:0:0:0:
104,101,285003,1,0,0:0:0:0:
104,101,285097,6,0,P|130:167|115:233,1,127.5,2|0,0:0|0:0,0:0:0:0:
106,235,285472,2,0,L|16:222,1,85,10|0,0:0|0:0,0:0:0:0:
211,127,285847,1,2,0:0:0:0:
104,101,286034,1,0,0:0:0:0:
180,32,286222,1,10,0:0:0:0:
140,198,286409,1,0,0:0:0:0:
140,198,286503,1,0,0:0:0:0:
140,198,286597,6,0,P|139:240|155:292,1,85,2|0,0:1|0:0,0:0:0:0:
302,307,286972,1,8,0:0:0:0:
239,226,287159,1,0,0:0:0:0:
303,126,287347,1,2,0:0:0:0:
252,214,287534,1,2,0:0:0:0:
374,223,287722,1,8,0:0:0:0:
310,133,287909,1,2,0:0:0:0:
310,133,288003,1,0,0:0:0:0:
310,133,288097,6,0,L|321:-2,1,127.5,2|0,0:0|0:0,0:0:0:0:
307,22,288472,2,0,P|268:42|188:29,1,127.5,10|0,0:0|0:0,0:0:0:0:
172,43,288847,2,0,P|125:34|72:44,1,85,2|0,0:0|0:0,0:0:0:0:
226,137,289222,2,0,P|268:141|309:132,1,85,8|0,0:0|0:0,0:0:0:0:
446,17,289597,5,6,0:1:0:0:
412,208,289784,1,0,0:0:0:0:
366,7,289972,1,8,0:0:0:0:
495,213,290159,1,0,0:0:0:0:
292,29,290347,1,2,0:1:0:0:
461,143,290534,1,0,0:0:0:0:
236,87,290722,1,8,0:0:0:0:
308,265,290909,5,0,0:0:0:0:
308,265,291003,1,0,0:0:0:0:
308,265,291097,1,2,0:0:0:0:
382,45,291284,1,0,0:0:0:0:
382,45,291378,1,0,0:0:0:0:
382,45,291472,1,10,0:0:0:0:
379,222,291660,1,0,0:0:0:0:
236,87,291847,1,2,0:0:0:0:
449,105,292035,1,0,0:0:0:0:
275,191,292222,1,10,0:0:0:0:
472,282,292410,1,0,0:0:0:0:
346,126,292597,5,2,0:1:0:0:
317,337,292784,1,0,0:0:0:0:
426,148,292972,1,8,0:0:0:0:
244,288,293159,1,0,0:0:0:0:
276,75,293347,1,2,0:1:0:0:
318,257,293534,1,0,0:0:0:0:
115,138,293722,1,8,0:0:0:0:
360,160,293909,5,0,0:0:0:0:
360,160,294003,1,0,0:0:0:0:
360,160,294097,1,2,0:0:0:0:
124,230,294284,1,0,0:0:0:0:
124,230,294378,1,0,0:0:0:0:
124,230,294472,1,10,0:0:0:0:
277,117,294659,1,0,0:0:0:0:
42,89,294847,1,2,0:0:0:0:
252,191,295034,1,0,0:0:0:0:
350,0,295222,1,10,0:0:0:0:
252,191,295409,1,0,0:0:0:0:
487,82,295597,6,0,P|502:163|459:234,1,170,2|8,0:1|0:0,0:0:0:0:
396,40,296159,1,0,0:0:0:0:
366,136,296347,2,0,P|287:162|211:129,1,170,2|8,0:1|0:0,0:0:0:0:
54,20,296909,1,0,0:0:0:0:
54,20,297003,1,0,0:0:0:0:
53,19,297097,6,0,P|106:51|124:110,1,127.5,2|0,0:0|0:0,0:0:0:0:
116,129,297472,2,0,P|105:181|125:229,1,85,10|0,0:0|0:0,0:0:0:0:
292,178,297847,2,0,L|208:172,1,85,2|0,0:0|0:0,0:0:0:0:
237,269,298222,1,10,0:0:0:0:
385,211,298409,1,0,0:0:0:0:
385,211,298503,1,0,0:0:0:0:
385,211,298597,6,0,P|385:149|332:92,1,127.5,2|0,0:1|0:0,0:0:0:0:
325,95,298972,2,0,P|289:72|270:35,1,85,8|0,0:0|0:0,0:0:0:0:
292,178,299347,2,0,P|251:188|209:180,1,85,2|0,0:1|0:0,0:0:0:0:
69,91,299722,1,8,0:0:0:0:
174,95,299909,1,0,0:0:0:0:
174,95,300003,1,0,0:0:0:0:
174,95,300097,6,0,P|125:144|121:216,1,127.5,2|0,0:0|0:0,0:0:0:0:
128,217,300472,2,0,P|135:260|108:317,1,85,10|0,0:0|0:0,0:0:0:0:
0,165,300847,2,0,P|-7:122|20:65,1,85,2|0,0:0|0:0,0:0:0:0:
151,11,301222,1,10,0:0:0:0:
107,102,301409,1,0,0:0:0:0:
209,95,301597,1,0,0:0:0:0:
151,11,302722,5,8,0:0:0:0:
91,243,302909,1,6,0:1:0:0:
256,192,303003,12,2,304722,0:0:0:0:
