osu file format v14

[General]
AudioFilename: name 3331.mp3
AudioLeadIn: 0
PreviewTime: 92619
Countdown: 0
SampleSet: Normal
StackLeniency: 0.7
Mode: 0
LetterboxInBreaks: 0
WidescreenStoryboard: 0

[Editor]
Bookmarks: 27634,37234,48634,67834,87034,96634,102744,118234
DistanceSpacing: 1.2
BeatDivisor: 4
GridSize: 32
TimelineZoom: 2.999999

[Metadata]
Title:3331
TitleUnicode:3331
Artist:nameless
ArtistUnicode:nameless
Creator:Milan-
Version:Insane
Source:
Tags:pishifat appleeaterx utaite ナノウ Nanou ke-sanβ 初音ミク cut short version Waltz Of Anomalies
BeatmapID:673484
BeatmapSetID:297558

[Difficulty]
HPDrainRate:7
CircleSize:4
OverallDifficulty:8
ApproachRate:9
SliderMultiplier:1.7
SliderTickRate:2

[Events]
//Background and Video events
0,0,"bg.jpg",0,0
Video,-1130,"3331.avi"
//Break Periods
//Storyboard Layer 0 (Background)
//Storyboard Layer 1 (Fail)
//Storyboard Layer 2 (Pass)
//Storyboard Layer 3 (Foreground)
//Storyboard Sound Samples

[TimingPoints]
26544,300,4,1,1,50,1,0
47544,300,4,2,1,45,1,0
47544,-125,4,2,1,45,0,0
66744,-100,4,1,1,48,0,0
85944,-125,4,1,1,40,0,0
94944,-166.666666666667,4,2,1,20,0,0
95544,-100,4,1,1,50,0,1
104844,-100,4,1,1,50,0,0
105144,-100,4,1,1,50,0,1
116919,-166.666666666667,4,2,1,15,0,1
117144,-100,4,1,1,55,0,0

[Colours]
Combo1 : 184,122,130
Combo2 : 215,152,83
Combo3 : 90,136,169
Combo4 : 149,124,100

[HitObjects]
124,118,26544,5,4,0:0:0:0:
124,118,26694,2,0,B|173:120|173:120|237:116,1,85,0|8,0:0|0:0,0:0:0:0:
307,212,26994,1,0,0:0:0:0:
307,212,27144,2,0,B|258:214|258:214|222:211,1,85
64,261,27444,1,8,0:0:0:0:
150,296,27594,1,0,0:0:0:0:
136,202,27744,6,0,L|124:118,1,85
258,26,28044,2,0,L|245:110,1,85,8|0,0:0|0:0,0:0:0:0:
229,202,28344,1,10,0:0:0:0:
335,102,28494,1,0,0:0:0:0:
236,216,28644,1,10,0:0:0:0:
378,203,28794,1,0,0:0:0:0:
314,342,28944,5,2,0:0:0:0:
314,342,29094,2,0,B|307:306|307:306|302:257,1,85,0|8,0:0|0:0,0:0:0:0:
240,119,29394,1,0,0:0:0:0:
240,119,29544,2,0,B|233:155|233:155|228:203,1,85
183,327,29844,1,8,0:0:0:0:
135,246,29994,1,0,0:0:0:0:
50,325,30144,6,0,B|45:285|45:285|49:225,1,85
72,112,30444,2,0,L|165:104,1,85,8|0,0:0|0:0,0:0:0:0:
196,189,30744,1,2,0:0:0:0:
242,41,30894,1,0,0:0:0:0:
278,199,31044,1,10,0:0:0:0:
324,82,31194,1,0,0:0:0:0:
324,82,31269,1,0,0:0:0:0:
324,82,31344,6,0,B|388:73|388:73|493:73,1,170,6|8,0:0|0:0,0:0:0:0:
503,165,31794,1,0,0:0:0:0:
369,220,31944,2,0,B|305:229|305:229|199:229,1,170,2|8,0:0|0:0,0:0:0:0:
108,206,32394,1,0,0:0:0:0:
193,68,32544,6,0,B|201:104|201:104|203:153,1,85,2|0,0:0|0:0,0:0:0:0:
72,99,32844,2,0,B|74:50|74:50|82:14,1,85,10|0,0:0|0:0,0:0:0:0:
199,75,33144,2,0,B|248:76|248:76|297:71,1,85,2|0,0:0|0:0,0:0:0:0:
392,182,33444,2,0,B|343:183|343:183|294:178,1,85,10|0,0:0|0:0,0:0:0:0:
457,102,33744,6,0,P|496:174|468:252,1,170,6|8,0:0|0:0,0:0:0:0:
392,306,34194,1,0,0:0:0:0:
245,232,34344,2,0,B|171:232|171:232|65:240,1,170,2|8,0:0|0:0,0:0:0:0:
297,312,34794,1,0,0:0:0:0:
339,228,34944,6,0,B|343:179|343:179|341:143,1,85,2|0,0:0|0:0,0:0:0:0:
214,43,35244,2,0,B|212:78|212:78|216:127,1,85,8|0,0:0|0:0,0:0:0:0:
346,231,35544,2,0,B|386:231|386:231|438:226,1,85,10|0,0:0|0:0,0:0:0:0:
224,213,35844,2,0,B|184:213|184:213|132:208,1,85,8|0,0:0|0:0,0:0:0:0:
25,70,36144,6,0,B|26:110|26:110|33:171,1,85,4|0,0:0|0:0,0:0:0:0:
120,126,36444,1,8,0:0:0:0:
59,238,36594,1,0,0:0:0:0:
131,297,36744,2,0,L|243:295,1,85,8|0,0:0|0:0,0:0:0:0:
269,176,37044,1,8,0:0:0:0:
269,176,37194,1,0,0:0:0:0:
342,315,37344,6,0,B|348:278|348:278|345:230,1,85,8|0,0:0|0:0,0:0:0:0:
173,119,37644,2,0,B|170:167|170:167|176:204,1,85,8|0,0:0|0:0,0:0:0:0:
266,79,37944,1,10,0:0:0:0:
116,58,38094,1,0,0:0:0:0:
272,96,38244,1,10,0:0:0:0:
180,0,38394,1,0,0:0:0:0:
250,185,38544,6,0,B|355:186|355:186|419:179,1,170,14|8,0:0|0:0,0:0:0:0:
499,129,38994,1,0,0:0:0:0:
453,255,39144,2,0,B|453:293|453:293|460:346,1,85,8|0,0:0|0:0,0:0:0:0:
493,133,39444,2,0,B|453:102|453:102|410:85,1,85,8|0,0:0|0:0,0:0:0:0:
351,250,39744,6,0,B|379:225|379:225|402:179,1,85,8|0,0:0|0:0,0:0:0:0:
272,202,40044,1,8,0:0:0:0:
272,202,40194,1,0,0:0:0:0:
263,295,40344,2,0,B|267:335|267:335|280:386,1,85,10|0,0:0|0:0,0:0:0:0:
184,238,40644,1,10,0:0:0:0:
124,310,40794,1,0,0:0:0:0:
124,310,40869,1,0,0:0:0:0:
124,310,40944,6,0,B|66:263|66:263|27:250|27:250|-21:213,1,170,14|8,0:0|0:0,0:0:0:0:
30,337,41394,1,0,0:0:0:0:
30,153,41544,2,0,B|72:186|72:186|111:199|111:199|169:246,1,170,2|8,0:0|0:0,0:0:0:0:
240,307,41994,1,0,0:0:0:0:
320,187,42144,6,0,B|332:224|332:224|342:282,1,85,2|0,0:0|0:0,0:0:0:0:
225,165,42444,2,0,B|232:119|232:119|244:82,1,85,10|0,0:0|0:0,0:0:0:0:
346,25,42744,2,0,B|391:23|391:23|430:15,1,85,2|0,0:0|0:0,0:0:0:0:
244,83,43044,2,0,B|199:81|199:81|159:73,1,85,10|0,0:0|0:0,0:0:0:0:
0,121,43344,6,0,B|93:146|93:146|173:182,1,170,2|8,0:0|0:0,0:0:0:0:
188,303,43794,1,0,0:0:0:0:
257,221,43944,1,2,0:0:0:0:
257,221,44019,1,0,0:0:0:0:
257,221,44094,1,0,0:0:0:0:
296,335,44244,2,0,B|336:341|336:341|394:340,1,85,8|0,0:0|0:0,0:0:0:0:
495,220,44544,6,0,B|450:219|450:219|410:225,1,85,2|0,0:0|0:0,0:0:0:0:
393,238,44769,1,0,0:0:0:0:
375,250,44844,1,8,0:0:0:0:
488,324,44994,5,4,0:0:0:0:
491,327,45294,1,4,0:0:0:0:
494,330,45594,1,4,0:0:0:0:
327,158,45894,5,4,0:0:0:0:
324,161,46194,1,4,0:0:0:0:
321,164,46494,1,4,0:0:0:0:
496,332,46794,5,4,0:0:0:0:
59,283,47544,6,0,L|89:206,1,68,6|0,0:0|0:0,0:0:0:0:
155,118,47844,2,0,P|171:147|179:180,1,68,2|0,0:0|0:0,0:0:0:0:
72,101,48144,1,2,0:0:0:0:
127,40,48294,1,0,0:0:0:0:
207,52,48444,2,0,L|285:49,1,68,2|0,0:0|0:0,0:0:0:0:
404,144,48744,6,0,L|252:137,1,136,2|2,0:0|0:0,0:0:0:0:
166,151,49194,2,0,P|131:160|99:184,1,68,0|2,0:0|0:0,0:0:0:0:
167,230,49494,1,0,0:0:0:0:
271,150,49644,1,2,0:0:0:0:
216,292,49794,1,0,0:0:0:0:
171,138,49944,6,0,P|189:111|218:92,1,68,2|0,0:0|0:0,0:0:0:0:
336,236,50244,2,0,P|303:243|269:236,1,68,2|0,0:0|0:0,0:0:0:0:
390,148,50544,1,2,0:0:0:0:
416,225,50694,1,0,0:0:0:0:
312,157,50844,2,0,L|301:79,1,68,2|0,0:0|0:0,0:0:0:0:
203,49,51144,6,0,P|195:116|171:180,1,136,2|2,0:0|0:0,0:0:0:0:
93,84,51594,2,0,L|87:151,1,68,0|2,0:0|0:0,0:0:0:0:
113,262,51894,1,0,0:0:0:0:
160,192,52044,1,2,0:0:0:0:
237,217,52194,1,0,0:0:0:0:
240,220,52269,1,0,0:0:0:0:
243,223,52344,6,0,L|320:215,1,68,2|0,0:0|0:0,0:0:0:0:
425,318,52644,2,0,L|357:310,1,68,2|0,0:0|0:0,0:0:0:0:
434,168,52944,1,2,0:0:0:0:
464,243,53094,1,0,0:0:0:0:
477,96,53244,1,2,0:0:0:0:
351,148,53394,6,0,P|284:140|236:94,1,136
318,69,53844,1,2,0:0:0:0:
168,135,53994,2,0,B|180:190|180:190|185:220,1,68,0|2,0:0|0:0,0:0:0:0:
177,367,54294,1,0,0:0:0:0:
246,324,54444,1,2,0:0:0:0:
173,287,54594,1,0,0:0:0:0:
304,376,54744,6,0,P|320:346|322:312,1,68,2|0,0:0|0:0,0:0:0:0:
214,165,55044,2,0,P|216:198|231:228,1,68,2|0,0:0|0:0,0:0:0:0:
324,94,55344,1,2,0:0:0:0:
294,173,55494,1,0,0:0:0:0:
217,82,55644,2,0,P|183:88|153:104,1,68,2|0,0:0|0:0,0:0:0:0:
89,189,55944,5,2,0:0:0:0:
36,126,56094,1,0,0:0:0:0:
11,203,56244,1,2,0:0:0:0:
132,254,56394,2,0,B|178:255|178:255|211:252,1,68,0|2,0:0|0:0,0:0:0:0:
357,199,56694,1,0,0:0:0:0:
283,163,56844,2,0,B|236:161|236:161|204:165,1,68,6|0,0:0|0:0,0:0:0:0:
282,306,57144,6,0,P|286:273|287:239,1,68,6|0,0:0|0:0,0:0:0:0:
213,354,57444,1,2,0:0:0:0:
160,291,57594,2,0,P|153:235|167:153,1,136
238,193,58044,1,2,0:0:0:0:
130,90,58194,1,0,0:0:0:0:
277,42,58344,6,0,P|290:86|288:114,1,68,2|0,0:0|0:0,0:0:0:0:
209,85,58644,1,2,0:0:0:0:
358,39,58794,2,0,L|437:35,1,68,0|2,0:0|0:0,0:0:0:0:
465,156,59094,1,0,0:0:0:0:
501,83,59244,1,2,0:0:0:0:
507,224,59394,1,0,0:0:0:0:
389,137,59544,6,0,P|318:119|250:112,1,136,2|2,0:0|0:0,0:0:0:0:
177,140,59994,1,0,0:0:0:0:
287,201,60144,2,0,P|292:234|289:268,1,68,2|0,0:0|0:0,0:0:0:0:
204,384,60444,2,0,P|200:350|206:316,1,68,2|0,0:0|0:0,0:0:0:0:
281,363,60744,5,2,0:0:0:0:
213,238,60894,1,0,0:0:0:0:
213,238,60969,1,0,0:0:0:0:
213,238,61044,1,2,0:0:0:0:
95,305,61194,1,0,0:0:0:0:
87,134,61344,1,2,0:0:0:0:
87,134,61419,1,0,0:0:0:0:
87,134,61494,1,0,0:0:0:0:
74,222,61644,2,0,P|107:218|138:204,1,68,2|0,0:0|0:0,0:0:0:0:
227,103,61944,6,0,P|291:83|356:98,1,136,2|2,0:0|0:0,0:0:0:0:
355,15,62394,1,0,0:0:0:0:
292,161,62544,2,0,L|310:230,1,68,2|0,0:0|0:0,0:0:0:0:
357,99,62844,1,2,0:0:0:0:
378,185,62994,6,0,L|396:254,1,68,0|2,0:0|0:0,0:0:0:0:
422,107,63294,2,0,P|390:95|357:98,1,68,0|2,0:0|0:0,0:0:0:0:
249,227,63594,2,0,P|280:238|314:235,1,68,0|2,0:0|0:0,0:0:0:0:
210,153,63894,1,0,0:0:0:0:
210,153,63969,1,0,0:0:0:0:
210,153,64044,1,2,0:0:0:0:
194,286,64194,1,0,0:0:0:0:
131,171,64344,5,2,0:0:0:0:
249,227,64494,1,0,0:0:0:0:
263,87,64644,2,0,P|284:123|289:163,1,68,2|0,0:0|0:0,0:0:0:0:
184,72,64944,2,0,P|191:39|210:10,1,68,2|0,0:0|0:0,0:0:0:0:
291,13,65244,1,2,0:0:0:0:
210,153,65394,1,4,0:0:0:0:
210,153,66744,6,0,P|319:162|383:156,1,170,4|8,0:0|0:0,0:0:0:0:
466,121,67194,1,0,0:0:0:0:
389,313,67344,2,0,P|371:274|366:232,1,85
475,303,67644,1,8,0:0:0:0:
320,357,67794,6,0,L|232:349,1,85,2|0,0:0|0:0,0:0:0:0:
117,273,68094,2,0,L|205:265,1,85,2|8,0:0|0:0,0:0:0:0:
282,218,68394,1,2,0:0:0:0:
323,362,68544,1,0,0:0:0:0:
416,241,68694,1,0,0:0:0:0:
279,295,68844,2,0,B|239:288|239:288|201:265,1,85,8|0,0:0|0:0,0:0:0:0:
179,94,69144,6,0,B|200:137|200:137|214:189,1,85
108,136,69444,1,8,0:0:0:0:
108,136,69594,1,0,0:0:0:0:
241,39,69744,2,0,L|289:134,1,85
204,257,70044,2,0,L|211:164,1,85,8|0,0:0|0:0,0:0:0:0:
349,266,70344,5,0,0:1:0:0:
291,192,70494,1,0,0:0:0:0:
264,331,70644,1,8,0:0:0:0:
200,262,70794,2,0,B|164:255|164:255|95:253,1,85
24,275,71094,1,0,0:0:0:0:
3,117,71244,1,8,0:0:0:0:
61,189,71394,1,0,0:0:0:0:
190,89,71544,6,0,P|236:86|288:89,1,85
152,163,71844,2,0,P|120:134|105:95,1,85,8|0,0:0|0:0,0:0:0:0:
231,168,72144,1,0,0:0:0:0:
306,67,72294,1,0,0:0:0:0:
414,187,72444,2,0,P|455:194|497:189,1,85,8|0,0:0|0:0,0:0:0:0:
370,118,72744,6,0,B|342:144|342:144|322:202,1,85
368,265,73044,1,8,0:0:0:0:
258,247,73194,2,0,L|167:250,1,85
83,279,73494,1,0,0:0:0:0:
153,175,73644,1,8,0:0:0:0:
192,332,73794,1,0,0:0:0:0:
262,244,73944,6,0,B|267:195|267:195|262:159,1,85
237,68,74244,1,8,0:0:0:0:
237,68,74319,1,0,0:0:0:0:
237,68,74394,1,0,0:0:0:0:
349,151,74544,1,0,0:0:0:0:
306,19,74694,1,0,0:0:0:0:
168,111,74844,2,0,P|131:91|110:54,1,85,8|0,0:0|0:0,0:0:0:0:
73,151,75144,6,0,B|124:146|124:146|262:161,1,170,2|10,0:0|0:0,0:0:0:0:
99,259,75594,2,0,B|48:263|48:263|6:257,1,85,2|0,0:0|0:0,0:0:0:0:
183,234,75894,1,0,0:0:0:0:
294,317,76044,1,8,0:0:0:0:
265,203,76194,1,0,0:0:0:0:
195,352,76344,6,0,B|261:365|261:365|394:362,1,170,4|8,0:0|0:0,0:0:0:0:
457,352,76794,1,0,0:0:0:0:
360,232,76944,2,0,P|317:226|275:228,1,85
432,271,77244,2,0,P|440:229|429:188,1,85,8|0,0:0|0:0,0:0:0:0:
334,88,77544,5,0,0:0:0:0:
360,232,77694,1,0,0:0:0:0:
406,118,77844,1,8,0:0:0:0:
268,149,77994,2,0,L|167:129,1,85
120,64,78294,1,0,0:0:0:0:
275,153,78444,1,8,0:0:0:0:
201,41,78594,1,0,0:0:0:0:
106,142,78744,6,0,B|110:183|110:183|120:225,1,85
202,338,79044,2,0,B|212:295|212:295|216:254,1,85,8|0,0:0|0:0,0:0:0:0:
101,145,79344,2,0,B|68:145|68:145|11:139,1,85
202,178,79644,2,0,B|235:178|235:178|292:172,1,85,8|0,0:0|0:0,0:0:0:0:
407,76,79944,5,0,0:0:0:0:
407,76,80094,1,0,0:0:0:0:
370,183,80244,1,8,0:0:0:0:
277,94,80394,2,0,B|225:99|225:99|192:99,1,85
66,33,80694,1,0,0:0:0:0:
111,110,80844,2,0,B|115:152|115:152|112:228,1,85,8|0,0:0|0:0,0:0:0:0:
193,314,81144,6,0,B|191:271|191:271|195:229,1,85
243,148,81444,1,8,0:0:0:0:
243,148,81594,1,0,0:0:0:0:
362,228,81744,2,0,P|278:242|195:229,1,170,0|8,0:0|0:0,0:0:0:0:
113,183,82194,1,0,0:0:0:0:
51,280,82344,6,0,B|46:317|46:317|45:366,1,85
133,271,82644,1,8,0:0:0:0:
133,271,82719,1,0,0:0:0:0:
133,271,82794,1,0,0:0:0:0:
222,363,82944,1,0,0:0:0:0:
196,212,83094,1,2,0:0:0:0:
308,252,83244,2,0,L|411:240,1,85,8|0,0:0|0:0,0:0:0:0:
484,152,83544,6,0,B|434:150|434:150|381:140,1,85,2|0,0:0|0:0,0:0:0:0:
210,121,83844,2,0,B|260:119|260:119|313:109,1,85,8|0,0:0|0:0,0:0:0:0:
364,51,84144,1,0,0:0:0:0:
364,51,84294,1,0,0:0:0:0:
333,179,84444,2,0,P|331:221|335:263,1,85,8|0,0:0|0:0,0:0:0:0:
432,382,84744,6,0,B|432:319|432:319|410:214,1,170,2|10,0:0|0:0,0:0:0:0:
398,129,85194,1,0,0:0:0:0:
335,263,85344,2,0,P|296:279|254:281,1,85,2|0,0:0|0:0,0:0:0:0:
160,177,85644,2,0,P|202:179|241:195,1,85,10|0,0:0|0:0,0:0:0:0:
154,337,85944,6,0,B|143:306|143:306|132:257,1,68,4|0,0:0|0:0,0:0:0:0:
79,175,86244,1,8,0:0:0:0:
79,175,86394,1,0,0:0:0:0:
17,309,86544,2,0,B|22:276|22:276|37:228,1,68
164,338,86844,1,8,0:0:0:0:
164,338,86994,1,0,0:0:0:0:
224,283,87144,6,0,B|265:275|265:275|321:263,1,68
394,337,87444,1,8,0:0:0:0:
369,259,87594,2,0,L|368:186,1,68
474,306,87894,1,0,0:0:0:0:
449,228,88044,2,0,L|448:155,1,68,8|0,0:0|0:0,0:0:0:0:
491,40,88344,5,0,0:0:0:0:
491,40,88494,1,0,0:0:0:0:
414,75,88644,2,0,B|376:74|376:74|330:71,1,68,8|0,0:0|0:0,0:0:0:0:
223,132,88944,1,0,0:0:0:0:
223,132,89094,1,0,0:0:0:0:
300,167,89244,2,0,B|337:166|337:166|384:163,1,68,8|0,0:0|0:0,0:0:0:0:
198,227,89544,6,0,B|160:226|160:226|114:223,1,68,2|2,0:0|0:0,0:0:0:0:
16,319,89844,2,0,B|53:318|53:318|100:315,1,68,10|2,0:0|0:0,0:0:0:0:
54,165,90144,2,0,B|45:196|45:196|43:250,1,68,2|0,0:0|0:0,0:0:0:0:
135,141,90444,1,8,0:0:0:0:
135,141,90594,1,0,0:0:0:0:
205,237,90744,6,0,B|243:238|243:238|289:236,1,68,4|0,0:0|0:0,0:0:0:0:
344,195,91044,1,8,0:0:0:0:
344,195,91194,1,0,0:0:0:0:
292,345,91344,2,0,B|319:318|319:318|350:284,1,68
211,317,91644,1,8,0:0:0:0:
211,317,91794,1,0,0:0:0:0:
138,354,91944,6,0,B|98:347|98:347|62:333,1,68
35,250,92244,2,0,L|56:223,3,34,8|0|0|0,0:0|0:0|0:0|0:0,0:0:0:0:
82,208,92544,1,8,0:0:0:0:
110,195,92619,1,0,0:0:0:0:
137,181,92694,1,0,0:0:0:0:
165,169,92769,1,0,0:0:0:0:
193,156,92844,1,4,0:0:0:0:
135,364,93144,5,4,0:0:0:0:
132,367,93744,5,4,0:0:0:0:
129,370,94194,5,8,0:0:0:0:
126,373,94269,1,8,0:0:0:0:
123,376,94344,1,4,0:3:0:0:
123,376,94944,6,0,P|110:347|217:288,1,178.499994552612
231,297,95544,6,0,B|279:294|279:294|315:288,1,85,4|0,0:0|0:0,0:0:0:0:
435,214,95844,2,0,B|387:211|387:211|351:205,1,85,8|0,0:0|0:0,0:0:0:0:
462,125,96144,1,0,0:0:0:0:
376,86,96294,1,0,0:0:0:0:
428,224,96444,1,8,0:0:0:0:
270,150,96594,6,0,B|231:138|231:138|181:131,1,85
119,232,96894,1,0,0:0:0:0:
104,140,97044,2,0,P|113:99|140:67,1,85,8|0,0:0|0:0,0:0:0:0:
260,59,97344,1,0,0:0:0:0:
260,59,97494,1,0,0:0:0:0:
270,150,97644,2,0,L|269:242,1,85,8|0,0:0|0:0,0:0:0:0:
312,363,97944,6,0,B|347:371|407:376,1,85
204,327,98244,2,0,B|169:335|109:340,1,85,8|0,0:0|0:0,0:0:0:0:
134,192,98544,1,0,0:0:0:0:
70,260,98694,1,0,0:0:0:0:
7,125,98844,2,0,B|59:119|59:119|90:111,1,85,8|0,0:0|0:0,0:0:0:0:
202,25,99144,6,0,B|233:32|233:32|285:38,1,85
396,26,99444,1,8,0:0:0:0:
404,40,99519,1,0,0:0:0:0:
413,54,99594,1,0,0:0:0:0:
422,68,99669,1,0,0:0:0:0:
431,82,99744,1,2,0:0:0:0:
379,224,99894,1,0,0:0:0:0:
356,133,100044,1,10,0:0:0:0:
283,247,100194,1,0,0:0:0:0:
408,305,100344,6,0,P|459:241|437:163,1,170,4|8,0:0|0:0,0:0:0:0:
379,224,100794,1,0,0:0:0:0:
277,155,100944,2,0,B|248:165|248:165|190:167,1,85
62,238,101244,2,0,B|113:248|113:248|149:250,1,85,8|0,0:0|0:0,0:0:0:0:
85,133,101544,5,0,0:0:0:0:
164,255,101694,1,0,0:0:0:0:
281,162,101844,2,0,P|282:118|275:68,1,85,8|0,0:0|0:0,0:0:0:0:
161,155,102144,2,0,P|116:206|13:169,1,170,0|8,0:0|0:0,0:0:0:0:
148,74,102594,1,0,0:0:0:0:
285,167,102744,6,0,B|328:166|328:166|375:159,1,85,6|0,0:0|0:0,0:0:0:0:
222,243,103044,2,0,B|179:242|179:242|132:235,1,85,8|0,0:0|0:0,0:0:0:0:
42,126,103344,1,2,0:0:0:0:
198,165,103494,1,0,0:0:0:0:
130,253,103644,1,8,0:0:0:0:
132,109,103794,6,0,B|163:93|163:93|220:74,1,85,2|0,0:0|0:0,0:0:0:0:
348,20,104094,1,0,0:0:0:0:
285,167,104244,1,10,0:0:0:0:
393,98,104394,1,0,0:0:0:0:
266,28,104544,1,10,0:0:0:0:
240,23,104619,1,0,0:0:0:0:
214,24,104694,1,0,0:0:0:0:
189,31,104769,1,0,0:0:0:0:
165,41,104844,2,0,B|126:45|126:45|59:38,1,85,12|0,0:0|0:0,0:0:0:0:
190,135,105144,6,0,P|255:142|371:178,1,170,4|8,0:0|0:0,0:0:0:0:
435,231,105594,1,0,0:0:0:0:
393,98,105744,2,0,P|396:60|414:18,1,85
498,138,106044,1,8,0:0:0:0:
423,242,106194,6,0,B|385:248|385:248|325:250,1,85
253,177,106494,1,0,0:0:0:0:
208,287,106644,2,0,P|211:332|227:390,1,85,8|0,0:0|0:0,0:0:0:0:
253,177,106944,1,0,0:0:0:0:
301,296,107094,1,0,0:0:0:0:
355,142,107244,2,0,B|355:178|355:178|348:257,1,85,8|0,0:0|0:0,0:0:0:0:
288,84,107544,6,0,P|322:63|375:54,1,85
459,61,107844,1,8,0:0:0:0:
440,177,107994,2,0,P|398:168|362:146,1,85
284,79,108294,1,0,0:0:0:0:
241,191,108444,1,8,0:0:0:0:
205,38,108594,1,0,0:0:0:0:
128,139,108744,6,0,B|97:131|97:131|50:100,1,85
32,219,109044,1,8,0:0:0:0:
39,234,109119,1,0,0:0:0:0:
46,249,109194,1,0,0:0:0:0:
54,263,109269,1,0,0:0:0:0:
62,277,109344,2,0,P|103:285|145:286,1,85,2|0,0:0|0:0,0:0:0:0:
241,191,109644,1,10,0:0:0:0:
281,275,109794,1,0,0:0:0:0:
320,132,109944,6,0,P|248:93|171:120,1,170,4|8,0:0|0:0,0:0:0:0:
157,140,110319,1,0,0:0:0:0:
145,160,110394,1,0,0:0:0:0:
62,278,110544,2,0,B|54:248|54:248|54:189,1,85
178,265,110844,2,0,B|230:266|230:266|272:262,1,85,8|0,0:0|0:0,0:0:0:0:
254,380,111144,5,0,0:0:0:0:
338,235,111294,1,0,0:0:0:0:
395,319,111444,2,0,P|452:319|505:338,1,85,8|0,0:0|0:0,0:0:0:0:
342,242,111744,2,0,P|299:215|270:97,1,170,0|8,0:0|0:0,0:0:0:0:
335,38,112194,1,0,0:0:0:0:
192,58,112344,6,0,B|149:56|149:56|97:45,1,85
0,165,112644,2,0,B|43:163|43:163|95:152,1,85,8|0,0:0|0:0,0:0:0:0:
197,66,112944,1,0,0:0:0:0:
160,201,113094,1,0,0:0:0:0:
241,145,113244,2,0,P|253:193|252:245,1,85,8|0,0:0|0:0,0:0:0:0:
237,346,113544,6,0,B|193:348|193:348|144:347,1,85
43,308,113844,1,8,0:0:0:0:
34,283,113919,1,0,0:0:0:0:
32,257,113994,1,0,0:0:0:0:
35,231,114069,1,0,0:0:0:0:
46,208,114144,2,0,B|66:172|66:172|77:122,1,85,2|0,0:0|0:0,0:0:0:0:
160,201,114444,1,10,0:0:0:0:
122,60,114594,1,0,0:0:0:0:
0,145,114744,5,4,0:0:0:0:
163,207,115344,1,4,0:0:0:0:
339,176,115794,1,0,0:0:0:0:
342,173,115869,1,0,0:0:0:0:
345,170,115944,1,4,0:0:0:0:
348,167,116919,6,0,P|328:157|341:188,1,76.4999976654053,0|4,0:0|0:0,0:0:0:0:
