osu file format v14

[General]
AudioFilename: name 3331.mp3
AudioLeadIn: 0
PreviewTime: 92619
Countdown: 0
SampleSet: Normal
StackLeniency: 0.7
Mode: 0
LetterboxInBreaks: 0
WidescreenStoryboard: 0

[Editor]
Bookmarks: 27634,37234,48634,67834,87034,96634,102744,118234
DistanceSpacing: 1.4
BeatDivisor: 4
GridSize: 32
TimelineZoom: 2.999999

[Metadata]
Title:3331
TitleUnicode:3331
Artist:nameless
ArtistUnicode:nameless
Creator:Milan-
Version:Hard
Source:
Tags:pishifat appleeaterx utaite ナノウ Nanou ke-sanβ 初音ミク cut short version Waltz Of Anomalies
BeatmapID:684326
BeatmapSetID:297558

[Difficulty]
HPDrainRate:6
CircleSize:4
OverallDifficulty:6
ApproachRate:8
SliderMultiplier:1.4
SliderTickRate:2

[Events]
//Background and Video events
0,0,"bg.jpg",0,0
Video,-1130,"3331.avi"
//Break Periods
//Storyboard Layer 0 (Background)
//Storyboard Layer 1 (Fail)
//Storyboard Layer 2 (Pass)
//Storyboard Layer 3 (Foreground)
//Storyboard Sound Samples

[TimingPoints]
26544,300,4,1,1,50,1,0
47544,300,4,2,1,45,1,0
47544,-125,4,2,1,45,0,0
66744,-100,4,1,1,48,0,0
85944,-125,4,1,1,40,0,0
94944,-166.666666666667,4,2,1,20,0,0
95544,-100,4,1,1,50,0,1
104844,-100,4,1,1,50,0,0
105144,-100,4,1,1,50,0,1
116919,-166.666666666667,4,2,1,15,0,1
117144,-100,4,1,1,55,0,0

[Colours]
Combo1 : 184,122,130
Combo2 : 215,152,83
Combo3 : 90,136,169
Combo4 : 149,124,100

[HitObjects]
333,251,26544,6,0,B|382:248|382:248|431:242,2,70,4|0|8,0:0|0:0|0:0,0:0:0:0:
260,207,26994,1,0,0:0:0:0:
178,225,27144,2,0,B|129:222|129:222|80:216,2,70,0|0|8,0:0|0:0|0:0,0:0:0:0:
260,207,27594,1,0,0:0:0:0:
335,170,27744,2,0,B|367:133|367:133|397:94,2,70,0|0|8,0:0|0:0|0:0,0:0:0:0:
260,207,28194,1,0,0:0:0:0:
232,286,28344,2,0,B|231:320|231:320|237:362,1,70,10|0,0:0|0:0,0:0:0:0:
260,207,28644,2,0,B|261:173|261:173|255:131,1,70,10|0,0:0|0:0,0:0:0:0:
170,85,28944,6,0,B|169:142|169:142|177:180|177:180|178:233,1,140,2|8,0:0|0:0,0:0:0:0:
153,305,29394,1,0,0:0:0:0:
72,282,29544,2,0,B|46:302|46:302|17:339,2,70,0|0|8,0:0|0:0|0:0,0:0:0:0:
153,305,29994,1,0,0:0:0:0:
229,340,30144,2,0,B|255:320|255:320|284:283,2,70,0|0|8,0:0|0:0|0:0,0:0:0:0:
153,305,30594,1,0,0:0:0:0:
135,222,30744,2,0,B|99:200|99:200|56:184,1,70,2|0,0:0|0:0,0:0:0:0:
206,175,31044,2,0,B|242:153|242:153|285:137,1,70,10|0,0:0|0:0,0:0:0:0:
356,200,31344,6,0,B|316:225|276:223|276:223|258:244|212:262,1,140,6|8,0:0|0:0,0:0:0:0:
146,253,31794,1,0,0:0:0:0:
217,331,31944,2,0,B|268:326|305:294|305:294|342:289|347:284,1,140,2|8,0:0|0:0,0:0:0:0:
424,252,32394,1,0,0:0:0:0:
421,144,32544,2,0,B|384:115|341:121|341:121|277:129,1,140,2|10,0:0|0:0,0:0:0:0:
215,172,32994,1,0,0:0:0:0:
137,139,33144,2,0,P|157:110|187:94,1,70,2|0,0:0|0:0,0:0:0:0:
151,216,33444,2,0,P|116:214|85:197,1,70,10|0,0:0|0:0,0:0:0:0:
215,172,33744,6,0,P|229:214|165:291,1,140,6|8,0:0|0:0,0:0:0:0:
94,290,34194,1,0,0:0:0:0:
171,363,34344,2,0,B|234:354|273:310|273:310|310:306,1,140,2|8,0:0|0:0,0:0:0:0:
377,324,34794,1,0,0:0:0:0:
319,233,34944,2,0,B|260:235|260:235|235:232|235:232|172:235,1,140,2|8,0:0|0:0,0:0:0:0:
100,202,35394,1,0,0:0:0:0:
171,158,35544,2,0,L|247:152,1,70,10|0,0:0|0:0,0:0:0:0:
325,151,35844,2,0,B|363:124|363:124|386:100,1,70,8|0,0:0|0:0,0:0:0:0:
257,73,36144,6,0,B|213:77|213:77|181:76,2,70,4|0|8,0:0|0:0|0:0,0:0:0:0:
335,42,36594,1,0,0:0:0:0:
418,34,36744,2,0,B|462:38|462:38|494:37,2,70,8|0|8,0:0|0:0|0:0,0:0:0:0:
335,42,37194,1,0,0:0:0:0:
318,124,37344,2,0,B|294:171|294:171|287:204,2,70,8|0|8,0:0|0:0|0:0,0:0:0:0:
401,116,37794,1,0,0:0:0:0:
450,182,37944,2,0,P|458:217|456:251,1,70,10|0,0:0|0:0,0:0:0:0:
385,297,38244,2,0,P|377:262|379:228,1,70,10|0,0:0|0:0,0:0:0:0:
460,326,38544,6,0,P|410:372|342:367,1,140,14|8,0:0|0:0,0:0:0:0:
263,336,38994,1,0,0:0:0:0:
180,319,39144,2,0,B|132:328|132:328|92:344,2,70,8|0|8,0:0|0:0|0:0,0:0:0:0:
263,336,39594,1,0,0:0:0:0:
297,259,39744,2,0,B|301:222|301:222|299:189,1,70,8|0,0:0|0:0,0:0:0:0:
384,188,40044,2,0,B|380:150|380:150|381:118,1,70,8|0,0:0|0:0,0:0:0:0:
428,48,40344,1,10,0:0:0:0:
428,48,40494,1,0,0:0:0:0:
344,51,40644,2,0,P|317:73|305:105,1,70,10|0,0:0|0:0,0:0:0:0:
247,193,40944,6,0,B|190:186|190:186|146:187|146:187|92:178,1,140,14|8,0:0|0:0,0:0:0:0:
24,184,41394,1,0,0:0:0:0:
102,254,41544,2,0,B|140:260|140:260|184:259|184:259|241:266,1,140,2|8,0:0|0:0,0:0:0:0:
323,282,41994,1,0,0:0:0:0:
235,339,42144,2,0,B|178:332|178:332|134:333|134:333|80:324,1,140,2|10,0:0|0:0,0:0:0:0:
24,282,42594,1,0,0:0:0:0:
22,198,42744,2,0,B|28:162|28:162|39:130,1,70,2|0,0:0|0:0,0:0:0:0:
104,47,43044,2,0,B|110:83|110:83|121:114,1,70,10|0,0:0|0:0,0:0:0:0:
212,173,43344,6,0,B|261:164|261:164|305:149|366:137,1,140,2|8,0:0|0:0,0:0:0:0:
391,68,43794,1,0,0:0:0:0:
347,140,43944,2,0,P|345:208|393:257,1,140,2|8,0:0|0:0,0:0:0:0:
425,179,44394,1,0,0:0:0:0:
467,107,44544,2,0,P|473:72|467:38,2,70,2|0|8,0:0|0:0|0:0,0:0:0:0:
425,179,44994,5,4,0:0:0:0:
271,247,45294,1,4,0:0:0:0:
425,179,45594,1,4,0:0:0:0:
271,247,45894,1,4,0:0:0:0:
425,179,46194,1,4,0:0:0:0:
271,247,46494,1,4,0:0:0:0:
425,179,46794,1,4,0:0:0:0:
94,60,47544,6,0,P|65:106|75:160,1,112,6|2,0:0|0:0,0:0:0:0:
127,215,47994,1,0,0:0:0:0:
194,180,48144,2,0,L|269:168,1,56,2|0,0:0|0:0,0:0:0:0:
290,234,48444,2,0,P|311:216|327:193,1,56,2|0,0:0|0:0,0:0:0:0:
345,119,48744,2,0,P|391:148|407:200,1,112,2|2,0:0|0:0,0:0:0:0:
482,209,49194,2,0,L|383:281,1,112,0|0,0:0|0:0,0:0:0:0:
353,340,49644,2,0,P|379:348|407:348,1,56,2|0,0:0|0:0,0:0:0:0:
313,271,49944,6,0,P|286:262|258:262,1,56,2|0,0:0|0:0,0:0:0:0:
186,284,50244,1,2,0:0:0:0:
116,253,50394,1,0,0:0:0:0:
55,298,50544,2,0,P|27:297|0:289,1,56,2|0,0:0|0:0,0:0:0:0:
38,223,50844,2,0,P|18:203|5:178,1,56,2|0,0:0|0:0,0:0:0:0:
80,153,51144,2,0,P|113:197|115:252,1,112,2|2,0:0|0:0,0:0:0:0:
133,328,51594,2,0,P|181:301|236:298,1,112
320,325,52044,1,2,0:0:0:0:
320,325,52194,1,0,0:0:0:0:
388,286,52344,6,0,L|465:273,1,56,2|0,0:0|0:0,0:0:0:0:
466,201,52644,2,0,L|389:188,1,56,2|0,0:0|0:0,0:0:0:0:
356,138,52944,2,0,L|286:157,2,56,2|0|2,0:0|0:0|0:0,0:0:0:0:
277,82,53394,2,0,L|157:112,1,112
125,172,53844,1,2,0:0:0:0:
54,141,53994,2,0,P|51:114|53:86,2,56,0|2|0,0:0|0:0|0:0,0:0:0:0:
125,172,54444,1,2,0:0:0:0:
77,230,54594,6,0,P|49:292|55:348,1,112
122,363,55044,2,0,L|192:342,1,56,2|0,0:0|0:0,0:0:0:0:
216,283,55344,2,0,L|341:276,1,112,2|2,0:0|0:0,0:0:0:0:
447,183,55944,2,0,P|464:204|475:230,2,56,2|0|2,0:0|0:0|0:0,0:0:0:0:
374,160,56394,1,0,0:0:0:0:
298,167,56544,2,0,B|259:150|259:150|237:147|237:147|186:131,1,112,2|6,0:0|0:0,0:0:0:0:
141,75,56994,1,0,0:0:0:0:
268,72,57144,6,0,L|341:107,2,56,6|0|2,0:0|0:0|0:0,0:0:0:0:
312,11,57594,2,0,L|426:67,1,112,0|0,0:0|0:0,0:0:0:0:
407,135,58044,2,0,L|446:185,1,56,2|0,0:0|0:0,0:0:0:0:
493,234,58344,2,0,P|466:248|420:256,1,56,2|0,0:0|0:0,0:0:0:0:
365,251,58644,2,0,P|338:258|313:271,1,56,2|0,0:0|0:0,0:0:0:0:
270,334,58944,2,0,P|239:290|246:235,1,112,2|2,0:0|0:0,0:0:0:0:
296,178,59394,1,0,0:0:0:0:
318,105,59544,6,0,B|296:101|267:106|267:106|190:94,1,112,2|2,0:0|0:0,0:0:0:0:
138,63,59994,1,0,0:0:0:0:
97,126,60144,2,0,L|108:200,1,56,2|0,0:0|0:0,0:0:0:0:
168,222,60444,2,0,L|157:296,1,56,2|0,0:0|0:0,0:0:0:0:
153,352,60744,2,0,L|216:362,1,56,2|0,0:0|0:0,0:0:0:0:
230,355,60969,1,0,0:0:0:0:
251,347,61044,2,0,B|312:357|312:357|329:355|329:355|370:353,1,112,2|2,0:0|0:0,0:0:0:0:
428,316,61494,2,0,L|448:262,2,56,0|2|0,0:0|0:0|0:0,0:0:0:0:
367,248,61944,6,0,L|367:127,1,112,2|2,0:0|0:0,0:0:0:0:
397,66,62394,1,0,0:0:0:0:
321,77,62544,2,0,P|267:71|227:33,1,112,2|2,0:0|0:0,0:0:0:0:
151,27,62994,2,0,L|161:93,1,56,0|2,0:0|0:0,0:0:0:0:
102,133,63294,2,0,L|155:172,1,56,0|2,0:0|0:0,0:0:0:0:
135,241,63594,2,0,L|201:231,1,56,0|2,0:0|0:0,0:0:0:0:
255,194,63894,2,0,P|318:203|357:249,1,112,0|0,0:0|0:0,0:0:0:0:
350,311,64344,6,0,L|411:340,2,56,2|0|2,0:0|0:0|0:0,0:0:0:0:
275,303,64794,1,0,0:0:0:0:
205,331,64944,2,0,L|152:310,1,56,2|0,0:0|0:0,0:0:0:0:
60,328,65244,1,2,0:0:0:0:
92,239,65394,1,4,0:0:0:0:
26,49,66744,6,0,P|90:75|159:72,1,140,4|8,0:0|0:0,0:0:0:0:
233,32,67194,1,0,0:0:0:0:
300,81,67344,2,0,L|390:69,2,70,0|0|8,0:0|0:0|0:0,0:0:0:0:
243,143,67794,2,0,B|226:196|226:196|221:238|221:238|207:300,2,140,2|2|2,0:0|0:0|0:0,0:0:0:0:
317,182,68544,2,0,B|303:228|303:228|300:256,1,70
342,323,68844,1,8,0:0:0:0:
342,323,68994,1,0,0:0:0:0:
390,225,69144,6,0,P|398:158|355:105,1,140,0|8,0:0|0:0,0:0:0:0:
278,68,69594,1,0,0:0:0:0:
278,68,69744,2,0,L|207:84,1,70,0|0,0:0|0:0,0:0:0:0:
145,137,70044,2,0,L|119:53,1,70,8|0,0:0|0:0,0:0:0:0:
227,159,70344,2,0,L|227:245,1,70
284,291,70644,2,0,P|220:314|161:280,1,140,8|0,0:0|0:0,0:0:0:0:
101,222,71094,2,0,L|46:291,2,70,0|8|0,0:0|0:0|0:0,0:0:0:0:
137,146,71544,6,0,P|137:111|127:77,2,70,0|0|8,0:0|0:0|0:0,0:0:0:0:
212,296,72144,2,0,P|212:330|222:364,1,70,0|0,0:0|0:0,0:0:0:0:
292,317,72444,2,0,P|317:341|347:358,1,70,8|0,0:0|0:0,0:0:0:0:
368,276,72744,2,0,P|423:273|488:220,1,140,0|8,0:0|0:0,0:0:0:0:
486,137,73194,2,0,P|497:94|511:69,2,70,0|0|0,0:0|0:0|0:0,0:0:0:0:
487,221,73644,1,8,0:0:0:0:
414,178,73794,1,0,0:0:0:0:
414,178,73944,6,0,B|360:168|360:168|318:168|272:164,1,140,0|8,0:0|0:0,0:0:0:0:
201,205,74394,1,0,0:0:0:0:
201,205,74544,2,0,L|157:138,1,70,0|0,0:0|0:0,0:0:0:0:
100,89,74844,2,0,P|82:119|77:153,1,70,8|0,0:0|0:0,0:0:0:0:
178,61,75144,2,0,P|130:12|62:16,1,140,2|10,0:0|0:0,0:0:0:0:
100,89,75594,2,0,P|147:137|215:133,1,140,2|0,0:0|0:0,0:0:0:0:
286,89,76044,1,8,0:0:0:0:
286,89,76194,1,0,0:0:0:0:
298,194,76344,6,0,B|293:237|293:237|279:260|279:282|279:282|287:333,2,140,4|8|0,0:0|0:0|0:0,0:0:0:0:
371,234,77094,1,0,0:0:0:0:
371,234,77244,2,0,B|383:273|383:273|402:309,1,70,8|0,0:0|0:0,0:0:0:0:
432,181,77544,2,0,B|420:142|420:142|401:106,1,70,0|0,0:0|0:0,0:0:0:0:
333,74,77844,1,8,0:0:0:0:
333,74,77994,2,0,P|257:60|186:69,1,140
144,134,78444,1,8,0:0:0:0:
144,134,78594,1,0,0:0:0:0:
89,198,78744,6,0,B|85:231|85:231|88:268,1,70,0|0,0:0|0:0,0:0:0:0:
162,307,79044,2,0,B|165:270|165:270|161:237,1,70,8|0,0:0|0:0,0:0:0:0:
219,177,79344,2,0,B|256:195|256:195|292:201,1,70,0|0,0:0|0:0,0:0:0:0:
366,179,79644,2,0,B|394:183|394:183|431:201,1,70,8|0,0:0|0:0,0:0:0:0:
475,273,79944,2,0,L|494:359,2,70,0|0|8,0:0|0:0|0:0,0:0:0:0:
431,201,80394,2,0,P|434:132|473:75,1,140,0|0,0:0|0:0,0:0:0:0:
409,20,80844,2,0,P|375:29|340:30,1,70,8|0,0:0|0:0,0:0:0:0:
264,66,81144,6,0,P|229:65|195:55,2,70,0|0|8,0:0|0:0|0:0,0:0:0:0:
336,108,81594,1,0,0:0:0:0:
336,108,81744,2,0,P|333:177|304:241,1,140,0|8,0:0|0:0,0:0:0:0:
159,327,82344,2,0,P|161:257|190:193,1,140,0|8,0:0|0:0,0:0:0:0:
167,112,82794,2,0,P|219:63|284:40,1,140,0|2,0:0|0:0,0:0:0:0:
367,43,83244,2,0,L|405:107,1,70,8|0,0:0|0:0,0:0:0:0:
469,184,83544,6,0,L|323:171,1,140,2|8,0:0|0:0,0:0:0:0:
257,128,83994,1,0,0:0:0:0:
198,187,84144,2,0,P|186:220|185:255,1,70,0|0,0:0|0:0,0:0:0:0:
289,327,84444,2,0,P|300:294|301:259,1,70,8|0,0:0|0:0,0:0:0:0:
211,331,84744,1,2,0:0:0:0:
118,190,85044,1,10,0:0:0:0:
285,178,85344,1,2,0:0:0:0:
211,331,85644,1,10,0:0:0:0:
211,331,85944,6,0,L|203:216,1,112,4|8,0:0|0:0,0:0:0:0:
210,144,86394,1,0,0:0:0:0:
210,144,86544,2,0,P|246:142|319:86,1,112,0|8,0:0|0:0,0:0:0:0:
347,36,86994,1,0,0:0:0:0:
406,82,87144,2,0,L|430:157,1,56,0|0,0:0|0:0,0:0:0:0:
370,189,87444,1,8,0:0:0:0:
418,247,87594,2,0,P|368:264|307:232,1,112,0|0,0:0|0:0,0:0:0:0:
242,221,88044,2,0,L|170:247,1,56,8|0,0:0|0:0,0:0:0:0:
141,298,88344,5,0,0:0:0:0:
141,298,88494,1,0,0:0:0:0:
79,253,88644,2,0,L|91:193,1,56,8|0,0:0|0:0,0:0:0:0:
150,152,88944,2,0,P|110:117|111:42,1,112,0|8,0:0|0:0,0:0:0:0:
182,85,89394,1,0,0:0:0:0:
182,85,89544,2,0,L|241:78,1,56,2|2,0:0|0:0,0:0:0:0:
288,134,89844,2,0,L|335:98,1,56,10|2,0:0|0:0,0:0:0:0:
377,39,90144,2,0,L|390:160,1,112,2|8,0:0|0:0,0:0:0:0:
426,216,90594,1,0,0:0:0:0:
376,301,90744,6,0,L|430:337,2,56,4|0|8,0:0|0:0|0:0,0:0:0:0:
314,255,91194,1,0,0:0:0:0:
272,317,91344,2,0,L|284:380,2,56,0|0|8,0:0|0:0|0:0,0:0:0:0:
237,248,91794,1,0,0:0:0:0:
171,286,91944,2,0,L|106:271,1,56,0|0,0:0|0:0,0:0:0:0:
78,207,92244,2,0,L|132:194,1,56,8|0,0:0|0:0,0:0:0:0:
191,146,92544,2,0,L|212:98,3,28,8|0|0|0,0:0|0:0|0:0|0:0,0:0:0:0:
229,93,92844,2,0,L|272:151,1,56,4|0,0:0|0:0,0:0:0:0:
351,180,93144,5,4,0:0:0:0:
74,58,93744,1,4,0:0:0:0:
140,274,94194,1,8,0:0:0:0:
140,274,94269,1,8,0:0:0:0:
140,274,94344,1,4,0:3:0:0:
140,274,94944,6,0,P|156:244|270:251,1,146.999995513916
257,237,95544,6,0,B|304:233|338:214|338:214|346:208|346:208|387:190,1,140,4|8,0:0|0:0,0:0:0:0:
432,118,95994,1,0,0:0:0:0:
432,118,96144,2,0,L|356:95,2,70,0|0|8,0:0|0:0|0:0,0:0:0:0:
361,20,96594,2,0,P|301:53|291:120,1,140,0|0,0:0|0:0,0:0:0:0:
332,193,97044,2,0,L|315:275,1,70,8|0,0:0|0:0,0:0:0:0:
237,310,97344,2,0,L|220:228,2,70,0|0|8,0:0|0:0|0:0,0:0:0:0:
294,372,97794,1,0,0:0:0:0:
294,372,97944,6,0,P|346:345|440:337,1,140,0|8,0:0|0:0,0:0:0:0:
508,349,98394,1,0,0:0:0:0:
494,266,98544,2,0,L|516:178,2,70,0|0|8,0:0|0:0|0:0,0:0:0:0:
414,239,98994,1,0,0:0:0:0:
414,239,99144,2,0,L|339:228,1,70,0|0,0:0|0:0,0:0:0:0:
297,158,99444,2,0,L|222:169,1,70,8|0,0:0|0:0,0:0:0:0:
207,180,99669,1,0,0:0:0:0:
186,191,99744,2,0,P|132:200|43:162,1,140,2|10,0:0|0:0,0:0:0:0:
234,40,100344,6,0,P|287:30|377:69,1,140,4|8,0:0|0:0,0:0:0:0:
419,125,100794,2,0,L|487:67,2,70,0|0|0,0:0|0:0|0:0,0:0:0:0:
338,150,101244,1,8,0:0:0:0:
400,206,101394,1,0,0:0:0:0:
320,232,101544,2,0,P|312:269|319:308,1,70,0|0,0:0|0:0,0:0:0:0:
380,354,101844,2,0,P|350:371|316:379,1,70,8|0,0:0|0:0,0:0:0:0:
237,348,102144,2,0,P|173:321|84:339,1,140,0|8,0:0|0:0,0:0:0:0:
28,241,102594,1,0,0:0:0:0:
27,240,102744,6,0,P|61:247|95:242,1,70,6|0,0:0|0:0,0:0:0:0:
167,198,103044,2,0,L|217:128,1,70,8|0,0:0|0:0,0:0:0:0:
225,58,103344,1,2,0:0:0:0:
237,244,103644,2,0,L|287:174,2,70,8|2|0,0:0|0:0|0:0,0:0:0:0:
201,320,104094,1,0,0:0:0:0:
270,367,104244,2,0,L|360:326,1,70,10|0,0:0|0:0,0:0:0:0:
418,338,104544,2,0,L|447:264,1,70,10|0,0:0|0:0,0:0:0:0:
437,249,104769,1,0,0:0:0:0:
431,225,104844,1,12,0:0:0:0:
293,66,105144,6,0,B|290:105|290:105|300:139|300:139|310:220,1,140,4|8,0:0|0:0,0:0:0:0:
297,287,105594,1,0,0:0:0:0:
238,226,105744,2,0,B|233:177|233:177|229:151,2,70,0|0|8,0:0|0:0|0:0,0:0:0:0:
180,317,106194,2,0,B|125:328|125:328|93:323|34:323,1,140,0|0,0:0|0:0,0:0:0:0:
1,248,106644,1,8,0:0:0:0:
75,209,106794,1,0,0:0:0:0:
33,136,106944,2,0,P|52:69|123:52,1,140,0|8,0:0|0:0,0:0:0:0:
293,154,107544,6,0,P|356:132|373:67,1,140,0|8,0:0|0:0,0:0:0:0:
289,72,107994,1,0,0:0:0:0:
289,72,108144,2,0,P|249:82|212:119,1,70,0|0,0:0|0:0,0:0:0:0:
202,180,108444,2,0,P|169:191|135:192,1,70,8|0,0:0|0:0,0:0:0:0:
67,269,108744,2,0,P|141:274|195:320,1,140,0|8,0:0|0:0,0:0:0:0:
248,375,109194,1,0,0:0:0:0:
292,303,109344,1,2,0:0:0:0:
375,296,109494,1,0,0:0:0:0:
407,217,109644,2,0,P|438:233|458:262,1,70,10|0,0:0|0:0,0:0:0:0:
320,223,109944,6,0,P|341:158|402:129,1,140,4|8,0:0|0:0,0:0:0:0:
487,132,110394,1,0,0:0:0:0:
444,59,110544,2,0,P|406:52|374:56,2,70,0|0|8,0:0|0:0|0:0,0:0:0:0:
487,132,110994,1,0,0:0:0:0:
442,203,111144,2,0,B|446:262|446:262|455:291|455:291|467:371,2,140,0|8|0,0:0|0:0|0:0,0:0:0:0:
326,68,112044,2,0,B|331:98|331:98|335:144,1,70,8|0,0:0|0:0,0:0:0:0:
290,208,112344,6,0,P|256:219|221:217,1,70,0|0,0:0|0:0,0:0:0:0:
153,168,112644,2,0,P|118:166|84:176,1,70,8|0,0:0|0:0,0:0:0:0:
27,238,112944,2,0,L|48:304,1,70,0|0,0:0|0:0,0:0:0:0:
132,296,113244,2,0,L|194:327,1,70,8|0,0:0|0:0,0:0:0:0:
278,320,113544,2,0,P|324:289|363:284,1,70,0|0,0:0|0:0,0:0:0:0:
419,295,113844,2,0,P|438:265|448:231,1,70,8|0,0:0|0:0,0:0:0:0:
444,208,114069,1,0,0:0:0:0:
433,186,114144,2,0,P|410:141|426:47,1,140,2|10,0:0|0:0,0:0:0:0:
512,18,114594,1,0,0:0:0:0:
500,115,114744,5,4,0:0:0:0:
176,43,115344,1,4,0:0:0:0:
364,210,115794,1,0,0:0:0:0:
364,210,115869,1,0,0:0:0:0:
364,210,115944,1,4,0:0:0:0:
364,210,117144,5,4,0:0:0:0:
