osu file format v9

[General]
AudioFilename: Desire Drive.mp3
AudioLeadIn: 0
PreviewTime: 6010
Countdown: 0
SampleSet: Soft
StackLeniency: 0.7
Mode: 0
LetterboxInBreaks: 1

[Editor]
Bookmarks: 17906,29906,41906,53906,65906,77906,89906,101906,113906,137906,149906
DistanceSpacing: 1
BeatDivisor: 2
GridSize: 4

[Metadata]
Title:Desire Drive
Artist:namapann
Creator:Mixagji
Version:Normal
Source:Touhou
Tags:zun ten desires kaku seiga nyan

[Difficulty]
HPDrainRate:3
CircleSize:3
OverallDifficulty:3
ApproachRate:5
SliderMultiplier:1
SliderTickRate:1

[Events]
//Background and Video events
0,0,"23580274.jpg"
//Break Periods
2,90385,100810
//Storyboard Layer 0 (Background)
//Storyboard Layer 1 (Fail)
//Storyboard Layer 2 (Pass)
//Storyboard Layer 3 (Foreground)
//Storyboard Sound Samples
//Background Colour Transformations
3,100,163,162,255

[TimingPoints]
6010,375,4,2,2,70,1,0
60010,-100,4,2,2,70,0,1
65635,-100,4,2,2,70,0,0
150010,-100,4,2,2,70,0,1
161635,-100,4,2,2,70,0,0
162010,-100,4,2,2,70,0,1
174010,-100,4,2,2,70,0,0

[Colours]
Combo1 : 255,128,64
Combo2 : 128,255,128
Combo3 : 128,255,255
Combo4 : 255,128,128

[HitObjects]
440,88,6010,6,0,B|464:136|440:192,1,100,4|8
360,240,6760,2,0,B|328:192|360:136,1,100,0|8
352,48,7510,2,0,B|248:16|144:48,1,200
72,104,8635,1,8
32,200,9010,6,0,B|8:248|32:304,1,100,0|8
112,360,9760,2,0,B|136:312|112:256,1,100,0|8
136,168,10510,2,0,B|232:128|336:176,1,200
352,272,11635,1,8
272,336,12010,6,0,B|248:288|272:232,1,100,4|8
344,176,12760,2,0,B|400:176|432:216,1,100,0|8
352,272,13510,5,0
256,272,13885,1,8
160,272,14260,1,0
64,272,14635,1,8
64,176,15010,6,0,B|56:120|104:80,1,100,0|8
200,80,15760,2,0,B|256:88|296:32,1,100,0|8
384,32,16510,2,0,B|472:96,2,100,0|8|0
336,120,17635,1,8
256,184,18010,6,0,B|208:216|208:272,1,100,4|8
272,344,18760,2,0,B|328:352|368:304,1,100,0|8
416,224,19510,5,0
384,128,19885,1,8
296,80,20260,1,0
200,80,20635,1,8
128,144,21010,6,0,B|104:192|128:248,1,100,0|8
208,296,21760,2,0,B|232:248|200:192,1,100,0|8
200,104,22510,2,0,B|192:48|128:24,2,100,0|8|0
104,112,23635,1,8
56,200,24010,6,0,B|48:256|88:304,1,100,4|8
168,344,24760,2,0,B|224:360|272:336,1,100,0|8
360,304,25510,2,0,B|400:272|416:208|392:152|344:128,1,200
304,224,26635,1,8
400,224,27010,6,0,B|456:208|464:144,1,100,4|8
440,56,27760,2,0,B|392:24|336:32,1,100,0|8
248,40,28510,5,0
160,80,28885,1,8
112,168,29260,1,0
152,256,29635,1,8
248,296,30010,5,4
424,200,30760,2,0,B|456:144|432:80|376:64|312:96,1,200,0|2
416,272,32260,2,0,B|446:218|422:154|366:138|319:163,1,200,0|2
256,352,33760,2,0,B|256:192,2,150,0|2|2
160,352,35260,2,0,B|56:352,1,100
56,256,36010,5,4
128,72,36760,2,0,B|232:40,2,100,0|0|2
328,88,38260,2,0,B|232:120,1,100
160,192,39010,6,0,B|200:240|304:240|344:192,1,200,4|0
256,152,40135,2,0,B|256:272,1,100,0|0
368,104,41260,6,0,B|440:192,1,100,2|2
392,272,42010,6,0,B|360:320|296:336,1,100,4|8
216,336,42760,2,0,B|104:336,2,100,0|0|0
256,248,43885,1,8
288,152,44260,2,0,B|392:152,2,100
256,56,45385,1,8
160,56,45760,6,0,B|104:56|56:104,1,100
112,184,46510,2,0,B|168:184|208:136,1,100
256,56,47260,1,2
352,80,47635,1,2
384,176,48010,6,0,B|376:288|272:328,1,200,4|0
176,328,49135,1,0
80,328,49510,1,0
280,336,50260,6,0,B|336:344|384:304,1,100
432,232,51010,2,0,B|488:136,2,100,4|0|0
336,192,52135,1,0
248,144,52510,1,4
120,296,53260,6,0,B|200:208,1,100,2|2
256,152,54010,5,0
352,128,54385,1,0
448,160,54760,1,8
296,288,55510,5,0
208,336,55885,1,0
120,288,56260,1,8
32,112,57010,5,0
120,64,57385,1,0
208,120,57760,1,8
264,312,58510,6,0,B|368:312,3,100,0|0|0|8
464,312,60010,6,0,B|480:264|464:208,1,100,4|8
400,144,60760,2,0,B|344:120|288:144,1,100,2|8
240,216,61510,2,0,B|216:272|240:320,1,100,2|8
336,312,62260,2,0,B|360:256|336:208,1,100,2|8
296,128,63010,6,0,B|240:104|192:128,1,100,4|8
144,208,63760,2,0,B|120:256|144:312,1,100,2|8
232,264,64510,1,4
232,168,64885,1,0
232,72,65260,2,0,B|184:48|128:72,1,100,2|0
80,152,66010,5,0
80,248,66385,1,8
128,336,66760,1,0
224,360,67135,1,8
320,344,67510,6,0,B|368:320|368:256,1,100,0|8
288,208,68260,2,0,B|240:232|240:288,1,100,0|8
320,344,69010,5,0
416,328,69385,1,8
448,232,69760,1,0
400,144,70135,1,8
304,120,70510,6,0,B|184:104|128:200,1,200
128,296,71635,1,8
216,344,72010,6,0,B|272:352|304:288,1,100,4|8
240,216,72760,2,0,B|184:200|168:144,1,100,0|8
208,56,73510,5,0
280,120,73885,1,8
240,216,74260,1,0
264,312,74635,1,8
168,344,75010,6,0,B|112:360|64:344,1,100,0|8
72,248,75760,2,0,B|120:224|176:248,1,100,0|8
272,248,76510,6,0,B|288:296|272:360,2,100
256,152,77635,1,0
176,96,78010,6,0,B|200:56|256:24|320:56|344:104,1,200,4|2
352,200,79135,1,8
344,296,79510,6,0,B|416:368,2,100,2|8|2
256,248,80635,1,8
168,296,81010,2,0,B|96:368,2,100,2|8|2
256,248,82135,1,8
256,152,82510,6,0,B|256:48,1,100,2|8
352,56,83260,2,0,B|352:160,1,100,2|8
344,256,84010,6,0,B|312:312|200:312|168:256,1,200,4|2
168,160,85135,1,8
168,64,85510,5,2
256,120,85885,1,8
352,120,86260,1,2
432,64,86635,1,8
440,160,87010,6,0,B|448:216|408:256,1,100,4|8
328,304,87760,1,2
256,232,88135,1,8
184,304,88510,6,0,B|80:304,2,100
128,224,89635,2,0,B|24:224,1,100,0|4
104,56,102010,5,0
184,120,102385,1,8
264,176,102760,1,0
344,232,103135,1,8
424,288,103510,6,0,B|472:272|472:184|440:136|384:136,1,200
292,136,104635,1,8
192,136,105010,2,0,B|142:135|110:183|110:271|158:287,1,200
256,304,106135,1,8
304,216,106510,6,0,B|192:216,2,100
400,216,107635,1,0
448,304,108010,6,0,B|512:216|448:112,1,200,4|0
352,88,109135,1,8
256,120,109510,1,0
136,280,110260,6,0,B|72:360,2,100,0|0|4
200,200,111385,1,0
256,120,111760,2,0,B|320:40,2,100,0|0|4
448,192,113260,6,0,B|328:192,1,100,2|2
256,232,114010,5,0
160,256,114385,1,0
64,224,114760,1,8
216,96,115510,5,0
304,48,115885,1,0
392,96,116260,1,8
480,272,117010,5,0
392,320,117385,1,0
304,264,117760,1,8
248,72,118510,6,0,B|144:72,3,100,0|0|0|8
48,72,120010,6,0,B|32:120|48:176,1,100,4|8
112,240,120760,2,0,B|168:264|224:240,1,100,0|8
272,168,121510,2,0,B|296:112|272:64,1,100,0|8
176,72,122260,2,0,B|152:128|176:176,1,100,0|8
216,256,123010,6,0,B|272:280|320:256,1,100,4|8
368,176,123760,2,0,B|392:128|368:72,1,100,0|8
280,120,124510,1,4
280,216,124885,1,0
280,312,125260,2,0,B|328:336|384:312,1,100
448,248,126010,6,0,B|464:200|448:144,1,100,4|8
384,80,126760,2,0,B|328:56|272:80,1,100,0|8
224,152,127510,2,0,B|200:208|224:256,1,100,0|8
320,248,128260,2,0,B|344:192|320:144,1,100,0|8
280,64,129010,6,0,B|224:40|176:64,1,100,4|8
128,144,129760,2,0,B|104:192|128:248,1,100,0|8
224,264,130510,1,4
224,168,130885,1,0
224,72,131260,2,0,B|176:48|120:72,1,100
64,144,132010,6,0,B|48:192|64:248,1,100,4|8
128,312,132760,2,0,B|184:336|240:312,1,100,0|8
288,240,133510,2,0,B|312:184|288:136,1,100,0|8
192,144,134260,2,0,B|168:200|192:248,1,100,0|8
232,328,135010,6,0,B|288:352|336:328,1,100,4|8
384,248,135760,2,0,B|408:200|384:144,1,100,0|8
288,136,136510,1,4
288,232,136885,1,0
288,328,137260,2,0,B|336:352|392:328,1,100
376,232,138010,6,0,B|424:200|424:144,1,100,0|2
352,80,138760,2,0,B|296:72|256:120,1,100,0|2
192,184,139510,5,0
176,280,139885,1,2
256,344,140260,1,0
352,328,140635,1,2
384,240,141010,6,0,B|408:192|384:136,1,100,0|2
304,88,141760,2,0,B|280:136|312:192,1,100,0|2
312,288,142510,2,0,B|320:344|384:368,2,100,0|2|0
408,272,143635,1,2
456,184,144010,6,0,B|464:128|424:80,1,100,4|2
344,40,144760,2,0,B|288:24|240:48,1,100,0|2
152,80,145510,2,0,B|112:112|96:176|120:232|168:256,1,200
208,160,146635,1,2
112,160,147010,6,0,B|56:176|48:240,1,100,0|2
72,328,147760,2,0,B|120:360|176:352,1,100,0|2
264,344,148510,5,0
352,304,148885,1,0
400,216,149260,1,0
360,128,149635,1,0
272,88,150010,6,0,B|224:64|168:88,1,100,4|8
176,184,150760,2,0,B|224:208|280:176,1,100,2|8
312,272,151510,2,0,B|216:328|112:264,1,200,0|2
56,192,152635,1,8
64,96,153010,6,0,B|96:56|152:48,1,100,2|8
248,48,153760,2,0,B|352:48,2,100,2|8|2
264,144,154885,1,8
288,240,155260,2,0,B|176:240,1,100,2|8
136,328,156010,6,0,B|240:328,1,100,4|8
336,328,156760,1,2
384,240,157135,1,8
336,152,157510,6,0,B|296:112|240:120,1,100,2|8
208,216,158260,2,0,B|240:264|312:256,1,100,2|8
392,232,159010,5,2
400,136,159385,1,8
344,56,159760,1,2
248,40,160135,1,8
152,64,160510,6,0,B|96:80|80:136,1,100,2|8
80,232,161260,1,0
80,328,161635,1,0
168,280,162010,6,0,B|224:288|264:264,1,100,4|8
320,184,162760,2,0,B|336:128|312:80,1,100,2|8
224,40,163510,5,2
128,48,163885,1,8
72,128,164260,1,2
96,224,164635,1,8
184,264,165010,6,0,B|240:272|288:240,1,100,2|8
320,152,165760,1,2
320,56,166135,1,8
232,104,166510,6,0,B|128:104,2,100,2|8|2
256,200,167635,1,8
280,296,168010,6,0,B|392:296,1,100,4|8
432,216,168760,2,0,B|328:216,1,100,2|8
232,216,169510,1,2
136,216,169885,1,8
40,216,170260,2,0,B|40:112,1,100,2|8
136,88,171010,6,0,B|136:288,1,200,4|2
216,344,172135,1,8
216,248,172510,2,0,B|216:136,2,100,0|0|2
408,192,174010,5,4
