osu file format v9

[General]
AudioFilename: Desire Drive.mp3
AudioLeadIn: 0
PreviewTime: 6010
Countdown: 0
SampleSet: Soft
StackLeniency: 0.7
Mode: 0
LetterboxInBreaks: 1

[Editor]
Bookmarks: 17906,29906,41906,53906,65906,77906,89906,101906,113906,137906,149906
DistanceSpacing: 1.2
BeatDivisor: 4
GridSize: 8

[Metadata]
Title:Desire Drive
Artist:namapann
Creator:Mixagji
Version:Lunatic
Source:Touhou
Tags:zun ten desires kaku seiga nyan

[Difficulty]
HPDrainRate:7
CircleSize:4
OverallDifficulty:8
ApproachRate:8
SliderMultiplier:1.6
SliderTickRate:1

[Events]
//Background and Video events
0,0,"23580274.jpg"
//Break Periods
2,90385,101260
//Storyboard Layer 0 (Background)
//Storyboard Layer 1 (Fail)
//Storyboard Layer 2 (Pass)
//Storyboard Layer 3 (Foreground)
//Storyboard Sound Samples
//Background Colour Transformations
3,100,163,162,255

[TimingPoints]
6010,375,4,2,1,70,1,0
10416,-100,4,2,0,70,0,0
11353,-100,4,2,1,70,0,0
16416,-100,4,2,0,70,0,0
17353,-100,4,2,1,70,0,0
22416,-100,4,2,0,70,0,0
23541,-100,4,2,1,70,0,0
26166,-100,4,2,0,70,0,0
26916,-100,4,2,1,70,0,0
28416,-100,4,2,0,70,0,0
29916,-100,4,2,1,70,0,0
47166,-100,4,2,0,70,0,0
47728,-100,4,2,1,70,0,0
54010,-100,4,2,0,70,0,0
60010,-100,4,2,1,70,0,1
65635,-100,4,2,1,70,0,0
70416,-100,4,2,0,70,0,0
71353,-100,4,2,1,70,0,0
82416,-100,4,2,0,70,0,0
83353,-100,4,2,1,70,0,0
102010,-100,4,2,0,70,0,0
150010,-100,4,2,1,70,0,1
154416,-100,4,2,0,70,0,1
155353,-100,4,2,1,70,0,1
161635,-100,4,2,1,70,0,0
162010,-100,4,2,1,70,0,1
166416,-100,4,2,0,70,0,1
167353,-100,4,2,1,70,0,1
174010,-100,4,2,1,70,0,0

[Colours]
Combo1 : 255,128,64
Combo2 : 128,255,128
Combo3 : 128,255,255
Combo4 : 255,128,128

[HitObjects]
448,48,6010,2,0,B|368:64,1,80,4|0
440,136,6385,2,0,B|368:184,1,80,8|0
448,240,6760,2,0,B|392:304,1,80,2|0
296,312,7135,5,8
216,72,7322,1,0
312,240,7510,5,2
200,144,7697,1,0
296,168,7885,5,8
216,216,8072,1,0
128,264,8260,2,0,B|104:344,1,80,2|0
40,272,8635,2,0,B|64:192,1,80,8|0
104,112,9010,5,2
144,88,9197,1,0
184,64,9385,1,8
224,40,9572,1,0
128,24,9760,5,2
152,64,9947,1,0
176,104,10135,1,8
200,144,10322,1,0
256,224,10510,5,2
256,224,10603,1,2
256,224,10697,1,2
376,144,10885,1,8
496,224,11072,1,2
496,224,11166,1,2
496,224,11260,1,2
376,304,11447,1,0
376,304,11635,2,0,B|376:208,1,80,8|0
304,48,12010,6,0,B|264:32|224:40,1,80,4|0
192,128,12385,2,0,B|144:144|96:120,1,80,8|0
56,48,12760,1,2
113,127,12947,1,0
112,224,13135,1,8
56,296,13322,1,0
136,344,13510,6,0,B|184:344|216:304,1,80,2|0
376,40,13885,2,0,B|328:40|296:80,1,80,8|0
232,128,14260,1,2
280,256,14447,1,0
112,160,14635,1,8
400,224,14822,1,0
328,160,15010,6,0,B|248:160,1,80,2|0
184,232,15385,2,0,B|80:232,1,80,8|0
40,160,15760,5,2
64,120,15947,1,0
88,80,16135,1,8
112,40,16322,1,0
208,48,16510,5,2
208,48,16603,1,2
208,48,16697,1,2
288,104,16885,1,8
376,64,17072,1,2
376,64,17166,1,2
376,64,17260,1,2
440,136,17447,1,0
424,232,17635,2,0,B|408:280|360:288,1,80,8|0
248,368,18010,6,0,B|288:296,1,80,4|0
192,288,18385,2,0,B|224:208,1,80,8|0
120,216,18760,2,0,B|144:128,1,80,2|0
40,160,19135,2,0,B|48:80,1,80,8|0
40,160,19510,5,2
56,208,19697,1,0
72,256,19885,1,8
88,304,20072,1,0
176,344,20260,5,2
224,328,20447,1,0
272,312,20635,1,8
320,296,20822,1,0
408,256,21010,5,2
408,256,21103,1,0
408,256,21197,1,0
384,112,21385,1,8
384,112,21572,1,0
256,48,21760,2,0,B|240:88|256:128,1,80,2|0
152,144,22135,2,0,B|152:56,1,80,8|0
56,80,22510,5,2
48,112,22603,1,2
56,144,22697,1,2
96,232,22885,1,8
184,272,23072,1,0
232,264,23166,1,2
272,240,23260,2,0,B|304:216|304:160,1,80,2|0
256,88,23635,2,0,B|280:56|336:56,1,80,8|0
456,104,24010,6,0,B|472:152|448:192,1,80,4|0
376,240,24385,2,0,B|336:264|344:328,1,80,8|0
440,304,24760,1,2
384,176,24947,1,0
320,48,25135,1,8
320,48,25322,1,0
320,48,25510,6,0,B|296:88|248:96,1,80,2|0
160,96,25885,2,0,B|112:96|80:64,1,80,8|0
48,160,26260,1,2
48,160,26353,1,2
48,160,26447,1,2
72,256,26635,1,8
144,320,26822,1,0
216,256,27010,5,4
216,256,27103,1,0
216,256,27197,1,0
272,176,27385,1,8
352,120,27572,1,0
424,184,27760,6,0,B|432:264,1,80,2|0
88,200,28135,2,0,B|80:120,1,80,8|0
144,48,28510,5,2
184,72,28697,1,2
224,96,28885,1,2
264,120,29072,1,2
232,208,29260,5,2
272,184,29447,1,2
312,160,29635,1,2
352,136,29822,1,2
440,88,30010,6,0,B|472:160|440:248,1,160,4|8
384,320,30572,1,2
256,256,30760,1,0
256,256,30853,1,0
256,256,30947,1,0
136,336,31135,2,0,B|104:312|96:264,1,80,8|2
56,144,31510,6,0,B|88:64|176:48,1,160,2|8
256,96,32072,1,2
368,192,32260,1,0
368,192,32353,1,0
368,192,32447,1,0
432,64,32635,2,0,B|408:24|360:24,1,80,8|2
232,32,33010,6,0,B|136:48|120:136,1,160,2|8
32,248,33572,2,0,B|64:336|160:352,1,160,2|2
146,349,34135,1,8
336,304,34322,1,0
240,304,34510,5,2
184,232,34697,1,0
168,184,34791,1,0
160,136,34885,1,0
168,88,34978,1,0
192,48,35072,1,2
96,56,35260,5,2
147,136,35447,1,0
240,160,35635,2,0,B|288:160|312:120,1,80,2|0
392,56,36010,6,0,B|464:104|456:200,1,160,4|8
456,288,36572,2,0,B|296:328,1,160,2|2
300,326,37135,1,8
112,304,37510,2,0,B|64:224|104:152,1,160,2|8
64,64,38072,1,2
160,80,38260,1,0
192,80,38353,1,0
224,72,38447,1,0
312,32,38635,1,8
384,88,38822,1,2
352,176,39010,6,0,B|336:240|256:248,1,120,4|0
216,248,39385,2,0,B|128:248,1,80,8|0
48,200,39760,2,0,B|16:264|72:320,1,120,0|0
104,336,40135,2,0,B|192:360,1,80,8|8
280,360,40510,2,0,B|336:360|336:360|360:368|360:368|384:360|384:360|440:360,1,160,2|0
437,360,41260,5,0
74,24,41635,1,0
74,24,42010,6,0,B|104:104|40:176,1,160,4|8
48,272,42572,1,0
120,336,42760,1,0
120,336,42853,1,0
120,336,42947,1,0
216,336,43135,2,0,B|240:296|224:240,1,80,8|0
192,168,43510,2,0,B|160:120|192:72|256:72|280:136,1,160,2|8
328,192,44072,1,0
424,216,44260,5,0
424,216,44353,1,0
424,216,44447,1,0
464,128,44635,2,0,B|456:80|408:64,1,80,8|0
320,64,45010,2,0,B|256:48|232:96|240:144|320:152,1,160,2|8
392,152,45572,1,0
464,216,45760,6,0,B|464:344,2,120,0|0|0
408,80,46510,1,2
312,64,46697,1,0
272,96,46791,1,0
232,120,46885,1,0
184,136,46978,1,0
136,144,47072,1,0
64,208,47260,5,2
96,360,47447,1,2
208,248,47635,1,2
252,320,47822,1,0
283,326,47916,1,0
314,326,48010,6,0,B|410:342|450:254,1,160,4|8
448,160,48572,1,0
448,64,48760,2,0,B|368:56|352:144,1,120
352,168,49135,2,0,B|280:208,1,80,8|0
232,288,49510,2,0,B|160:336|72:304,1,160,0|8
80,112,50260,6,0,B|168:24,2,120
72,208,51010,2,0,B|88:288|160:320,1,120,4|0
184,312,51385,2,0,B|264:312,1,80
440,176,51760,2,0,B|424:96|352:64,1,120,0|0
328,72,52135,2,0,B|248:72,1,80
88,232,52510,1,4
24,128,53260,5,2
488,256,53635,1,2
488,256,54010,6,0,B|440:184,1,80,4|0
424,96,54385,2,0,B|336:72,1,80,2|0
240,184,54760,1,0
240,184,54947,1,0
88,192,55135,1,2
88,192,55322,6,0,B|64:272,2,80
88,96,55885,2,0,B|184:80,1,80,2|0
240,24,56260,2,0,B|320:64,1,80
440,128,56635,1,2
440,128,56822,6,0,B|440:208|344:248,1,160
232,336,57385,2,0,B|184:256,1,80,2|0
104,312,57760,2,0,B|96:216,1,80
32,160,58135,1,2
64,72,58322,1,0
160,40,58510,5,0
352,344,58885,1,0
480,192,59260,2,0,B|376:192,1,80,2|0
208,192,59822,1,0
208,192,60010,6,0,B|128:232,1,80,4|0
304,192,60385,2,0,B|384:152,1,80,8|0
280,48,60760,1,2
240,136,60947,1,0
264,232,61135,1,8
224,320,61322,1,0
320,296,61510,6,0,B|400:264,1,80,2|0
192,88,61885,2,0,B|112:120,1,80,8|0
56,192,62260,1,2
456,192,62447,1,0
168,232,62635,1,8
344,152,62822,1,0
256,104,63010,6,0,B|176:56,1,80,4|0
256,280,63385,2,0,B|336:328,1,80,8|0
344,152,63760,2,0,B|392:56,1,80,2|0
168,232,64135,2,0,B|120:328,1,80,8|0
40,336,64510,5,4
472,48,64885,1,0
472,48,65260,6,0,B|352:136,1,120
336,144,65635,1,0
256,200,65822,1,0
176,256,66010,5,0
96,312,66197,1,0
96,216,66385,5,8
168,344,66572,1,0
48,264,66760,5,0
192,288,66947,1,0
56,336,67135,5,8
160,232,67322,1,0
224,160,67510,2,0,B|280:96,1,80
192,56,67885,5,8
144,40,68072,1,0
64,96,68260,1,0
104,120,68447,1,0
128,216,68635,1,8
80,200,68822,1,0
80,296,69010,5,0
120,320,69197,1,0
160,344,69385,1,8
200,368,69572,1,0
296,368,69760,5,0
336,344,69947,1,0
376,320,70135,1,8
416,296,70322,1,0
488,216,70510,5,2
488,216,70603,1,2
488,216,70697,1,2
376,128,70885,1,8
240,184,71072,1,2
240,184,71166,1,2
240,184,71260,1,2
120,104,71447,1,0
48,232,71635,2,0,B|48:272|80:304,1,80,8|0
264,336,72010,6,0,B|304:328|328:288,1,80,4|0
416,288,72385,2,0,B|432:248|416:208,1,80,8|0
472,144,72760,1,0
432,56,72947,1,0
336,40,73135,1,8
264,104,73322,1,0
296,192,73510,5,0
376,136,73697,1,0
264,104,73885,1,8
152,72,74072,1,0
40,40,74260,5,0
120,160,74447,1,0
264,104,74635,1,8
368,208,74822,1,0
256,304,75010,5,0
224,336,75197,1,0
184,360,75385,1,8
136,368,75572,1,0
256,80,75760,5,0
288,48,75947,1,0
328,24,76135,1,8
376,16,76322,1,0
392,112,76510,6,0,B|384:160|328:176,1,80
343,170,76885,1,8
120,272,77072,2,0,B|128:224|184:208,1,80
168,213,77447,1,0
232,288,77635,1,8
280,96,77822,1,0
192,128,78010,6,0,B|152:136|112:128,1,80,4|0
320,256,78385,2,0,B|360:248|400:256,1,80,8|0
360,344,78760,1,2
360,344,78947,1,0
336,152,79135,1,8
336,152,79322,1,0
248,192,79510,6,0,B|208:208|160:200,1,80,2|0
80,168,79885,1,8
200,320,80072,1,0
24,256,80260,1,2
136,80,80447,1,0
160,176,80635,1,8
120,264,80822,1,0
200,320,81010,6,0,B|232:344|280:328,1,80,2|0
408,192,81385,2,0,B|368:176|328:192,1,80,8|0
368,280,81760,1,2
464,256,81947,1,0
480,160,82135,1,8
408,96,82322,1,0
312,120,82510,5,2
312,120,82603,1,2
312,120,82697,1,2
368,280,82885,1,8
480,160,83072,1,2
480,160,83166,1,2
480,160,83260,1,2
384,184,83447,1,0
208,256,83635,1,8
232,64,83822,1,0
272,168,84010,6,0,B|176:184,1,80,4|0
104,152,84385,2,0,B|88:256,1,80,8|0
8,280,84760,2,0,B|64:344,1,80,2|0
160,352,85135,1,8
160,352,85322,1,0
296,216,85510,5,2
344,232,85697,1,0
384,264,85885,1,8
408,304,86072,1,0
216,168,86260,5,2
168,152,86447,1,0
128,120,86635,1,8
104,80,86822,1,0
200,72,87010,6,0,B|240:64|280:32,1,80,4|0
312,312,87385,2,0,B|272:320|232:352,1,80,8|0
360,192,87760,2,0,B|448:192,1,80,4|0
152,192,88135,2,0,B|56:192,1,80,8|0
32,280,88510,5,2
168,320,88697,1,0
224,192,88885,1,8
304,72,89072,1,0
448,56,89260,1,2
344,160,89447,1,0
216,96,89635,1,8
88,152,89822,1,0
88,152,90010,5,4
256,128,102010,5,2
184,64,102197,1,0
96,112,102385,1,2
112,208,102572,1,0
208,216,102760,1,2
208,216,102853,1,0
208,216,102947,1,0
240,304,103135,1,2
160,360,103322,1,0
72,312,103510,5,2
72,312,103603,1,0
72,312,103697,1,0
160,280,103885,1,2
88,216,104072,1,0
104,120,104260,2,0,B|120:16,1,80,2|0
248,248,104635,2,0,B|336:216,1,80,2|0
424,56,105009,5,2
424,56,105103,1,0
424,56,105197,2,0,B|400:144,1,80,0|2
432,240,105572,1,0
360,304,105760,2,0,B|280:344,1,80,2|0
192,336,106135,2,0,B|112:304,1,80,2|0
48,184,106510,5,2
128,232,106697,1,2
176,224,106791,1,2
216,200,106885,1,2
248,168,106978,1,2
264,120,107072,1,2
344,64,107260,5,2
289,247,107447,1,0
153,110,107635,1,2
50,159,107822,1,0
41,200,107916,1,0
40,240,108010,6,0,B|72:328|160:336,1,160,4|2
256,328,108572,1,0
400,208,108760,2,0,B|328:272,1,80,2|0
112,176,109135,2,0,B|184:112,1,80,2|0
352,112,109510,2,0,B|232:216,1,160,2|2
176,304,110072,1,0
272,312,110260,2,0,B|336:304|392:352,2,120,2|0|0
128,312,111010,6,0,B|64:280|80:200,1,120,4|0
80,168,111385,2,0,B|152:136,1,80
384,72,111760,2,0,B|448:104|432:184,1,120,4|0
432,216,112135,2,0,B|360:248,1,80
216,112,112510,2,0,B|181:69|125:85|109:133|141:173,1,160,4|0
296,280,113260,2,0,B|330:322|386:306|402:258|370:218,1,160
192,312,114010,5,4
104,352,114197,1,0
40,280,114385,1,0
96,200,114572,1,0
192,224,114760,1,0
120,272,114947,1,2
296,320,115322,6,0,B|376:312|416:224,1,160,4|0
432,128,115885,1,0
344,88,116072,1,0
272,152,116260,1,0
320,240,116447,1,2
248,64,116822,6,0,B|144:72|144:168,1,160,4|0
224,216,117385,1,0
184,304,117572,1,0
88,304,117760,1,0
48,208,117947,2,0,B|48:120,2,80
88,304,118510,5,0
256,72,118885,1,0
424,304,119260,1,0
424,304,119353,1,0
424,304,119447,2,0,B|360:376|264:352,1,160
152,296,120010,6,0,B|72:256,1,80,4|0
160,208,120385,2,0,B|104:120,1,80,8|0
208,120,120760,2,0,B|208:24,1,80,0|8
304,64,121135,1,8
360,296,121510,6,0,B|440:256,1,80,4|0
352,208,121885,2,0,B|408:120,1,80,8|0
304,120,122260,2,0,B|304:24,1,80,0|8
208,64,122635,1,8
128,248,123010,6,0,B|200:288,1,80,4|0
216,192,123385,2,0,B|264:256,1,80,8|0
328,184,123760,2,0,B|344:264,1,80,0|8
440,248,124135,1,8
440,248,124322,1,0
464,152,124510,6,0,B|440:72|352:48,1,160,4|0
256,40,125072,1,0
48,152,125260,2,0,B|72:72|160:48,1,160,4|0
256,40,125822,1,0
304,120,126010,6,0,B|264:200,1,80,4|0
216,272,126385,2,0,B|248:368,1,80,8|0
320,296,126760,2,0,B|344:208,1,80,0|8
192,192,127135,2,0,B|168:112,1,80,8|0
328,32,127510,6,0,B|296:112,1,80,4|0
192,192,127885,2,0,B|224:288,1,80,8|0
312,288,128260,2,0,B|272:384,1,80,0|8
376,344,128635,2,0,B|416:264,1,80,8|0
424,176,129010,5,4
392,88,129197,1,0
296,64,129385,1,8
216,112,129572,1,0
296,64,129760,5,0
328,152,129947,1,8
288,240,130135,1,8
192,264,130322,1,0
104,224,130510,6,0,B|48:288|96:376,1,160,4|0
256,192,131072,1,0
408,160,131260,2,0,B|464:96|416:8,1,160,4|0
408,160,131822,1,0
400,256,132010,6,0,B|312:224,1,80,4|0
288,144,132385,2,0,B|184:176,1,80,8|0
72,192,132760,2,0,B|168:224,1,80,0|8
240,248,133135,2,0,B|336:216,1,80,8|0
480,224,133510,6,0,B|400:264,1,80,4|0
328,144,133885,2,0,B|240:128,1,80,8|0
168,248,134260,2,0,B|80:272,1,80,0|8
104,176,134635,2,0,B|24:152,1,80,8|0
96,88,135010,5,0
184,128,135197,1,0
256,64,135385,1,8
328,128,135572,1,0
416,88,135760,1,0
256,64,135947,1,8
96,88,136135,1,8
256,64,136322,1,0
256,160,136510,6,0,B|208:240|104:240,1,160
256,160,137260,2,0,B|304:240|408:240,1,160
104,304,138010,5,0
176,240,138197,1,0
176,144,138385,1,2
104,80,138572,1,0
88,176,138760,1,0
176,144,138947,1,0
232,64,139135,1,2
328,64,139322,1,0
400,128,139510,5,0
400,224,139697,1,0
320,280,139885,1,2
176,144,140072,1,0
176,240,140260,1,0
176,240,140353,1,0
176,240,140447,1,0
264,208,140635,1,2
264,112,140822,1,0
176,144,141010,5,0
320,280,141197,1,0
232,320,141385,1,2
320,352,141572,1,0
408,312,141760,1,0
440,224,141947,1,0
440,128,142135,1,2
376,56,142322,1,0
296,104,142510,6,0,B|216:144|120:96,1,160
216,280,143072,2,0,B|296:240|392:288,1,160
296,336,143635,1,0
256,192,143822,1,0
176,72,144010,6,0,B|128:72|96:104,1,80,4|0
336,72,144385,2,0,B|384:72|416:104,1,80,2|0
448,192,144760,1,0
440,288,144947,1,0
352,328,145135,2,0,B|304:320|280:288,1,80,2|0
200,248,145510,5,0
176,160,145697,1,0
256,112,145885,1,2
336,160,146072,1,0
304,248,146260,5,0
352,64,146447,1,0
168,16,146635,1,2
112,200,146822,1,0
192,144,147010,6,0,B|224:112|240:64,1,80
320,240,147385,2,0,B|288:272|272:320,1,80,2|0
368,320,147760,1,0
368,320,147947,1,0
256,192,148135,1,2
256,192,148322,1,0
192,264,148510,5,0
80,360,148697,1,0
80,272,148885,1,0
80,248,148978,1,0
80,224,149072,1,0
80,200,149166,1,0
80,176,149260,1,0
80,152,149353,1,0
80,128,149447,1,0
80,104,149541,1,0
80,80,149635,6,0,B|80:32,4,40,0|0|0|0|4
176,72,150197,1,0
176,72,150385,2,0,B|176:160,1,80,8|0
272,128,150760,2,0,B|272:40,1,80,2|0
368,72,151135,2,0,B|368:168,1,80,8|0
424,224,151510,5,2
328,336,151697,1,0
248,216,151885,1,8
152,328,152072,1,0
248,344,152260,5,2
232,296,152447,1,0
192,264,152635,1,8
144,248,152822,1,0
88,176,153010,6,0,B|48:96,1,80,2|0
192,152,153385,2,0,B|192:48,1,80,8|0
280,184,153760,2,0,B|336:120,2,80,2|0|8
216,256,154322,1,0
328,352,154509,5,2
328,352,154603,1,2
328,352,154697,1,2
352,208,154885,1,8
296,280,155072,1,2
296,280,155166,1,2
296,280,155260,1,2
216,336,155447,1,0
120,312,155635,2,0,B|80:304|64:248,1,80,8|0
104,64,156010,6,0,B|144:80|152:136,1,80,4|0
152,224,156385,2,0,B|184:256|240:248,1,80,8|0
296,312,156760,2,0,B|344:312|368:272,1,80,2|0
456,248,157135,2,0,B|464:208|440:168,1,80,8|0
392,88,157510,5,2
456,248,157697,1,0
328,184,157885,1,8
296,312,158072,1,0
392,328,158260,2,0,B|392:288|360:248,1,80,2|0
120,56,158635,2,0,B|120:96|152:136,1,80,8|0
232,80,159010,5,2
280,160,159197,1,0
224,240,159385,1,8
264,328,159572,1,0
312,248,159760,5,2
200,160,159947,1,0
312,64,160135,1,8
176,16,160322,1,0
128,96,160510,2,0,B|104:136|64:144,1,80,2|0
66,143,160885,1,8
384,288,161072,2,0,B|408:248|448:240,1,80,0|2
445,240,161447,1,0
424,144,161635,5,0
408,128,161728,1,0
392,112,161822,1,0
376,96,161916,1,0
360,80,162010,6,0,B|328:56|272:48,1,80,4|0
280,144,162385,2,0,B|248:176|192:184,1,80,8|0
112,72,162760,2,0,B|80:96|72:160,1,80,2|0
88,288,163135,2,0,B|120:256|120:208,1,80,8|0
176,136,163510,5,2
240,64,163697,1,0
256,208,163885,1,8
192,280,164072,1,0
344,264,164260,1,2
408,192,164448,1,0
400,48,164635,1,8
336,120,164823,1,0
256,208,165010,6,0,B|216:232|168:224,1,80,2|0
96,176,165385,1,8
96,176,165572,1,0
256,288,165760,2,0,B|296:312|344:312,1,80,2|0
424,312,166135,1,8
424,312,166322,1,0
320,152,166510,5,2
304,136,166603,1,2
288,120,166697,1,2
168,96,166885,1,8
160,216,167073,1,2
176,232,167166,1,2
192,248,167260,1,2
328,288,167447,1,0
272,216,167635,2,0,B|216:160,1,80,8|0
80,136,168010,6,0,B|168:96,1,80,4|0
80,248,168385,2,0,B|168:288,1,80,8|0
248,96,168760,2,0,B|336:112,1,80,2|0
248,288,169135,2,0,B|336:272,1,80,8|0
384,192,169510,5,2
424,216,169697,1,0
440,264,169885,1,8
440,312,170072,1,0
128,192,170260,5,2
88,168,170447,1,0
72,120,170635,1,8
72,72,170822,1,0
160,104,171010,6,0,B|208:112|224:168,1,80,4|0
344,96,171385,2,0,B|336:144|280:160,1,80,8|0
352,280,171760,2,0,B|304:272|288:216,1,80,0|0
168,288,172135,2,0,B|176:240|232:224,1,80,8|0
288,168,172510,5,2
344,96,172697,1,0
160,104,172885,1,2
168,288,173072,1,0
352,280,173260,1,2
352,280,173447,6,0,B|321:248,6,40,0|0|0|0|0|0|4
