osu file format v9

[General]
AudioFilename: Desire Drive.mp3
AudioLeadIn: 0
PreviewTime: 6010
Countdown: 0
SampleSet: Soft
StackLeniency: 0.7
Mode: 0
LetterboxInBreaks: 1

[Editor]
Bookmarks: 17906,29906,41906,53906,65906,77906,89906,101906,113906,126010,137906,149906
DistanceSpacing: 0.9
BeatDivisor: 2
GridSize: 4

[Metadata]
Title:Desire Drive
Artist:namapann
Creator:Mixagji
Version:Easy
Source:Touhou
Tags:zun ten desires kaku seiga nyan

[Difficulty]
HPDrainRate:1
CircleSize:3
OverallDifficulty:1
ApproachRate:3
SliderMultiplier:0.8
SliderTickRate:1

[Events]
//Background and Video events
0,0,"23580274.jpg"
//Break Periods
2,90385,100570
//Storyboard Layer 0 (Background)
//Storyboard Layer 1 (Fail)
//Storyboard Layer 2 (Pass)
//Storyboard Layer 3 (Foreground)
//Storyboard Sound Samples
//Background Colour Transformations
3,100,163,162,255

[TimingPoints]
6010,375,4,2,2,70,1,0
60010,-100,4,2,2,70,0,1
65635,-100,4,2,2,70,0,0
150010,-100,4,2,2,70,0,1
161635,-100,4,2,2,70,0,0
162010,-100,4,2,2,70,0,1
174010,-100,4,2,2,70,0,0

[Colours]
Combo1 : 255,128,64
Combo2 : 128,255,128
Combo3 : 128,255,255
Combo4 : 255,128,128

[HitObjects]
432,80,6010,2,0,B|408:168,1,80,4|8
368,296,7135,1,8
232,344,7885,1,8
96,296,8635,1,8
72,224,9010,6,0,B|48:144,1,80,0|8
144,32,10135,1,8
196,168,10885,1,8
248,304,11635,1,8
304,352,12010,6,0,B|392:360,1,80,4|8
472,240,13135,1,8
440,96,13885,1,8
304,40,14635,1,8
232,40,15010,6,0,B|152:64,1,80,0|8
88,192,16135,1,8
104,264,16510,2,0,B|152:336|256:328,1,160
312,328,17635,1,0
384,312,18010,6,0,B|408:232,1,80,4|8
384,96,19135,1,8
256,40,19885,1,8
128,96,20635,1,8
104,160,21010,6,0,B|120:240,1,80,0|8
256,280,22135,1,8
256,208,22510,2,0,B|248:120|344:72,1,160
404,76,23635,1,0
424,144,24010,6,0,B|400:224,1,80,4|8
320,336,25135,1,8
192,272,25885,1,8
296,168,26635,1,8
264,104,27010,6,0,B|184:80,1,80,4|8
64,152,28135,1,8
64,224,28510,2,0,B|72:304|176:344,1,160
232,344,29635,2,0,B|312:344,1,80,0|4
424,256,30760,6,2,B|464:184|424:96,1,160,0|2
280,104,32260,2,0,B|240:176|288:264,1,160,0|2
160,328,33760,2,0,B|88:336|56:264,2,120,0|2|0
232,328,35260,2,0,B|336:328,1,80
384,328,36010,5,4
392,184,36760,2,0,B|320:128|224:152,1,160,0|2
120,224,38260,2,0,B|192:280|280:248,1,160,0|4
256,104,39760,1,0
256,248,40510,1,2
376,176,41260,6,0,B|288:176,1,80,2|2
224,176,42010,6,0,B|128:200|72:120,1,160,4|0
192,40,43510,1,2
336,40,44260,2,0,B|360:136|256:176,1,160,0|2
256,312,45760,6,0,B|304:360|384:336,2,120,0|2|2
192,272,47260,2,0,B|112:272,2,80,0|0|4
336,264,48760,6,0,B|320:176|416:136,1,160,0|2
288,64,50260,2,0,B|208:64,2,80,0|0|4
256,208,51760,1,0
256,352,52510,1,4
136,280,53260,6,0,B|216:280,1,80,2|2
288,280,54010,6,0,B|376:272|424:200,1,160,0|2
416,56,55510,2,0,B|376:40|328:56,2,80,0|0|2
304,144,57010,6,0,B|224:184|136:144,1,160,0|2
112,288,58510,2,0,B|192:256|280:296,1,160
408,328,60010,6,0,B|416:240,1,80,4|8
432,104,61135,1,8
360,88,61510,6,0,B|272:64,1,80,2|8
144,40,62635,1,8
120,104,63010,6,0,B|96:184,1,80,4|8
56,320,64135,1,8
128,344,64510,6,0,B|208:368|304:344,1,160,4|0
360,336,65635,1,0
424,304,66010,6,0,B|384:232,1,80,4|8
296,120,67135,1,8
248,256,67885,1,8
104,296,68635,1,8
72,232,69010,6,0,B|48:152,1,80,0|8
128,32,70135,1,8
172,168,70885,1,8
212,304,71635,1,8
276,336,72010,6,0,B|372:352,1,80,4|8
448,240,73135,1,8
440,96,73885,1,8
304,40,74635,1,8
232,40,75010,6,0,B|152:64,1,80,0|8
88,192,76135,1,8
104,264,76510,2,0,B|152:336|256:328,1,160
312,328,77635,1,0
384,312,78010,6,0,B|408:232,1,80,4|8
384,96,79135,1,8
256,40,79885,1,8
128,96,80635,1,8
104,160,81010,6,0,B|120:240,1,80,0|8
256,280,82135,1,8
256,208,82510,2,0,B|248:120|344:72,1,160
404,76,83635,1,0
424,144,84010,6,0,B|400:224,1,80,4|8
320,336,85135,1,8
192,272,85885,1,8
296,168,86635,1,8
264,104,87010,6,0,B|184:80,1,80,4|8
64,152,88135,1,8
64,224,88510,2,0,B|72:304|176:344,1,160
232,344,89635,2,0,B|312:344,1,80,0|4
456,152,102010,6,0,B|392:224|296:160,1,160,4|0
256,32,103510,1,2
128,96,104260,2,0,B|72:168|128:248,1,160,0|2
256,304,105760,2,0,B|312:280|392:312,2,120,0|2|0
184,320,107260,2,0,B|104:336,2,80,0|0|4
256,192,108760,6,0,B|296:120|392:128,1,160,0|2
392,272,110260,2,0,B|392:360,2,80,0|0|4
392,128,111760,2,0,B|392:32,2,80,0|0|4
376,272,113260,6,0,B|264:272,1,80,2|2
224,272,114010,6,0,B|136:264|88:192,1,160,4|2
96,56,115510,2,0,B|136:40|184:56,2,80,0|0|2
208,144,117010,6,0,B|288:184|376:144,1,160,0|2
400,288,118510,2,0,B|320:256|232:296,1,160
104,328,120010,6,0,B|96:240,1,80,4|8
80,104,121135,1,8
152,88,121510,6,0,B|240:64,1,80,2|8
368,40,122635,1,8
392,104,123010,6,0,B|416:184,1,80,4|8
456,320,124135,1,8
384,344,124510,6,0,B|304:368|208:344,1,160,4|0
152,336,125635,1,0
80,328,126010,6,0,B|72:240,1,80,4|8
80,104,127135,1,8
144,72,127510,2,0,B|224:32|312:64,1,160
368,80,128635,1,8
432,120,129010,6,0,B|456:200,1,80,4|8
456,344,130135,1,8
384,344,130510,6,0,B|304:368|208:344,1,160,4|0
152,336,131635,1,0
80,328,132010,6,0,B|72:240,1,80,4|8
80,104,133135,1,8
152,88,133510,6,0,B|240:64,1,80,2|8
368,40,134635,1,8
408,96,135010,2,0,B|456:160|448:248,1,160,4|0
456,320,136135,1,8
384,344,136510,6,0,B|304:368|208:344,1,160,4|0
152,336,137635,1,0
104,288,138010,6,0,B|104:200,1,80,0|2
136,64,139135,1,2
256,144,139885,1,2
256,288,140635,1,2
312,328,141010,6,0,B|392:344,1,80,0|2
312,224,142135,1,2
384,224,142510,2,0,B|456:192|464:88,1,160
416,40,143635,1,0
344,40,144010,6,0,B|264:40,1,80,4|2
128,96,145135,1,2
40,208,145885,1,2
112,328,146635,1,2
184,352,147010,6,0,B|264:352,1,80,0|2
408,336,148135,1,2
408,264,148510,2,0,B|408:176,2,80
336,264,149635,1,0
264,264,150010,6,0,B|184:232,1,80,4|8
56,184,151135,1,8
88,120,151510,2,0,B|136:48,1,80,2|8
200,40,152260,2,0,B|312:40,1,80,2|8
352,56,153010,6,0,B|408:128,1,80,2|8
400,264,154135,1,8
336,304,154510,2,0,B|256:352,2,80,2|8|2
296,248,155635,1,8
256,192,156010,6,0,B|208:120,1,80,4|8
72,88,157135,1,8
56,160,157510,2,0,B|40:240,1,80,2|8
72,304,158260,2,0,B|144:352,1,80,2|8
208,360,159010,6,0,B|288:384|376:344,1,160,0|2
424,308,160135,1,8
360,272,160510,2,0,B|280:272,1,80
208,264,161260,1,0
160,208,161635,1,0
232,192,162010,6,0,B|320:192,1,80,4|8
456,184,163135,1,8
424,120,163510,2,0,B|376:48,1,80,2|8
312,40,164260,2,0,B|200:40,1,80,2|8
160,56,165010,6,0,B|104:128,1,80,2|8
112,264,166135,1,8
176,304,166510,2,0,B|256:352,2,80,2|8|2
216,248,167635,1,8
256,192,168010,6,0,B|304:120,1,80,4|8
440,88,169135,1,8
456,160,169510,2,0,B|472:240,1,80,2|8
440,304,170260,2,0,B|368:352,1,80,2|8
304,360,171010,6,0,B|224:384|144:320,1,160,4|2
152,256,172135,1,8
224,256,172510,2,0,B|304:256,2,80
96,192,174010,5,4
