osu file format v5

[General]
AudioFilename: Tears to Tiara.mp3
AudioLeadIn: 0
PreviewTime: -1
Countdown: 0
SampleSet: Normal
StackLeniency: 0.7
Mode: 0
EditorBookmarks: 19196,25934,35596,42206,51995,59623,67632,76531,84413,93821,125095,133740,138698,141622,149631,157894,166031,174040,181795,206712,210017,215484

[Metadata]
Title:Tears to Tiara
Artist:nakayama arika
Creator:chy
Version:Normal
Source:
Tags:

[Difficulty]
HPDrainRate:3
CircleSize:3
OverallDifficulty:4
SliderMultiplier:2
SliderTickRate:3

[Events]
//Background and Video events
//Break Periods
2,94402,123775
//Storyboard Layer 0 (Background)
//Storyboard Layer 1 (Failing)
//Storyboard Layer 2 (Passing)
//Storyboard Layer 3 (Foreground)
//Storyboard Sound Samples
//Background Colour Transformations
3,100,163,162,255

[TimingPoints]
19008,508.474576271186,4,1,0,100

[HitObjects]
64,96,19262,1,0
160,96,19516,1,0
256,96,19770,1,0
448,96,20279,1,0
464,288,20787,1,0
368,288,21041,1,0
272,288,21295,1,0
176,288,21550,1,0
80,288,21804,1,0
448,96,23329,5,0
352,96,23584,1,0
256,96,23838,1,0
160,112,24092,2,0,B|-64:112|-32:240|185:228|185:228,1,300
256,224,25872,5,0
256,320,26126,1,0
368,320,26380,1,0
368,224,26635,1,0
464,224,26889,1,0
464,128,27906,6,0,B|464:0|432:0|432:160|400:160|400:0|368:0|368:160|336:160|114:32|114:32,1,400
48,80,29940,1,0
48,160,31211,2,0,B|80:368|80:368|218:-131|185:358|185:358|496:48,1,1100
480,32,35533,2,0,B|256:64|256:64,1,200
192,80,36550,2,0,B|-62:71|-60:396|432:339|432:339,1,600
464,256,39601,1,0
408,104,41126,1,0
320,112,42143,5,0
240,48,42397,1,0
160,112,42652,1,0
96,32,42906,1,0
32,112,43160,1,0
30,145,44177,5,0
129,142,44431,1,0
60,215,44685,1,0
160,219,44940,1,0
91,291,45194,2,0,B|91:387|155:387|171:35|219:35|299:35|299:35|251:296|251:296,1,600
256,192,47228,12,0,51296
468,58,52058,5,0
67,56,53075,1,0
460,149,54092,1,0
60,141,55109,1,0
256,192,56126,1,0
256,192,56380,1,0
448,64,60194,6,0,B|32:64|32:64,1,400
48,128,61719,6,0,B|48:336|48:336,1,200
48,328,62482,1,0
124,336,64262,5,0
323,336,64770,1,0
427,333,65279,1,0
432,133,65787,1,0
231,126,66296,1,0
131,127,66550,1,0
47,132,67312,1,0
443,79,68329,5,0
240,80,68838,1,0
144,80,69092,1,0
48,80,69346,1,0
48,176,69600,1,0
48,272,69855,1,0
240,304,70363,1,0
336,304,70618,1,0
432,304,70872,1,0
432,208,71126,1,0
432,48,71635,1,0
128,48,72397,1,0
32,48,72651,1,0
32,144,72906,1,0
176,288,73414,1,0
272,288,73668,1,0
432,288,74431,1,0
432,288,74940,1,0
432,288,75448,1,0
448,320,76465,5,0
448,176,76973,1,0
448,80,77228,1,0
352,80,77482,1,0
144,80,77990,1,0
48,256,78499,1,0
144,256,78753,1,0
240,256,79007,1,0
336,256,79262,1,0
432,80,79770,1,0
128,48,80533,1,0
32,48,80787,1,0
32,144,81041,1,0
32,336,81550,1,0
128,336,81804,1,0
432,336,82567,1,0
432,32,83329,1,0
240,32,83838,1,0
256,192,84601,12,0,94262
416,64,125025,6,0,B|80:64|252:31|240:208|32:64,3,400
32,144,129092,5,0
32,144,129347,2,0,B|-40:372|480:196|480:196,1,500
432,256,131635,5,0
432,256,131889,1,0
432,256,132143,1,0
432,256,132397,1,0
432,256,132651,1,0
368,320,133668,5,0
64,320,134940,1,0
64,64,136719,1,0
176,48,138245,6,0,B|446:356|446:356,1,400
448,256,139516,1,0
448,160,139770,1,0
464,128,141550,6,0,B|272:16|49:45|64:176|64:352|64:352,2,600
416,208,145109,1,0
448,64,149685,5,0
448,256,150194,1,0
240,256,150702,1,0
240,48,151211,1,0
32,48,151719,1,0
32,144,151973,1,0
48,48,153753,1,0
240,48,154262,1,0
432,48,154770,1,0
448,240,155279,1,0
240,240,155787,1,0
144,240,156041,1,0
144,240,156804,1,0
480,32,157821,5,0
384,32,158329,6,0,B|272:32|272:32,4,100
384,32,159855,1,0
288,32,160109,1,0
192,32,160363,1,0
96,32,160618,1,0
48,224,161126,5,0
128,224,161889,6,0,B|240:224|240:224,3,100
304,224,163160,1,0
304,224,163923,1,0
304,224,164431,1,0
304,224,164940,1,0
304,336,165957,5,0
432,336,166465,2,0,B|432:208|432:208,4,100
416,128,167990,1,0
320,128,168245,1,0
224,128,168499,1,0
128,128,168753,1,0
48,304,169262,1,0
352,304,170024,1,0
448,304,170279,1,0
448,208,170533,1,0
320,48,171041,1,0
224,48,171296,1,0
48,48,172058,1,0
48,288,172821,1,0
48,288,173329,1,0
256,192,174092,12,0,177143
464,64,182228,5,0
256,64,182736,1,0
160,64,182990,1,0
64,64,183245,1,0
64,160,183499,1,0
64,256,183753,1,0
256,272,184262,1,0
352,272,184516,1,0
448,272,184770,1,0
448,176,185024,1,0
448,64,185533,1,0
144,64,186296,1,0
48,64,186550,1,0
48,160,186804,1,0
128,336,187312,1,0
224,336,187567,1,0
384,80,188329,1,0
176,80,188838,1,0
176,80,189346,1,0
448,64,190363,5,0
240,64,190872,1,0
144,64,191126,1,0
48,64,191380,1,0
48,160,191635,1,0
48,256,191889,1,0
48,256,192397,1,0
48,256,192651,1,0
48,352,192906,1,0
48,352,193160,1,0
240,336,193668,1,0
432,96,194431,1,0
336,96,194685,1,0
240,96,194940,1,0
32,96,195448,1,0
32,96,196465,1,0
32,96,196720,1,0
32,192,197228,1,0
32,288,197736,1,0
256,192,198499,12,0,206126
