osu file format v14

[General]
AudioFilename: nainai.mp3
AudioLeadIn: 0
PreviewTime: -1
Countdown: 0
SampleSet: Soft
StackLeniency: 0.7
Mode: 3
LetterboxInBreaks: 0
SpecialStyle: 0
WidescreenStoryboard: 0

[Editor]
DistanceSpacing: 0.6
BeatDivisor: 4
GridSize: 4
TimelineZoom: 3.1

[Metadata]
Title:Nhai Nhai
TitleUnicode:Nhai Nhai
Artist:
ArtistUnicode:
Creator:Zenonia
Version:ZenoCORE!
Source:
Tags:
BeatmapID:790042
BeatmapSetID:359307

[Difficulty]
HPDrainRate:7
CircleSize:7
OverallDifficulty:7
ApproachRate:5
SliderMultiplier:1.4
SliderTickRate:1

[Events]
//Background and Video events
0,0,"ss (2558-09-25 at 12.19.46).jpg",0,0
//Break Periods
//Storyboard Layer 0 (Background)
//Storyboard Layer 1 (Fail)
//Storyboard Layer 2 (Pass)
//Storyboard Layer 3 (Foreground)
//Storyboard Sound Samples

[TimingPoints]
506,422.535211267606,4,2,0,0,1,0
49520,-100,4,2,0,0,0,1
62935,-100,4,2,0,0,0,0
63041,-100,4,2,0,0,0,1
76562,-100,4,2,0,0,0,0
82477,-133.333333333333,4,2,0,0,0,0
90083,-100,4,2,0,0,0,0
103604,-100,4,2,0,0,0,1
117020,-100,4,2,0,0,0,0
117125,-100,4,2,0,0,0,1
130541,-100,4,2,0,0,0,0
130646,-100,4,2,0,0,0,1
140787,-100,4,2,0,0,0,0
144167,-100,4,2,0,0,0,1
157689,-100,4,2,0,0,0,0
171210,-100,4,2,0,0,0,1
177865,-100,4,2,0,0,0,0
177970,-100,4,2,0,0,0,1
191491,-100,4,2,0,0,0,0

[HitObjects]
36,192,506,128,0,576:0:0:0:0:
109,192,558,128,0,611:0:0:0:0:
182,192,611,128,0,664:0:0:0:0:
256,192,664,128,0,717:0:0:0:0:
329,192,717,128,0,770:0:0:0:0:
402,192,770,128,0,822:0:0:0:0:
475,192,822,128,0,928:0:0:0:0:
402,192,875,128,0,981:0:0:0:0:
329,192,928,128,0,1034:0:0:0:0:
256,192,981,128,0,1086:0:0:0:0:
182,192,1034,128,0,1139:0:0:0:0:
109,192,1086,128,0,1139:0:0:0:0:
36,192,1139,128,0,1192:0:0:0:0:
109,192,1192,128,0,1245:0:0:0:0:
182,192,1245,128,0,1298:0:0:0:0:
256,192,1298,128,0,1351:0:0:0:0:
329,192,1351,128,0,1403:0:0:0:0:
402,192,1403,128,0,1456:0:0:0:0:
475,192,1456,128,0,1562:0:0:0:0:
402,192,1509,128,0,1615:0:0:0:0:
329,192,1562,128,0,1667:0:0:0:0:
256,192,1615,128,0,1720:0:0:0:0:
182,192,1667,128,0,1773:0:0:0:0:
109,192,1720,128,0,1773:0:0:0:0:
36,192,1773,128,0,1879:0:0:0:0:
256,192,1773,128,0,1826:0:0:0:0:
109,192,1826,128,0,1932:0:0:0:0:
329,192,1826,128,0,1879:0:0:0:0:
182,192,1879,128,0,1984:0:0:0:0:
402,192,1879,128,0,1932:0:0:0:0:
256,192,1932,128,0,2037:0:0:0:0:
475,192,1932,128,0,1984:0:0:0:0:
329,192,1984,128,0,2090:0:0:0:0:
36,192,1984,128,0,2037:0:0:0:0:
402,192,2037,128,0,2143:0:0:0:0:
109,192,2037,128,0,2090:0:0:0:0:
475,192,2090,128,0,2196:0:0:0:0:
182,192,2090,128,0,2143:0:0:0:0:
256,192,2143,128,0,2196:0:0:0:0:
329,192,2196,128,0,2407:0:0:0:0:
109,192,2196,1,0,0:0:0:0:
36,192,2196,1,0,0:0:0:0:
182,192,2301,128,0,2407:0:0:0:0:
36,192,2407,128,0,2513:0:0:0:0:
256,192,2513,128,0,2618:0:0:0:0:
109,192,2618,128,0,2829:0:0:0:0:
329,192,2724,128,0,2829:0:0:0:0:
182,192,2829,128,0,2935:0:0:0:0:
256,192,2935,128,0,3041:0:0:0:0:
329,192,3041,128,0,3111:0:0:0:0:
182,192,3111,128,0,3182:0:0:0:0:
329,192,3182,128,0,3252:0:0:0:0:
182,192,3252,128,0,3322:0:0:0:0:
329,192,3322,128,0,3393:0:0:0:0:
182,192,3393,128,0,3463:0:0:0:0:
256,192,3463,128,0,3675:0:0:0:0:
329,192,3675,1,0,0:0:0:0:
182,192,3675,1,0,0:0:0:0:
36,192,3675,1,0,0:0:0:0:
475,192,3675,1,0,0:0:0:0:
182,192,3886,1,0,0:0:0:0:
109,192,3886,1,0,0:0:0:0:
329,192,3886,1,0,0:0:0:0:
36,192,3886,1,0,0:0:0:0:
402,192,3886,1,0,0:0:0:0:
475,192,3886,1,0,0:0:0:0:
329,192,3991,1,0,0:0:0:0:
256,192,4097,128,0,4308:0:0:0:0:
109,192,4308,128,0,4731:0:0:0:0:
402,192,4520,128,0,5153:0:0:0:0:
182,192,4731,1,0,0:0:0:0:
182,192,4836,1,0,0:0:0:0:
256,192,4942,128,0,5153:0:0:0:0:
36,192,5153,128,0,5576:0:0:0:0:
475,192,5365,128,0,5576:0:0:0:0:
182,192,5576,128,0,5787:0:0:0:0:
402,192,5576,1,0,0:0:0:0:
256,192,5576,1,0,0:0:0:0:
36,192,5682,1,0,0:0:0:0:
329,192,5682,128,0,5787:0:0:0:0:
475,192,5787,128,0,5893:0:0:0:0:
109,192,5787,1,0,0:0:0:0:
402,192,5787,1,0,0:0:0:0:
256,192,5893,128,0,5998:0:0:0:0:
182,192,5893,1,0,0:0:0:0:
402,192,5998,128,0,6210:0:0:0:0:
329,192,5998,1,0,0:0:0:0:
109,192,5998,1,0,0:0:0:0:
182,192,6104,128,0,6210:0:0:0:0:
256,192,6104,1,0,0:0:0:0:
329,192,6210,128,0,6315:0:0:0:0:
475,192,6210,1,0,0:0:0:0:
36,192,6210,1,0,0:0:0:0:
256,192,6315,128,0,6421:0:0:0:0:
109,192,6315,1,0,0:0:0:0:
182,192,6421,128,0,6491:0:0:0:0:
402,192,6421,1,0,0:0:0:0:
36,192,6421,1,0,0:0:0:0:
475,192,6421,1,0,0:0:0:0:
329,192,6491,128,0,6562:0:0:0:0:
109,192,6491,1,0,0:0:0:0:
182,192,6562,128,0,6632:0:0:0:0:
402,192,6562,1,0,0:0:0:0:
329,192,6632,128,0,6703:0:0:0:0:
109,192,6632,1,0,0:0:0:0:
182,192,6703,128,0,6773:0:0:0:0:
402,192,6703,1,0,0:0:0:0:
329,192,6773,128,0,6844:0:0:0:0:
109,192,6773,1,0,0:0:0:0:
256,192,6844,128,0,7055:0:0:0:0:
36,192,6844,1,0,0:0:0:0:
475,192,6844,1,0,0:0:0:0:
329,192,7055,1,0,0:0:0:0:
182,192,7055,1,0,0:0:0:0:
36,192,7266,128,0,8111:0:0:0:0:
475,192,7372,128,0,8111:0:0:0:0:
109,192,7477,128,0,8111:0:0:0:0:
402,192,7583,128,0,8111:0:0:0:0:
182,192,7689,128,0,7900:0:0:0:0:
329,192,7794,128,0,8006:0:0:0:0:
256,192,7900,128,0,8111:0:0:0:0:
182,192,8006,128,0,8111:0:0:0:0:
329,192,8111,128,0,8534:0:0:0:0:
109,192,8428,1,0,0:0:0:0:
182,192,8534,128,0,8692:0:0:0:0:
36,192,8534,1,0,0:0:0:0:
256,192,8534,1,0,0:0:0:0:
182,192,8745,1,0,0:0:0:0:
329,192,8745,1,0,0:0:0:0:
36,192,8956,1,0,0:0:0:0:
182,192,8956,1,0,0:0:0:0:
329,192,8956,1,0,0:0:0:0:
402,192,8956,1,0,0:0:0:0:
475,192,8956,1,0,0:0:0:0:
109,192,8956,128,0,11491:0:0:0:0:
475,192,9167,128,0,9326:0:0:0:0:
256,192,9167,1,0,0:0:0:0:
475,192,9379,1,0,0:0:0:0:
182,192,9379,1,0,0:0:0:0:
256,192,9379,1,0,0:0:0:0:
329,192,9590,128,0,9748:0:0:0:0:
36,192,9590,1,0,0:0:0:0:
329,192,9801,1,0,0:0:0:0:
182,192,9801,1,0,0:0:0:0:
475,192,9801,1,0,0:0:0:0:
256,192,10013,128,0,10171:0:0:0:0:
402,192,10013,1,0,0:0:0:0:
256,192,10224,1,0,0:0:0:0:
36,192,10224,1,0,0:0:0:0:
329,192,10224,1,0,0:0:0:0:
402,192,10435,128,0,10594:0:0:0:0:
182,192,10435,1,0,0:0:0:0:
329,192,10541,1,0,0:0:0:0:
402,192,10646,1,0,0:0:0:0:
256,192,10646,1,0,0:0:0:0:
36,192,10646,1,0,0:0:0:0:
182,192,10858,128,0,11016:0:0:0:0:
329,192,10858,1,0,0:0:0:0:
182,192,11069,1,0,0:0:0:0:
329,192,11069,1,0,0:0:0:0:
402,192,11069,1,0,0:0:0:0:
256,192,11280,128,0,11439:0:0:0:0:
475,192,11280,1,0,0:0:0:0:
256,192,11491,1,0,0:0:0:0:
329,192,11491,1,0,0:0:0:0:
36,192,11491,1,0,0:0:0:0:
182,192,11597,1,0,0:0:0:0:
109,192,11597,1,0,0:0:0:0:
256,192,11703,1,0,0:0:0:0:
475,192,11703,128,0,11861:0:0:0:0:
329,192,11808,1,0,0:0:0:0:
182,192,11808,1,0,0:0:0:0:
256,192,11914,1,0,0:0:0:0:
36,192,11914,1,0,0:0:0:0:
475,192,11914,1,0,0:0:0:0:
329,192,12125,1,0,0:0:0:0:
109,192,12125,128,0,12284:0:0:0:0:
256,192,12336,1,0,0:0:0:0:
475,192,12336,1,0,0:0:0:0:
109,192,12336,1,0,0:0:0:0:
402,192,12336,128,0,14872:0:0:0:0:
36,192,12548,128,0,12706:0:0:0:0:
182,192,12548,1,0,0:0:0:0:
36,192,12759,1,0,0:0:0:0:
329,192,12759,1,0,0:0:0:0:
256,192,12759,1,0,0:0:0:0:
182,192,12970,128,0,13129:0:0:0:0:
475,192,12970,1,0,0:0:0:0:
182,192,13182,1,0,0:0:0:0:
329,192,13182,1,0,0:0:0:0:
36,192,13182,1,0,0:0:0:0:
109,192,13393,1,0,0:0:0:0:
256,192,13393,128,0,13551:0:0:0:0:
36,192,13498,1,0,0:0:0:0:
475,192,13604,1,0,0:0:0:0:
256,192,13604,1,0,0:0:0:0:
182,192,13604,1,0,0:0:0:0:
329,192,13815,1,0,0:0:0:0:
109,192,13815,128,0,13974:0:0:0:0:
109,192,14027,1,0,0:0:0:0:
256,192,14027,1,0,0:0:0:0:
475,192,14027,1,0,0:0:0:0:
329,192,14238,128,0,14396:0:0:0:0:
36,192,14238,1,0,0:0:0:0:
329,192,14449,1,0,0:0:0:0:
182,192,14449,1,0,0:0:0:0:
109,192,14449,1,0,0:0:0:0:
256,192,14660,128,0,14819:0:0:0:0:
36,192,14660,1,0,0:0:0:0:
256,192,14872,1,0,0:0:0:0:
182,192,14872,1,0,0:0:0:0:
475,192,14872,1,0,0:0:0:0:
402,192,15083,1,0,0:0:0:0:
109,192,15083,1,0,0:0:0:0:
36,192,15083,128,0,15241:0:0:0:0:
475,192,15083,128,0,15241:0:0:0:0:
256,192,15189,1,0,0:0:0:0:
182,192,15294,1,0,0:0:0:0:
329,192,15294,1,0,0:0:0:0:
36,192,15294,128,0,15717:0:0:0:0:
475,192,15294,128,0,15717:0:0:0:0:
402,192,15400,1,0,0:0:0:0:
256,192,15400,1,0,0:0:0:0:
109,192,15506,1,0,0:0:0:0:
329,192,15506,1,0,0:0:0:0:
182,192,15611,1,0,0:0:0:0:
402,192,15611,1,0,0:0:0:0:
109,192,15717,1,0,0:0:0:0:
256,192,15717,1,0,0:0:0:0:
329,192,15717,128,0,18252:0:0:0:0:
475,192,15928,128,0,16086:0:0:0:0:
109,192,15928,1,0,0:0:0:0:
475,192,16139,1,0,0:0:0:0:
109,192,16139,1,0,0:0:0:0:
182,192,16139,1,0,0:0:0:0:
36,192,16351,1,0,0:0:0:0:
256,192,16351,128,0,16509:0:0:0:0:
256,192,16562,1,0,0:0:0:0:
109,192,16562,1,0,0:0:0:0:
402,192,16773,1,0,0:0:0:0:
182,192,16773,128,0,16932:0:0:0:0:
475,192,16984,1,0,0:0:0:0:
36,192,16984,1,0,0:0:0:0:
182,192,16984,1,0,0:0:0:0:
256,192,17196,1,0,0:0:0:0:
109,192,17196,128,0,17354:0:0:0:0:
402,192,17301,1,0,0:0:0:0:
36,192,17407,1,0,0:0:0:0:
109,192,17407,1,0,0:0:0:0:
256,192,17407,1,0,0:0:0:0:
182,192,17618,128,0,17777:0:0:0:0:
475,192,17618,1,0,0:0:0:0:
402,192,17829,1,0,0:0:0:0:
36,192,17829,1,0,0:0:0:0:
182,192,17829,1,0,0:0:0:0:
109,192,18041,1,0,0:0:0:0:
256,192,18041,128,0,18199:0:0:0:0:
475,192,18252,1,0,0:0:0:0:
36,192,18252,1,0,0:0:0:0:
256,192,18252,1,0,0:0:0:0:
109,192,18358,1,0,0:0:0:0:
182,192,18358,1,0,0:0:0:0:
475,192,18463,128,0,18622:0:0:0:0:
256,192,18463,1,0,0:0:0:0:
182,192,18569,1,0,0:0:0:0:
329,192,18569,1,0,0:0:0:0:
36,192,18675,1,0,0:0:0:0:
256,192,18675,1,0,0:0:0:0:
475,192,18675,1,0,0:0:0:0:
402,192,18886,1,0,0:0:0:0:
109,192,18886,128,0,19044:0:0:0:0:
182,192,19097,128,0,20787:0:0:0:0:
109,192,19097,1,0,0:0:0:0:
329,192,19097,1,0,0:0:0:0:
402,192,19097,1,0,0:0:0:0:
256,192,19308,128,0,19467:0:0:0:0:
475,192,19308,1,0,0:0:0:0:
256,192,19520,1,0,0:0:0:0:
36,192,19520,1,0,0:0:0:0:
402,192,19520,1,0,0:0:0:0:
329,192,19731,1,0,0:0:0:0:
475,192,19731,128,0,19889:0:0:0:0:
475,192,19942,1,0,0:0:0:0:
256,192,19942,1,0,0:0:0:0:
36,192,19942,1,0,0:0:0:0:
109,192,20153,128,0,20312:0:0:0:0:
329,192,20153,1,0,0:0:0:0:
402,192,20259,1,0,0:0:0:0:
109,192,20365,1,0,0:0:0:0:
475,192,20365,1,0,0:0:0:0:
329,192,20365,1,0,0:0:0:0:
256,192,20576,128,0,20787:0:0:0:0:
402,192,20576,1,0,0:0:0:0:
475,192,20682,1,0,0:0:0:0:
329,192,20787,1,0,0:0:0:0:
109,192,20998,1,0,0:0:0:0:
256,192,21104,1,0,0:0:0:0:
402,192,21210,1,0,0:0:0:0:
329,192,21421,1,0,0:0:0:0:
256,192,21632,1,0,0:0:0:0:
36,192,21632,1,0,0:0:0:0:
475,192,21632,1,0,0:0:0:0:
256,192,21844,1,0,0:0:0:0:
36,192,21844,1,0,0:0:0:0:
475,192,21844,1,0,0:0:0:0:
256,192,22055,1,0,0:0:0:0:
36,192,22055,1,0,0:0:0:0:
475,192,22055,1,0,0:0:0:0:
329,192,22160,1,0,0:0:0:0:
109,192,22266,1,0,0:0:0:0:
475,192,22266,1,0,0:0:0:0:
182,192,22372,1,0,0:0:0:0:
256,192,22477,1,0,0:0:0:0:
402,192,22477,128,0,22900:0:0:0:0:
36,192,22689,1,0,0:0:0:0:
182,192,22689,1,0,0:0:0:0:
109,192,22900,1,0,0:0:0:0:
256,192,22900,1,0,0:0:0:0:
182,192,23111,1,0,0:0:0:0:
329,192,23111,1,0,0:0:0:0:
109,192,23322,128,0,23745:0:0:0:0:
256,192,23322,1,0,0:0:0:0:
402,192,23322,1,0,0:0:0:0:
329,192,23534,1,0,0:0:0:0:
475,192,23534,1,0,0:0:0:0:
256,192,23745,1,0,0:0:0:0:
402,192,23745,1,0,0:0:0:0:
182,192,23956,1,0,0:0:0:0:
329,192,23956,1,0,0:0:0:0:
329,192,24167,128,0,24590:0:0:0:0:
182,192,24167,1,0,0:0:0:0:
36,192,24167,1,0,0:0:0:0:
109,192,24273,1,0,0:0:0:0:
256,192,24379,1,0,0:0:0:0:
475,192,24379,1,0,0:0:0:0:
182,192,24484,1,0,0:0:0:0:
402,192,24590,1,0,0:0:0:0:
36,192,24590,1,0,0:0:0:0:
329,192,24801,1,0,0:0:0:0:
256,192,24801,1,0,0:0:0:0:
182,192,25013,128,0,25435:0:0:0:0:
36,192,25013,1,0,0:0:0:0:
402,192,25013,1,0,0:0:0:0:
109,192,25224,128,0,25277:0:0:0:0:
256,192,25224,128,0,25277:0:0:0:0:
329,192,25224,128,0,25277:0:0:0:0:
475,192,25224,128,0,25277:0:0:0:0:
36,192,25435,1,0,0:0:0:0:
402,192,25435,1,0,0:0:0:0:
109,192,25646,1,0,0:0:0:0:
329,192,25646,1,0,0:0:0:0:
402,192,25752,1,0,0:0:0:0:
182,192,25858,1,0,0:0:0:0:
475,192,25858,128,0,26280:0:0:0:0:
256,192,25858,128,0,26016:0:0:0:0:
36,192,26069,1,0,0:0:0:0:
256,192,26069,1,0,0:0:0:0:
109,192,26280,1,0,0:0:0:0:
402,192,26280,1,0,0:0:0:0:
182,192,26491,1,0,0:0:0:0:
329,192,26491,1,0,0:0:0:0:
36,192,26703,128,0,27125:0:0:0:0:
402,192,26703,1,0,0:0:0:0:
256,192,26703,128,0,26861:0:0:0:0:
475,192,26914,1,0,0:0:0:0:
256,192,26914,1,0,0:0:0:0:
402,192,27125,1,0,0:0:0:0:
182,192,27125,1,0,0:0:0:0:
329,192,27336,1,0,0:0:0:0:
109,192,27336,1,0,0:0:0:0:
402,192,27548,128,0,27970:0:0:0:0:
182,192,27548,1,0,0:0:0:0:
36,192,27548,1,0,0:0:0:0:
109,192,27759,1,0,0:0:0:0:
329,192,27759,1,0,0:0:0:0:
182,192,27970,1,0,0:0:0:0:
475,192,27970,1,0,0:0:0:0:
256,192,28182,1,0,0:0:0:0:
402,192,28182,1,0,0:0:0:0:
109,192,28393,128,0,28815:0:0:0:0:
329,192,28393,1,0,0:0:0:0:
36,192,28393,1,0,0:0:0:0:
256,192,28604,128,0,28657:0:0:0:0:
402,192,28604,128,0,28657:0:0:0:0:
475,192,28604,128,0,28657:0:0:0:0:
329,192,28710,1,0,0:0:0:0:
36,192,28815,1,0,0:0:0:0:
256,192,28815,1,0,0:0:0:0:
329,192,28921,1,0,0:0:0:0:
402,192,29027,1,0,0:0:0:0:
109,192,29027,1,0,0:0:0:0:
329,192,29132,1,0,0:0:0:0:
36,192,29238,128,0,29291:0:0:0:0:
256,192,29238,128,0,29291:0:0:0:0:
182,192,29238,128,0,29291:0:0:0:0:
475,192,29238,128,0,29291:0:0:0:0:
402,192,29238,128,0,29291:0:0:0:0:
109,192,29449,1,0,0:0:0:0:
329,192,29449,1,0,0:0:0:0:
182,192,29555,1,0,0:0:0:0:
256,192,29660,1,0,0:0:0:0:
475,192,29660,1,0,0:0:0:0:
402,192,29872,1,0,0:0:0:0:
182,192,29872,1,0,0:0:0:0:
256,192,30083,128,0,30506:0:0:0:0:
329,192,30083,1,0,0:0:0:0:
109,192,30083,1,0,0:0:0:0:
36,192,30294,1,0,0:0:0:0:
402,192,30294,1,0,0:0:0:0:
182,192,30400,1,0,0:0:0:0:
36,192,30506,1,0,0:0:0:0:
329,192,30506,1,0,0:0:0:0:
182,192,30717,1,0,0:0:0:0:
475,192,30717,1,0,0:0:0:0:
109,192,30928,128,0,31351:0:0:0:0:
36,192,30928,128,0,30981:0:0:0:0:
329,192,30928,128,0,30981:0:0:0:0:
256,192,30928,128,0,30981:0:0:0:0:
402,192,30928,128,0,30981:0:0:0:0:
182,192,31139,1,0,0:0:0:0:
475,192,31139,1,0,0:0:0:0:
256,192,31351,1,0,0:0:0:0:
402,192,31351,1,0,0:0:0:0:
329,192,31562,1,0,0:0:0:0:
182,192,31562,1,0,0:0:0:0:
402,192,31773,128,0,32196:0:0:0:0:
256,192,31773,1,0,0:0:0:0:
36,192,31773,1,0,0:0:0:0:
109,192,31984,1,0,0:0:0:0:
329,192,31984,1,0,0:0:0:0:
36,192,32090,1,0,0:0:0:0:
182,192,32196,1,0,0:0:0:0:
256,192,32196,1,0,0:0:0:0:
475,192,32196,1,0,0:0:0:0:
109,192,32407,1,0,0:0:0:0:
329,192,32513,1,0,0:0:0:0:
402,192,32513,1,0,0:0:0:0:
182,192,32618,128,0,33041:0:0:0:0:
256,192,32618,1,0,0:0:0:0:
36,192,32618,1,0,0:0:0:0:
475,192,32618,1,0,0:0:0:0:
402,192,32724,1,0,0:0:0:0:
329,192,32829,1,0,0:0:0:0:
109,192,32829,1,0,0:0:0:0:
402,192,32935,1,0,0:0:0:0:
475,192,33041,1,0,0:0:0:0:
256,192,33041,1,0,0:0:0:0:
36,192,33041,1,0,0:0:0:0:
109,192,33252,1,0,0:0:0:0:
402,192,33252,1,0,0:0:0:0:
329,192,33463,128,0,33886:0:0:0:0:
36,192,33463,1,0,0:0:0:0:
256,192,33463,1,0,0:0:0:0:
475,192,33463,1,0,0:0:0:0:
109,192,33569,1,0,0:0:0:0:
182,192,33675,1,0,0:0:0:0:
402,192,33675,1,0,0:0:0:0:
109,192,33780,1,0,0:0:0:0:
36,192,33886,1,0,0:0:0:0:
475,192,33886,1,0,0:0:0:0:
36,192,34097,128,0,34150:0:0:0:0:
109,192,34097,128,0,34150:0:0:0:0:
475,192,34097,128,0,34150:0:0:0:0:
402,192,34097,128,0,34150:0:0:0:0:
182,192,34308,128,0,35576:0:0:0:0:
329,192,34308,128,0,35576:0:0:0:0:
256,192,34308,1,0,0:0:0:0:
36,192,34308,1,0,0:0:0:0:
475,192,34308,1,0,0:0:0:0:
109,192,34414,1,0,0:0:0:0:
402,192,34414,1,0,0:0:0:0:
256,192,34625,1,0,0:0:0:0:
36,192,34731,1,0,0:0:0:0:
475,192,34731,1,0,0:0:0:0:
36,192,34942,1,0,0:0:0:0:
475,192,34942,1,0,0:0:0:0:
109,192,35153,1,0,0:0:0:0:
256,192,35153,1,0,0:0:0:0:
402,192,35153,1,0,0:0:0:0:
36,192,35259,1,0,0:0:0:0:
475,192,35259,1,0,0:0:0:0:
109,192,35365,1,0,0:0:0:0:
402,192,35365,1,0,0:0:0:0:
256,192,35470,1,0,0:0:0:0:
109,192,35576,1,0,0:0:0:0:
402,192,35576,1,0,0:0:0:0:
329,192,35682,1,0,0:0:0:0:
256,192,35787,1,0,0:0:0:0:
475,192,35787,1,0,0:0:0:0:
182,192,35893,1,0,0:0:0:0:
109,192,35998,1,0,0:0:0:0:
256,192,35998,1,0,0:0:0:0:
475,192,35998,1,0,0:0:0:0:
36,192,35998,128,0,36421:0:0:0:0:
402,192,36104,1,0,0:0:0:0:
329,192,36210,1,0,0:0:0:0:
182,192,36210,1,0,0:0:0:0:
402,192,36315,1,0,0:0:0:0:
475,192,36421,1,0,0:0:0:0:
256,192,36421,1,0,0:0:0:0:
182,192,36527,1,0,0:0:0:0:
109,192,36632,1,0,0:0:0:0:
402,192,36632,1,0,0:0:0:0:
182,192,36738,1,0,0:0:0:0:
475,192,36844,128,0,37266:0:0:0:0:
256,192,36844,1,0,0:0:0:0:
36,192,36844,1,0,0:0:0:0:
109,192,36949,1,0,0:0:0:0:
182,192,37055,1,0,0:0:0:0:
329,192,37055,1,0,0:0:0:0:
109,192,37160,1,0,0:0:0:0:
36,192,37266,1,0,0:0:0:0:
256,192,37266,1,0,0:0:0:0:
402,192,37266,1,0,0:0:0:0:
182,192,37372,1,0,0:0:0:0:
109,192,37477,1,0,0:0:0:0:
329,192,37477,1,0,0:0:0:0:
475,192,37583,1,0,0:0:0:0:
256,192,37689,128,0,38111:0:0:0:0:
402,192,37689,1,0,0:0:0:0:
36,192,37689,1,0,0:0:0:0:
109,192,37794,1,0,0:0:0:0:
182,192,37900,1,0,0:0:0:0:
402,192,37900,1,0,0:0:0:0:
329,192,38006,1,0,0:0:0:0:
36,192,38111,128,0,38164:0:0:0:0:
182,192,38111,128,0,38217:0:0:0:0:
475,192,38111,128,0,38322:0:0:0:0:
402,192,38111,128,0,38270:0:0:0:0:
256,192,38217,1,0,0:0:0:0:
182,192,38322,1,0,0:0:0:0:
109,192,38428,1,0,0:0:0:0:
402,192,38534,1,0,0:0:0:0:
256,192,38534,128,0,38956:0:0:0:0:
36,192,38534,1,0,0:0:0:0:
36,192,38745,128,0,38798:0:0:0:0:
182,192,38745,128,0,38798:0:0:0:0:
329,192,38745,128,0,38798:0:0:0:0:
475,192,38745,128,0,38798:0:0:0:0:
36,192,38956,128,0,39009:0:0:0:0:
109,192,38956,128,0,39009:0:0:0:0:
182,192,38956,128,0,39009:0:0:0:0:
402,192,38956,128,0,39009:0:0:0:0:
329,192,38956,128,0,39009:0:0:0:0:
475,192,38956,128,0,39009:0:0:0:0:
256,192,39167,1,0,0:0:0:0:
36,192,39167,1,0,0:0:0:0:
475,192,39167,1,0,0:0:0:0:
256,192,39379,1,0,0:0:0:0:
402,192,39379,1,0,0:0:0:0:
109,192,39379,128,0,39801:0:0:0:0:
182,192,39484,1,0,0:0:0:0:
329,192,39590,1,0,0:0:0:0:
402,192,39590,1,0,0:0:0:0:
256,192,39696,1,0,0:0:0:0:
329,192,39801,1,0,0:0:0:0:
475,192,39801,1,0,0:0:0:0:
36,192,39801,1,0,0:0:0:0:
109,192,39907,1,0,0:0:0:0:
182,192,40013,1,0,0:0:0:0:
402,192,40013,1,0,0:0:0:0:
329,192,40118,1,0,0:0:0:0:
402,192,40224,128,0,40646:0:0:0:0:
256,192,40224,1,0,0:0:0:0:
36,192,40224,1,0,0:0:0:0:
109,192,40329,1,0,0:0:0:0:
329,192,40435,1,0,0:0:0:0:
36,192,40435,1,0,0:0:0:0:
256,192,40541,1,0,0:0:0:0:
182,192,40646,1,0,0:0:0:0:
36,192,40646,1,0,0:0:0:0:
475,192,40646,1,0,0:0:0:0:
109,192,40858,1,0,0:0:0:0:
402,192,40858,1,0,0:0:0:0:
256,192,41069,128,0,41914:0:0:0:0:
36,192,41069,128,0,41175:0:0:0:0:
475,192,41069,128,0,41280:0:0:0:0:
182,192,41069,128,0,41491:0:0:0:0:
329,192,41069,128,0,41703:0:0:0:0:
109,192,41175,1,0,0:0:0:0:
402,192,41280,1,0,0:0:0:0:
36,192,41386,1,0,0:0:0:0:
109,192,41491,1,0,0:0:0:0:
475,192,41491,1,0,0:0:0:0:
182,192,41597,1,0,0:0:0:0:
402,192,41703,1,0,0:0:0:0:
109,192,41808,1,0,0:0:0:0:
182,192,41914,1,0,0:0:0:0:
36,192,41914,1,0,0:0:0:0:
475,192,41914,128,0,42072:0:0:0:0:
329,192,42020,1,0,0:0:0:0:
475,192,42125,128,0,42284:0:0:0:0:
256,192,42125,1,0,0:0:0:0:
36,192,42125,1,0,0:0:0:0:
109,192,42231,1,0,0:0:0:0:
329,192,42336,128,0,42495:0:0:0:0:
475,192,42336,1,0,0:0:0:0:
182,192,42336,1,0,0:0:0:0:
109,192,42442,1,0,0:0:0:0:
329,192,42548,128,0,42706:0:0:0:0:
36,192,42548,1,0,0:0:0:0:
182,192,42548,1,0,0:0:0:0:
256,192,42653,1,0,0:0:0:0:
182,192,42759,128,0,42812:0:0:0:0:
109,192,42759,128,0,42812:0:0:0:0:
329,192,42759,128,0,42812:0:0:0:0:
475,192,42759,128,0,42812:0:0:0:0:
402,192,42759,128,0,42812:0:0:0:0:
36,192,42759,128,0,43182:0:0:0:0:
256,192,42865,1,0,0:0:0:0:
329,192,42970,1,0,0:0:0:0:
109,192,42970,1,0,0:0:0:0:
402,192,43076,1,0,0:0:0:0:
182,192,43182,1,0,0:0:0:0:
256,192,43182,1,0,0:0:0:0:
475,192,43182,1,0,0:0:0:0:
329,192,43287,1,0,0:0:0:0:
109,192,43393,1,0,0:0:0:0:
402,192,43393,1,0,0:0:0:0:
475,192,43498,1,0,0:0:0:0:
182,192,43604,128,0,44027:0:0:0:0:
36,192,43604,1,0,0:0:0:0:
256,192,43604,1,0,0:0:0:0:
402,192,43604,1,0,0:0:0:0:
109,192,43710,1,0,0:0:0:0:
329,192,43815,1,0,0:0:0:0:
256,192,43921,1,0,0:0:0:0:
402,192,43921,1,0,0:0:0:0:
475,192,44027,1,0,0:0:0:0:
109,192,44027,1,0,0:0:0:0:
36,192,44027,1,0,0:0:0:0:
329,192,44027,1,0,0:0:0:0:
182,192,44132,1,0,0:0:0:0:
256,192,44238,1,0,0:0:0:0:
402,192,44238,1,0,0:0:0:0:
329,192,44344,1,0,0:0:0:0:
475,192,44449,128,0,44872:0:0:0:0:
402,192,44449,128,0,44502:0:0:0:0:
256,192,44449,128,0,44502:0:0:0:0:
36,192,44449,128,0,44502:0:0:0:0:
182,192,44449,128,0,44502:0:0:0:0:
109,192,44555,1,0,0:0:0:0:
182,192,44660,1,0,0:0:0:0:
329,192,44660,1,0,0:0:0:0:
256,192,44766,1,0,0:0:0:0:
402,192,44872,1,0,0:0:0:0:
109,192,44872,1,0,0:0:0:0:
329,192,44977,1,0,0:0:0:0:
256,192,45083,1,0,0:0:0:0:
36,192,45083,1,0,0:0:0:0:
182,192,45189,1,0,0:0:0:0:
329,192,45294,128,0,45717:0:0:0:0:
36,192,45294,1,0,0:0:0:0:
475,192,45294,1,0,0:0:0:0:
109,192,45294,1,0,0:0:0:0:
402,192,45400,1,0,0:0:0:0:
256,192,45506,1,0,0:0:0:0:
36,192,45506,1,0,0:0:0:0:
182,192,45611,1,0,0:0:0:0:
256,192,45717,1,0,0:0:0:0:
475,192,45717,1,0,0:0:0:0:
109,192,45717,1,0,0:0:0:0:
329,192,45822,1,0,0:0:0:0:
402,192,45928,1,0,0:0:0:0:
182,192,45928,1,0,0:0:0:0:
256,192,46034,1,0,0:0:0:0:
109,192,46139,128,0,46562:0:0:0:0:
329,192,46139,1,0,0:0:0:0:
36,192,46139,1,0,0:0:0:0:
475,192,46139,1,0,0:0:0:0:
329,192,46351,128,0,46403:0:0:0:0:
475,192,46351,128,0,46403:0:0:0:0:
256,192,46351,1,0,0:0:0:0:
402,192,46562,128,0,46615:0:0:0:0:
256,192,46562,128,0,46615:0:0:0:0:
182,192,46562,1,0,0:0:0:0:
329,192,46773,128,0,46826:0:0:0:0:
182,192,46773,128,0,46826:0:0:0:0:
109,192,46773,1,0,0:0:0:0:
402,192,46984,128,0,47407:0:0:0:0:
256,192,46984,128,0,47037:0:0:0:0:
109,192,46984,128,0,47037:0:0:0:0:
36,192,46984,1,0,0:0:0:0:
36,192,47196,128,0,47248:0:0:0:0:
182,192,47196,128,0,47248:0:0:0:0:
256,192,47196,1,0,0:0:0:0:
109,192,47407,128,0,47460:0:0:0:0:
256,192,47407,128,0,47460:0:0:0:0:
329,192,47407,1,0,0:0:0:0:
182,192,47618,128,0,47724:0:0:0:0:
329,192,47618,128,0,47724:0:0:0:0:
402,192,47618,1,0,0:0:0:0:
109,192,47618,1,0,0:0:0:0:
36,192,47829,1,0,0:0:0:0:
475,192,47829,1,0,0:0:0:0:
256,192,47829,1,0,0:0:0:0:
402,192,47829,1,0,0:0:0:0:
109,192,47829,1,0,0:0:0:0:
109,192,48041,1,0,0:0:0:0:
402,192,48041,1,0,0:0:0:0:
329,192,48041,1,0,0:0:0:0:
182,192,48041,1,0,0:0:0:0:
36,192,48252,1,0,0:0:0:0:
182,192,48252,1,0,0:0:0:0:
329,192,48252,1,0,0:0:0:0:
475,192,48252,1,0,0:0:0:0:
109,192,48463,1,0,0:0:0:0:
36,192,48463,1,0,0:0:0:0:
402,192,48463,1,0,0:0:0:0:
475,192,48463,1,0,0:0:0:0:
256,192,48463,1,0,0:0:0:0:
256,192,48675,128,0,49520:0:0:0:0:
182,192,48675,1,0,0:0:0:0:
329,192,48675,1,0,0:0:0:0:
402,192,48675,1,0,0:0:0:0:
36,192,48780,1,0,0:0:0:0:
109,192,48780,1,0,0:0:0:0:
475,192,48886,1,0,0:0:0:0:
402,192,48886,1,0,0:0:0:0:
109,192,48991,1,0,0:0:0:0:
36,192,48991,1,0,0:0:0:0:
475,192,49097,128,0,49150:0:0:0:0:
402,192,49097,128,0,49150:0:0:0:0:
329,192,49097,128,0,49150:0:0:0:0:
182,192,49203,1,0,0:0:0:0:
109,192,49203,1,0,0:0:0:0:
329,192,49308,1,0,0:0:0:0:
402,192,49308,1,0,0:0:0:0:
182,192,49414,1,0,0:0:0:0:
109,192,49414,1,0,0:0:0:0:
402,192,49520,1,0,0:0:0:0:
329,192,49520,1,0,0:0:0:0:
475,192,49520,1,0,0:0:0:0:
36,192,49520,1,0,0:0:0:0:
109,192,49625,1,0,0:0:0:0:
182,192,49731,1,0,0:0:0:0:
402,192,49731,1,0,0:0:0:0:
475,192,49731,1,0,0:0:0:0:
256,192,49836,1,0,0:0:0:0:
329,192,49942,1,0,0:0:0:0:
402,192,49942,1,0,0:0:0:0:
182,192,49942,1,0,0:0:0:0:
109,192,50048,1,0,0:0:0:0:
329,192,50153,1,0,0:0:0:0:
256,192,50153,1,0,0:0:0:0:
36,192,50153,1,0,0:0:0:0:
109,192,50259,1,0,0:0:0:0:
329,192,50365,1,0,0:0:0:0:
182,192,50365,1,0,0:0:0:0:
475,192,50365,1,0,0:0:0:0:
256,192,50470,1,0,0:0:0:0:
36,192,50576,1,0,0:0:0:0:
182,192,50576,1,0,0:0:0:0:
475,192,50576,1,0,0:0:0:0:
402,192,50682,1,0,0:0:0:0:
109,192,50787,1,0,0:0:0:0:
182,192,50787,1,0,0:0:0:0:
329,192,50787,1,0,0:0:0:0:
256,192,50893,1,0,0:0:0:0:
36,192,50998,1,0,0:0:0:0:
182,192,50998,1,0,0:0:0:0:
402,192,50998,1,0,0:0:0:0:
329,192,51104,1,0,0:0:0:0:
182,192,51210,1,0,0:0:0:0:
109,192,51210,1,0,0:0:0:0:
475,192,51210,1,0,0:0:0:0:
329,192,51315,1,0,0:0:0:0:
402,192,51315,1,0,0:0:0:0:
36,192,51315,1,0,0:0:0:0:
256,192,51421,1,0,0:0:0:0:
182,192,51527,1,0,0:0:0:0:
109,192,51527,1,0,0:0:0:0:
402,192,51632,1,0,0:0:0:0:
329,192,51632,1,0,0:0:0:0:
36,192,51632,1,0,0:0:0:0:
475,192,51632,1,0,0:0:0:0:
182,192,51738,1,0,0:0:0:0:
256,192,51844,1,0,0:0:0:0:
36,192,51844,1,0,0:0:0:0:
402,192,51844,1,0,0:0:0:0:
182,192,51949,1,0,0:0:0:0:
329,192,51949,1,0,0:0:0:0:
109,192,52055,1,0,0:0:0:0:
475,192,52055,1,0,0:0:0:0:
256,192,52055,1,0,0:0:0:0:
329,192,52160,1,0,0:0:0:0:
182,192,52266,1,0,0:0:0:0:
36,192,52266,1,0,0:0:0:0:
402,192,52266,1,0,0:0:0:0:
329,192,52372,1,0,0:0:0:0:
109,192,52477,1,0,0:0:0:0:
256,192,52477,1,0,0:0:0:0:
402,192,52477,1,0,0:0:0:0:
329,192,52689,128,0,52900:0:0:0:0:
402,192,52689,128,0,52900:0:0:0:0:
182,192,52689,1,0,0:0:0:0:
109,192,52900,1,0,0:0:0:0:
256,192,52900,1,0,0:0:0:0:
475,192,52900,1,0,0:0:0:0:
182,192,53006,1,0,0:0:0:0:
36,192,53111,1,0,0:0:0:0:
109,192,53111,1,0,0:0:0:0:
402,192,53111,1,0,0:0:0:0:
256,192,53217,1,0,0:0:0:0:
109,192,53322,1,0,0:0:0:0:
182,192,53322,1,0,0:0:0:0:
329,192,53322,1,0,0:0:0:0:
402,192,53428,1,0,0:0:0:0:
182,192,53534,1,0,0:0:0:0:
475,192,53534,1,0,0:0:0:0:
256,192,53534,1,0,0:0:0:0:
402,192,53639,1,0,0:0:0:0:
329,192,53745,1,0,0:0:0:0:
36,192,53745,1,0,0:0:0:0:
182,192,53745,1,0,0:0:0:0:
256,192,53851,1,0,0:0:0:0:
475,192,53956,1,0,0:0:0:0:
329,192,53956,1,0,0:0:0:0:
36,192,53956,1,0,0:0:0:0:
109,192,54062,1,0,0:0:0:0:
182,192,54167,1,0,0:0:0:0:
402,192,54167,1,0,0:0:0:0:
329,192,54167,1,0,0:0:0:0:
256,192,54273,1,0,0:0:0:0:
475,192,54379,1,0,0:0:0:0:
329,192,54379,1,0,0:0:0:0:
109,192,54379,1,0,0:0:0:0:
182,192,54484,1,0,0:0:0:0:
329,192,54590,1,0,0:0:0:0:
402,192,54590,1,0,0:0:0:0:
36,192,54590,128,0,55013:0:0:0:0:
475,192,54696,1,0,0:0:0:0:
182,192,54696,1,0,0:0:0:0:
256,192,54801,1,0,0:0:0:0:
402,192,54907,1,0,0:0:0:0:
329,192,54907,1,0,0:0:0:0:
182,192,55013,1,0,0:0:0:0:
475,192,55013,1,0,0:0:0:0:
109,192,55013,128,0,55435:0:0:0:0:
329,192,55118,1,0,0:0:0:0:
475,192,55224,1,0,0:0:0:0:
256,192,55224,1,0,0:0:0:0:
329,192,55329,1,0,0:0:0:0:
402,192,55329,1,0,0:0:0:0:
256,192,55435,1,0,0:0:0:0:
475,192,55435,1,0,0:0:0:0:
36,192,55435,1,0,0:0:0:0:
182,192,55435,128,0,55858:0:0:0:0:
109,192,55646,1,0,0:0:0:0:
475,192,55646,1,0,0:0:0:0:
329,192,55646,1,0,0:0:0:0:
402,192,55752,1,0,0:0:0:0:
36,192,55858,1,0,0:0:0:0:
475,192,55858,128,0,55963:0:0:0:0:
256,192,55858,128,0,56280:0:0:0:0:
402,192,55963,128,0,56069:0:0:0:0:
109,192,55963,1,0,0:0:0:0:
329,192,56069,128,0,56175:0:0:0:0:
36,192,56069,1,0,0:0:0:0:
182,192,56175,128,0,56280:0:0:0:0:
402,192,56175,1,0,0:0:0:0:
109,192,56280,128,0,56597:0:0:0:0:
36,192,56280,1,0,0:0:0:0:
475,192,56280,128,0,56386:0:0:0:0:
329,192,56280,1,0,0:0:0:0:
402,192,56386,128,0,56491:0:0:0:0:
329,192,56491,128,0,56597:0:0:0:0:
182,192,56491,1,0,0:0:0:0:
256,192,56597,128,0,56703:0:0:0:0:
182,192,56703,128,0,57020:0:0:0:0:
36,192,56703,128,0,56808:0:0:0:0:
475,192,56703,1,0,0:0:0:0:
402,192,56703,1,0,0:0:0:0:
109,192,56808,128,0,56914:0:0:0:0:
329,192,56914,128,0,57020:0:0:0:0:
256,192,56914,1,0,0:0:0:0:
402,192,57020,128,0,57125:0:0:0:0:
256,192,57125,128,0,57442:0:0:0:0:
475,192,57125,128,0,57231:0:0:0:0:
36,192,57125,1,0,0:0:0:0:
109,192,57125,1,0,0:0:0:0:
402,192,57231,128,0,57336:0:0:0:0:
182,192,57336,128,0,57442:0:0:0:0:
329,192,57336,1,0,0:0:0:0:
109,192,57442,128,0,57548:0:0:0:0:
329,192,57548,128,0,57865:0:0:0:0:
36,192,57548,128,0,57653:0:0:0:0:
475,192,57548,1,0,0:0:0:0:
256,192,57548,1,0,0:0:0:0:
109,192,57653,128,0,57759:0:0:0:0:
182,192,57759,128,0,57865:0:0:0:0:
402,192,57759,1,0,0:0:0:0:
256,192,57865,128,0,57970:0:0:0:0:
109,192,57970,1,0,0:0:0:0:
36,192,57970,128,0,58023:0:0:0:0:
475,192,57970,128,0,58023:0:0:0:0:
402,192,57970,1,0,0:0:0:0:
109,192,58182,128,0,58234:0:0:0:0:
402,192,58182,128,0,58234:0:0:0:0:
182,192,58182,1,0,0:0:0:0:
329,192,58182,1,0,0:0:0:0:
329,192,58393,128,0,58446:0:0:0:0:
182,192,58393,128,0,58446:0:0:0:0:
256,192,58393,1,0,0:0:0:0:
36,192,58393,1,0,0:0:0:0:
475,192,58393,1,0,0:0:0:0:
256,192,58604,128,0,58657:0:0:0:0:
109,192,58604,1,0,0:0:0:0:
402,192,58604,1,0,0:0:0:0:
36,192,58815,128,0,58868:0:0:0:0:
475,192,58815,128,0,58868:0:0:0:0:
182,192,58815,1,0,0:0:0:0:
329,192,58815,1,0,0:0:0:0:
256,192,58921,1,0,0:0:0:0:
402,192,59027,128,0,59079:0:0:0:0:
109,192,59027,128,0,59079:0:0:0:0:
182,192,59027,1,0,0:0:0:0:
329,192,59027,1,0,0:0:0:0:
36,192,59132,1,0,0:0:0:0:
475,192,59132,1,0,0:0:0:0:
182,192,59238,128,0,59291:0:0:0:0:
329,192,59238,128,0,59291:0:0:0:0:
402,192,59238,1,0,0:0:0:0:
109,192,59238,1,0,0:0:0:0:
256,192,59449,1,0,0:0:0:0:
109,192,59449,1,0,0:0:0:0:
402,192,59449,1,0,0:0:0:0:
109,192,59660,128,0,59713:0:0:0:0:
402,192,59660,128,0,59713:0:0:0:0:
36,192,59660,1,0,0:0:0:0:
475,192,59660,1,0,0:0:0:0:
256,192,59872,128,0,59925:0:0:0:0:
109,192,59872,1,0,0:0:0:0:
402,192,59872,1,0,0:0:0:0:
256,192,60083,128,0,60136:0:0:0:0:
402,192,60083,1,0,0:0:0:0:
109,192,60083,1,0,0:0:0:0:
182,192,60294,128,0,60347:0:0:0:0:
329,192,60294,128,0,60347:0:0:0:0:
256,192,60294,1,0,0:0:0:0:
36,192,60506,128,0,60558:0:0:0:0:
475,192,60506,128,0,60558:0:0:0:0:
109,192,60506,1,0,0:0:0:0:
402,192,60506,1,0,0:0:0:0:
109,192,60717,128,0,60770:0:0:0:0:
402,192,60717,128,0,60770:0:0:0:0:
182,192,60717,1,0,0:0:0:0:
329,192,60717,1,0,0:0:0:0:
182,192,60928,128,0,60981:0:0:0:0:
329,192,60928,128,0,60981:0:0:0:0:
36,192,60928,1,0,0:0:0:0:
475,192,60928,1,0,0:0:0:0:
256,192,61139,128,0,61192:0:0:0:0:
109,192,61139,1,0,0:0:0:0:
402,192,61139,1,0,0:0:0:0:
256,192,61245,128,0,62618:0:0:0:0:
36,192,61351,128,0,61456:0:0:0:0:
475,192,61351,1,0,0:0:0:0:
402,192,61351,1,0,0:0:0:0:
109,192,61456,128,0,61562:0:0:0:0:
182,192,61562,128,0,61667:0:0:0:0:
402,192,61562,1,0,0:0:0:0:
475,192,61562,1,0,0:0:0:0:
329,192,61667,128,0,61773:0:0:0:0:
402,192,61773,128,0,61879:0:0:0:0:
109,192,61773,1,0,0:0:0:0:
36,192,61773,1,0,0:0:0:0:
475,192,61879,128,0,61984:0:0:0:0:
402,192,61984,128,0,62090:0:0:0:0:
109,192,61984,1,0,0:0:0:0:
36,192,61984,1,0,0:0:0:0:
329,192,62090,128,0,62196:0:0:0:0:
182,192,62196,128,0,62301:0:0:0:0:
475,192,62196,1,0,0:0:0:0:
402,192,62196,1,0,0:0:0:0:
109,192,62301,128,0,62407:0:0:0:0:
36,192,62407,128,0,62513:0:0:0:0:
475,192,62407,1,0,0:0:0:0:
402,192,62407,1,0,0:0:0:0:
109,192,62513,128,0,62618:0:0:0:0:
182,192,62618,128,0,62671:0:0:0:0:
256,192,62671,128,0,62724:0:0:0:0:
329,192,62724,128,0,62777:0:0:0:0:
402,192,62777,128,0,62829:0:0:0:0:
475,192,62829,128,0,62882:0:0:0:0:
256,192,62882,128,0,62935:0:0:0:0:
182,192,62935,128,0,62988:0:0:0:0:
109,192,62988,128,0,63041:0:0:0:0:
36,192,63041,1,0,0:0:0:0:
256,192,63041,1,0,0:0:0:0:
329,192,63041,1,0,0:0:0:0:
475,192,63041,1,0,0:0:0:0:
402,192,63146,1,0,0:0:0:0:
36,192,63252,1,0,0:0:0:0:
109,192,63252,1,0,0:0:0:0:
329,192,63252,1,0,0:0:0:0:
256,192,63358,1,0,0:0:0:0:
329,192,63463,1,0,0:0:0:0:
182,192,63463,1,0,0:0:0:0:
109,192,63463,1,0,0:0:0:0:
402,192,63569,1,0,0:0:0:0:
182,192,63675,1,0,0:0:0:0:
475,192,63675,1,0,0:0:0:0:
256,192,63675,1,0,0:0:0:0:
402,192,63780,1,0,0:0:0:0:
182,192,63886,1,0,0:0:0:0:
36,192,63886,1,0,0:0:0:0:
329,192,63886,1,0,0:0:0:0:
256,192,63991,1,0,0:0:0:0:
36,192,64097,1,0,0:0:0:0:
475,192,64097,1,0,0:0:0:0:
329,192,64097,1,0,0:0:0:0:
109,192,64203,1,0,0:0:0:0:
182,192,64308,1,0,0:0:0:0:
329,192,64308,1,0,0:0:0:0:
402,192,64308,1,0,0:0:0:0:
256,192,64414,1,0,0:0:0:0:
475,192,64520,1,0,0:0:0:0:
329,192,64520,1,0,0:0:0:0:
109,192,64520,1,0,0:0:0:0:
182,192,64625,1,0,0:0:0:0:
402,192,64731,1,0,0:0:0:0:
329,192,64731,1,0,0:0:0:0:
36,192,64731,1,0,0:0:0:0:
475,192,64836,1,0,0:0:0:0:
109,192,64836,1,0,0:0:0:0:
182,192,64942,1,0,0:0:0:0:
402,192,64942,1,0,0:0:0:0:
329,192,65048,1,0,0:0:0:0:
256,192,65048,1,0,0:0:0:0:
109,192,65153,1,0,0:0:0:0:
475,192,65153,1,0,0:0:0:0:
182,192,65153,1,0,0:0:0:0:
36,192,65153,1,0,0:0:0:0:
329,192,65259,1,0,0:0:0:0:
256,192,65365,1,0,0:0:0:0:
109,192,65365,1,0,0:0:0:0:
475,192,65365,1,0,0:0:0:0:
329,192,65470,1,0,0:0:0:0:
36,192,65576,1,0,0:0:0:0:
256,192,65576,1,0,0:0:0:0:
402,192,65576,1,0,0:0:0:0:
182,192,65682,1,0,0:0:0:0:
329,192,65787,1,0,0:0:0:0:
109,192,65787,1,0,0:0:0:0:
475,192,65787,1,0,0:0:0:0:
182,192,65893,1,0,0:0:0:0:
256,192,65998,1,0,0:0:0:0:
109,192,65998,1,0,0:0:0:0:
402,192,65998,1,0,0:0:0:0:
475,192,65998,1,0,0:0:0:0:
329,192,66210,1,0,0:0:0:0:
109,192,66210,128,0,66421:0:0:0:0:
182,192,66210,128,0,66421:0:0:0:0:
402,192,66210,1,0,0:0:0:0:
36,192,66421,1,0,0:0:0:0:
402,192,66421,1,0,0:0:0:0:
256,192,66421,1,0,0:0:0:0:
329,192,66527,1,0,0:0:0:0:
109,192,66632,1,0,0:0:0:0:
402,192,66632,1,0,0:0:0:0:
475,192,66632,1,0,0:0:0:0:
256,192,66738,1,0,0:0:0:0:
182,192,66844,1,0,0:0:0:0:
402,192,66844,1,0,0:0:0:0:
329,192,66844,1,0,0:0:0:0:
109,192,66949,1,0,0:0:0:0:
256,192,67055,1,0,0:0:0:0:
36,192,67055,1,0,0:0:0:0:
329,192,67055,1,0,0:0:0:0:
109,192,67160,1,0,0:0:0:0:
475,192,67266,1,0,0:0:0:0:
329,192,67266,1,0,0:0:0:0:
182,192,67266,1,0,0:0:0:0:
256,192,67372,1,0,0:0:0:0:
475,192,67477,1,0,0:0:0:0:
36,192,67477,1,0,0:0:0:0:
182,192,67477,1,0,0:0:0:0:
402,192,67583,1,0,0:0:0:0:
109,192,67689,1,0,0:0:0:0:
182,192,67689,1,0,0:0:0:0:
329,192,67689,1,0,0:0:0:0:
256,192,67794,1,0,0:0:0:0:
402,192,67900,1,0,0:0:0:0:
36,192,67900,1,0,0:0:0:0:
182,192,67900,1,0,0:0:0:0:
329,192,68006,1,0,0:0:0:0:
475,192,68111,128,0,68534:0:0:0:0:
182,192,68111,1,0,0:0:0:0:
109,192,68111,1,0,0:0:0:0:
36,192,68217,1,0,0:0:0:0:
329,192,68217,1,0,0:0:0:0:
256,192,68322,1,0,0:0:0:0:
182,192,68428,1,0,0:0:0:0:
109,192,68428,1,0,0:0:0:0:
36,192,68534,1,0,0:0:0:0:
402,192,68534,128,0,68956:0:0:0:0:
329,192,68534,1,0,0:0:0:0:
182,192,68639,1,0,0:0:0:0:
256,192,68745,1,0,0:0:0:0:
36,192,68745,1,0,0:0:0:0:
182,192,68851,1,0,0:0:0:0:
109,192,68851,1,0,0:0:0:0:
36,192,68956,1,0,0:0:0:0:
329,192,68956,128,0,69379:0:0:0:0:
475,192,68956,1,0,0:0:0:0:
256,192,68956,1,0,0:0:0:0:
182,192,69167,1,0,0:0:0:0:
36,192,69167,1,0,0:0:0:0:
402,192,69167,1,0,0:0:0:0:
109,192,69273,1,0,0:0:0:0:
36,192,69379,128,0,69484:0:0:0:0:
475,192,69379,1,0,0:0:0:0:
256,192,69379,128,0,69801:0:0:0:0:
109,192,69484,128,0,69590:0:0:0:0:
402,192,69484,1,0,0:0:0:0:
475,192,69590,1,0,0:0:0:0:
182,192,69590,128,0,69696:0:0:0:0:
109,192,69696,1,0,0:0:0:0:
329,192,69696,128,0,69801:0:0:0:0:
475,192,69801,1,0,0:0:0:0:
402,192,69801,128,0,70118:0:0:0:0:
36,192,69801,128,0,69907:0:0:0:0:
182,192,69801,1,0,0:0:0:0:
109,192,69907,128,0,70013:0:0:0:0:
182,192,70013,128,0,70118:0:0:0:0:
329,192,70013,1,0,0:0:0:0:
256,192,70118,128,0,70224:0:0:0:0:
109,192,70224,1,0,0:0:0:0:
36,192,70224,1,0,0:0:0:0:
475,192,70224,128,0,70329:0:0:0:0:
329,192,70224,128,0,70541:0:0:0:0:
402,192,70329,128,0,70435:0:0:0:0:
256,192,70435,1,0,0:0:0:0:
182,192,70435,128,0,70541:0:0:0:0:
109,192,70541,128,0,70646:0:0:0:0:
256,192,70646,128,0,70963:0:0:0:0:
402,192,70646,1,0,0:0:0:0:
475,192,70646,1,0,0:0:0:0:
36,192,70646,128,0,70752:0:0:0:0:
109,192,70752,128,0,70858:0:0:0:0:
182,192,70858,1,0,0:0:0:0:
329,192,70858,128,0,70963:0:0:0:0:
402,192,70963,128,0,71069:0:0:0:0:
36,192,71069,1,0,0:0:0:0:
182,192,71069,128,0,71386:0:0:0:0:
475,192,71069,128,0,71175:0:0:0:0:
256,192,71069,1,0,0:0:0:0:
402,192,71175,128,0,71280:0:0:0:0:
109,192,71280,1,0,0:0:0:0:
329,192,71280,128,0,71386:0:0:0:0:
256,192,71386,128,0,71491:0:0:0:0:
402,192,71491,1,0,0:0:0:0:
109,192,71491,1,0,0:0:0:0:
475,192,71491,128,0,71544:0:0:0:0:
36,192,71491,128,0,71544:0:0:0:0:
109,192,71703,128,0,71756:0:0:0:0:
329,192,71703,1,0,0:0:0:0:
182,192,71703,1,0,0:0:0:0:
402,192,71703,128,0,71756:0:0:0:0:
182,192,71914,128,0,71967:0:0:0:0:
36,192,71914,1,0,0:0:0:0:
329,192,71914,128,0,71967:0:0:0:0:
475,192,71914,1,0,0:0:0:0:
256,192,71914,1,0,0:0:0:0:
109,192,72125,1,0,0:0:0:0:
402,192,72125,1,0,0:0:0:0:
256,192,72125,128,0,72178:0:0:0:0:
329,192,72336,1,0,0:0:0:0:
182,192,72336,1,0,0:0:0:0:
36,192,72336,128,0,72389:0:0:0:0:
475,192,72336,128,0,72389:0:0:0:0:
256,192,72442,1,0,0:0:0:0:
109,192,72548,128,0,72601:0:0:0:0:
329,192,72548,1,0,0:0:0:0:
182,192,72548,1,0,0:0:0:0:
402,192,72548,128,0,72601:0:0:0:0:
256,192,72653,1,0,0:0:0:0:
182,192,72759,128,0,72812:0:0:0:0:
329,192,72759,128,0,72812:0:0:0:0:
475,192,72759,1,0,0:0:0:0:
36,192,72759,1,0,0:0:0:0:
256,192,72970,1,0,0:0:0:0:
109,192,72970,1,0,0:0:0:0:
402,192,72970,1,0,0:0:0:0:
182,192,73182,128,0,73393:0:0:0:0:
36,192,73182,128,0,73393:0:0:0:0:
402,192,73182,1,0,0:0:0:0:
329,192,73287,128,0,73393:0:0:0:0:
475,192,73393,128,0,73498:0:0:0:0:
109,192,73393,128,0,73498:0:0:0:0:
256,192,73498,128,0,73604:0:0:0:0:
402,192,73604,128,0,73815:0:0:0:0:
36,192,73604,128,0,73815:0:0:0:0:
182,192,73710,128,0,73815:0:0:0:0:
329,192,73815,128,0,73921:0:0:0:0:
109,192,73815,128,0,74027:0:0:0:0:
256,192,73921,128,0,74027:0:0:0:0:
182,192,74027,128,0,74097:0:0:0:0:
475,192,74027,128,0,74097:0:0:0:0:
329,192,74097,128,0,74167:0:0:0:0:
182,192,74167,128,0,74238:0:0:0:0:
36,192,74167,128,0,74238:0:0:0:0:
329,192,74238,128,0,74308:0:0:0:0:
475,192,74238,128,0,74308:0:0:0:0:
182,192,74308,128,0,74379:0:0:0:0:
329,192,74379,128,0,74449:0:0:0:0:
36,192,74379,128,0,74449:0:0:0:0:
256,192,74449,128,0,74660:0:0:0:0:
475,192,74449,1,0,0:0:0:0:
109,192,74449,1,0,0:0:0:0:
475,192,74660,1,0,0:0:0:0:
36,192,74660,1,0,0:0:0:0:
182,192,74660,1,0,0:0:0:0:
329,192,74660,1,0,0:0:0:0:
36,192,74872,128,0,75083:0:0:0:0:
402,192,74872,128,0,75083:0:0:0:0:
256,192,74872,1,0,0:0:0:0:
475,192,74872,1,0,0:0:0:0:
182,192,74977,128,0,75189:0:0:0:0:
329,192,75083,128,0,75294:0:0:0:0:
109,192,75083,128,0,75294:0:0:0:0:
256,192,75083,1,0,0:0:0:0:
475,192,75189,128,0,75400:0:0:0:0:
256,192,75189,1,0,0:0:0:0:
402,192,75294,128,0,75506:0:0:0:0:
36,192,75294,128,0,75506:0:0:0:0:
182,192,75400,128,0,75611:0:0:0:0:
256,192,75400,1,0,0:0:0:0:
109,192,75506,128,0,75717:0:0:0:0:
329,192,75506,128,0,75717:0:0:0:0:
256,192,75506,1,0,0:0:0:0:
475,192,75611,128,0,75822:0:0:0:0:
402,192,75717,128,0,75875:0:0:0:0:
36,192,75717,128,0,75875:0:0:0:0:
256,192,75717,1,0,0:0:0:0:
475,192,75928,128,0,76086:0:0:0:0:
109,192,75928,128,0,76086:0:0:0:0:
402,192,75928,128,0,76086:0:0:0:0:
36,192,75928,128,0,76086:0:0:0:0:
182,192,75928,128,0,76086:0:0:0:0:
329,192,75928,128,0,76086:0:0:0:0:
36,192,76139,128,0,76509:0:0:0:0:
109,192,76139,128,0,76509:0:0:0:0:
182,192,76139,128,0,76509:0:0:0:0:
329,192,76139,128,0,76509:0:0:0:0:
402,192,76139,128,0,76509:0:0:0:0:
475,192,76139,128,0,76509:0:0:0:0:
402,192,76562,1,0,0:0:0:0:
329,192,76562,1,0,0:0:0:0:
109,192,76562,1,0,0:0:0:0:
36,192,76562,1,0,0:0:0:0:
475,192,76562,1,0,0:0:0:0:
182,192,76562,128,0,79097:0:0:0:0:
36,192,76773,128,0,76932:0:0:0:0:
402,192,76773,1,0,0:0:0:0:
402,192,76984,1,0,0:0:0:0:
329,192,76984,1,0,0:0:0:0:
36,192,76984,1,0,0:0:0:0:
256,192,77196,128,0,77354:0:0:0:0:
475,192,77196,1,0,0:0:0:0:
256,192,77407,1,0,0:0:0:0:
402,192,77407,1,0,0:0:0:0:
329,192,77618,128,0,77777:0:0:0:0:
109,192,77618,1,0,0:0:0:0:
329,192,77829,1,0,0:0:0:0:
475,192,77829,1,0,0:0:0:0:
36,192,77829,1,0,0:0:0:0:
256,192,78041,1,0,0:0:0:0:
402,192,78041,128,0,78199:0:0:0:0:
109,192,78146,1,0,0:0:0:0:
256,192,78252,1,0,0:0:0:0:
402,192,78252,1,0,0:0:0:0:
475,192,78252,1,0,0:0:0:0:
329,192,78463,128,0,78622:0:0:0:0:
36,192,78463,1,0,0:0:0:0:
475,192,78675,1,0,0:0:0:0:
109,192,78675,1,0,0:0:0:0:
329,192,78675,1,0,0:0:0:0:
402,192,78886,1,0,0:0:0:0:
256,192,78886,128,0,79044:0:0:0:0:
256,192,79097,1,0,0:0:0:0:
475,192,79097,1,0,0:0:0:0:
36,192,79097,1,0,0:0:0:0:
329,192,79203,1,0,0:0:0:0:
402,192,79203,1,0,0:0:0:0:
36,192,79308,128,0,79467:0:0:0:0:
256,192,79308,1,0,0:0:0:0:
329,192,79414,1,0,0:0:0:0:
182,192,79414,1,0,0:0:0:0:
475,192,79520,1,0,0:0:0:0:
36,192,79520,1,0,0:0:0:0:
256,192,79520,1,0,0:0:0:0:
109,192,79731,1,0,0:0:0:0:
402,192,79731,128,0,79889:0:0:0:0:
402,192,79942,1,0,0:0:0:0:
109,192,79942,1,0,0:0:0:0:
182,192,79942,1,0,0:0:0:0:
329,192,79942,128,0,81632:0:0:0:0:
256,192,80153,128,0,80312:0:0:0:0:
36,192,80153,1,0,0:0:0:0:
256,192,80365,1,0,0:0:0:0:
109,192,80365,1,0,0:0:0:0:
475,192,80365,1,0,0:0:0:0:
36,192,80576,128,0,80734:0:0:0:0:
182,192,80576,1,0,0:0:0:0:
256,192,80787,1,0,0:0:0:0:
475,192,80787,1,0,0:0:0:0:
36,192,80787,1,0,0:0:0:0:
182,192,80998,1,0,0:0:0:0:
402,192,80998,128,0,81157:0:0:0:0:
109,192,81104,1,0,0:0:0:0:
36,192,81210,1,0,0:0:0:0:
182,192,81210,1,0,0:0:0:0:
402,192,81210,1,0,0:0:0:0:
256,192,81421,128,0,81632:0:0:0:0:
109,192,81421,1,0,0:0:0:0:
36,192,81527,1,0,0:0:0:0:
182,192,81632,1,0,0:0:0:0:
402,192,81844,1,0,0:0:0:0:
36,192,81844,1,0,0:0:0:0:
256,192,81949,1,0,0:0:0:0:
109,192,82055,1,0,0:0:0:0:
475,192,82055,1,0,0:0:0:0:
402,192,82160,1,0,0:0:0:0:
182,192,82160,1,0,0:0:0:0:
256,192,82266,1,0,0:0:0:0:
475,192,82266,1,0,0:0:0:0:
36,192,82266,1,0,0:0:0:0:
402,192,82477,1,0,0:0:0:0:
109,192,82477,128,0,82689:0:0:0:0:
182,192,82477,128,0,82689:0:0:0:0:
182,192,82900,128,0,83111:0:0:0:0:
256,192,82900,128,0,83111:0:0:0:0:
256,192,83322,128,0,83956:0:0:0:0:
36,192,83322,128,0,84167:0:0:0:0:
329,192,83322,128,0,83956:0:0:0:0:
109,192,84167,128,0,85013:0:0:0:0:
475,192,84167,128,0,84379:0:0:0:0:
402,192,84167,128,0,84379:0:0:0:0:
402,192,84590,128,0,84801:0:0:0:0:
329,192,84590,128,0,84801:0:0:0:0:
182,192,85013,128,0,85858:0:0:0:0:
329,192,85013,128,0,85224:0:0:0:0:
256,192,85013,128,0,85224:0:0:0:0:
36,192,85435,128,0,85646:0:0:0:0:
109,192,85435,128,0,85646:0:0:0:0:
256,192,85858,128,0,86703:0:0:0:0:
475,192,85858,128,0,86069:0:0:0:0:
402,192,85858,128,0,86069:0:0:0:0:
402,192,86280,128,0,86491:0:0:0:0:
329,192,86280,128,0,86491:0:0:0:0:
475,192,86703,128,0,87970:0:0:0:0:
36,192,86703,128,0,86914:0:0:0:0:
109,192,86703,128,0,86914:0:0:0:0:
109,192,87125,128,0,87336:0:0:0:0:
256,192,87125,128,0,87336:0:0:0:0:
256,192,87548,128,0,87759:0:0:0:0:
36,192,87548,128,0,87759:0:0:0:0:
109,192,87970,128,0,88182:0:0:0:0:
329,192,87970,128,0,88182:0:0:0:0:
475,192,88393,128,0,89660:0:0:0:0:
182,192,88393,128,0,89449:0:0:0:0:
256,192,88393,128,0,89449:0:0:0:0:
36,192,89608,128,0,89660:0:0:0:0:
109,192,89608,128,0,89660:0:0:0:0:
109,192,89872,128,0,89925:0:0:0:0:
182,192,89872,128,0,89925:0:0:0:0:
475,192,90083,128,0,90506:0:0:0:0:
36,192,90083,1,0,0:0:0:0:
256,192,90083,128,0,90136:0:0:0:0:
402,192,90083,128,0,90136:0:0:0:0:
109,192,90189,1,0,0:0:0:0:
182,192,90294,1,0,0:0:0:0:
329,192,90294,1,0,0:0:0:0:
109,192,90400,1,0,0:0:0:0:
36,192,90506,1,0,0:0:0:0:
256,192,90506,1,0,0:0:0:0:
329,192,90611,1,0,0:0:0:0:
109,192,90717,1,0,0:0:0:0:
402,192,90717,1,0,0:0:0:0:
329,192,90822,1,0,0:0:0:0:
36,192,90928,128,0,91351:0:0:0:0:
475,192,90928,1,0,0:0:0:0:
256,192,90928,1,0,0:0:0:0:
402,192,91034,1,0,0:0:0:0:
329,192,91139,1,0,0:0:0:0:
182,192,91139,1,0,0:0:0:0:
402,192,91245,1,0,0:0:0:0:
256,192,91351,1,0,0:0:0:0:
109,192,91351,1,0,0:0:0:0:
475,192,91351,1,0,0:0:0:0:
329,192,91456,1,0,0:0:0:0:
402,192,91562,1,0,0:0:0:0:
182,192,91562,1,0,0:0:0:0:
36,192,91667,1,0,0:0:0:0:
475,192,91773,1,0,0:0:0:0:
109,192,91773,1,0,0:0:0:0:
256,192,91773,128,0,92196:0:0:0:0:
402,192,91879,1,0,0:0:0:0:
329,192,91984,1,0,0:0:0:0:
109,192,91984,1,0,0:0:0:0:
182,192,92090,1,0,0:0:0:0:
109,192,92196,128,0,92354:0:0:0:0:
475,192,92196,128,0,92248:0:0:0:0:
36,192,92196,128,0,92407:0:0:0:0:
329,192,92196,128,0,92301:0:0:0:0:
256,192,92301,1,0,0:0:0:0:
329,192,92407,1,0,0:0:0:0:
402,192,92513,1,0,0:0:0:0:
256,192,92618,128,0,93041:0:0:0:0:
109,192,92618,1,0,0:0:0:0:
475,192,92618,1,0,0:0:0:0:
182,192,92829,128,0,92882:0:0:0:0:
475,192,92829,128,0,92882:0:0:0:0:
36,192,92829,128,0,92882:0:0:0:0:
329,192,92829,128,0,92882:0:0:0:0:
36,192,93041,128,0,93094:0:0:0:0:
475,192,93041,128,0,93094:0:0:0:0:
402,192,93041,128,0,93094:0:0:0:0:
329,192,93041,128,0,93094:0:0:0:0:
109,192,93041,128,0,93094:0:0:0:0:
182,192,93041,128,0,93094:0:0:0:0:
36,192,93252,1,0,0:0:0:0:
475,192,93252,1,0,0:0:0:0:
256,192,93252,1,0,0:0:0:0:
109,192,93463,1,0,0:0:0:0:
256,192,93463,1,0,0:0:0:0:
402,192,93463,128,0,93886:0:0:0:0:
329,192,93569,1,0,0:0:0:0:
109,192,93675,1,0,0:0:0:0:
182,192,93675,1,0,0:0:0:0:
256,192,93780,1,0,0:0:0:0:
475,192,93886,1,0,0:0:0:0:
182,192,93886,1,0,0:0:0:0:
36,192,93886,1,0,0:0:0:0:
402,192,93991,1,0,0:0:0:0:
329,192,94097,1,0,0:0:0:0:
109,192,94097,1,0,0:0:0:0:
182,192,94203,1,0,0:0:0:0:
475,192,94308,1,0,0:0:0:0:
109,192,94308,128,0,94731:0:0:0:0:
256,192,94308,1,0,0:0:0:0:
402,192,94414,1,0,0:0:0:0:
182,192,94520,1,0,0:0:0:0:
475,192,94520,1,0,0:0:0:0:
256,192,94625,1,0,0:0:0:0:
36,192,94731,1,0,0:0:0:0:
475,192,94731,1,0,0:0:0:0:
329,192,94731,1,0,0:0:0:0:
402,192,94942,1,0,0:0:0:0:
109,192,94942,1,0,0:0:0:0:
256,192,95153,128,0,95998:0:0:0:0:
475,192,95153,128,0,95259:0:0:0:0:
329,192,95153,128,0,95576:0:0:0:0:
182,192,95153,128,0,95787:0:0:0:0:
36,192,95153,128,0,95365:0:0:0:0:
402,192,95259,1,0,0:0:0:0:
109,192,95365,1,0,0:0:0:0:
475,192,95470,1,0,0:0:0:0:
402,192,95576,1,0,0:0:0:0:
36,192,95576,1,0,0:0:0:0:
329,192,95682,1,0,0:0:0:0:
109,192,95787,1,0,0:0:0:0:
402,192,95893,1,0,0:0:0:0:
475,192,95998,1,0,0:0:0:0:
36,192,95998,128,0,96210:0:0:0:0:
329,192,95998,1,0,0:0:0:0:
182,192,96104,1,0,0:0:0:0:
256,192,96210,1,0,0:0:0:0:
109,192,96210,128,0,96421:0:0:0:0:
475,192,96210,1,0,0:0:0:0:
402,192,96315,1,0,0:0:0:0:
182,192,96421,128,0,96632:0:0:0:0:
36,192,96421,1,0,0:0:0:0:
329,192,96421,1,0,0:0:0:0:
402,192,96527,1,0,0:0:0:0:
475,192,96632,1,0,0:0:0:0:
329,192,96632,1,0,0:0:0:0:
109,192,96632,128,0,96844:0:0:0:0:
256,192,96738,1,0,0:0:0:0:
329,192,96844,128,0,96896:0:0:0:0:
182,192,96844,128,0,96896:0:0:0:0:
475,192,96844,128,0,97266:0:0:0:0:
36,192,96844,128,0,96896:0:0:0:0:
402,192,96844,128,0,96896:0:0:0:0:
256,192,96949,1,0,0:0:0:0:
182,192,97055,1,0,0:0:0:0:
402,192,97055,1,0,0:0:0:0:
109,192,97160,1,0,0:0:0:0:
329,192,97266,1,0,0:0:0:0:
256,192,97266,1,0,0:0:0:0:
36,192,97266,1,0,0:0:0:0:
182,192,97372,1,0,0:0:0:0:
402,192,97477,1,0,0:0:0:0:
109,192,97477,1,0,0:0:0:0:
36,192,97583,1,0,0:0:0:0:
109,192,97689,1,0,0:0:0:0:
475,192,97689,1,0,0:0:0:0:
256,192,97689,1,0,0:0:0:0:
329,192,97689,128,0,98111:0:0:0:0:
402,192,97794,1,0,0:0:0:0:
182,192,97900,1,0,0:0:0:0:
109,192,98006,1,0,0:0:0:0:
256,192,98006,1,0,0:0:0:0:
402,192,98111,1,0,0:0:0:0:
182,192,98111,1,0,0:0:0:0:
36,192,98111,1,0,0:0:0:0:
475,192,98111,1,0,0:0:0:0:
329,192,98217,1,0,0:0:0:0:
256,192,98322,1,0,0:0:0:0:
109,192,98322,1,0,0:0:0:0:
182,192,98428,1,0,0:0:0:0:
475,192,98534,128,0,98586:0:0:0:0:
329,192,98534,128,0,98586:0:0:0:0:
109,192,98534,128,0,98586:0:0:0:0:
36,192,98534,128,0,98956:0:0:0:0:
256,192,98534,128,0,98586:0:0:0:0:
402,192,98639,1,0,0:0:0:0:
329,192,98745,1,0,0:0:0:0:
182,192,98745,1,0,0:0:0:0:
256,192,98851,1,0,0:0:0:0:
109,192,98956,1,0,0:0:0:0:
402,192,98956,1,0,0:0:0:0:
182,192,99062,1,0,0:0:0:0:
256,192,99167,1,0,0:0:0:0:
475,192,99167,1,0,0:0:0:0:
329,192,99273,1,0,0:0:0:0:
402,192,99379,1,0,0:0:0:0:
182,192,99379,128,0,99801:0:0:0:0:
36,192,99379,1,0,0:0:0:0:
475,192,99379,1,0,0:0:0:0:
109,192,99484,1,0,0:0:0:0:
256,192,99590,1,0,0:0:0:0:
475,192,99590,1,0,0:0:0:0:
329,192,99696,1,0,0:0:0:0:
256,192,99801,1,0,0:0:0:0:
36,192,99801,1,0,0:0:0:0:
402,192,99801,1,0,0:0:0:0:
182,192,99907,1,0,0:0:0:0:
109,192,100013,1,0,0:0:0:0:
329,192,100013,1,0,0:0:0:0:
256,192,100118,1,0,0:0:0:0:
36,192,100224,1,0,0:0:0:0:
182,192,100224,1,0,0:0:0:0:
402,192,100224,128,0,100646:0:0:0:0:
475,192,100224,1,0,0:0:0:0:
256,192,100435,1,0,0:0:0:0:
182,192,100435,128,0,100488:0:0:0:0:
36,192,100435,128,0,100488:0:0:0:0:
256,192,100646,128,0,100699:0:0:0:0:
329,192,100646,1,0,0:0:0:0:
109,192,100646,128,0,100699:0:0:0:0:
402,192,100858,1,0,0:0:0:0:
182,192,100858,128,0,100910:0:0:0:0:
329,192,100858,128,0,100910:0:0:0:0:
475,192,101069,1,0,0:0:0:0:
109,192,101069,128,0,101491:0:0:0:0:
402,192,101069,128,0,101122:0:0:0:0:
256,192,101069,128,0,101122:0:0:0:0:
256,192,101280,1,0,0:0:0:0:
329,192,101280,128,0,101333:0:0:0:0:
475,192,101280,128,0,101333:0:0:0:0:
256,192,101491,128,0,101544:0:0:0:0:
402,192,101491,128,0,101544:0:0:0:0:
182,192,101491,1,0,0:0:0:0:
402,192,101703,1,0,0:0:0:0:
182,192,101703,128,0,101808:0:0:0:0:
109,192,101703,1,0,0:0:0:0:
329,192,101703,128,0,101808:0:0:0:0:
36,192,101914,1,0,0:0:0:0:
402,192,101914,1,0,0:0:0:0:
475,192,101914,1,0,0:0:0:0:
256,192,101914,1,0,0:0:0:0:
109,192,101914,1,0,0:0:0:0:
182,192,102125,1,0,0:0:0:0:
109,192,102125,1,0,0:0:0:0:
329,192,102125,1,0,0:0:0:0:
402,192,102125,1,0,0:0:0:0:
329,192,102336,1,0,0:0:0:0:
475,192,102336,1,0,0:0:0:0:
36,192,102336,1,0,0:0:0:0:
182,192,102336,1,0,0:0:0:0:
109,192,102548,1,0,0:0:0:0:
475,192,102548,1,0,0:0:0:0:
36,192,102548,1,0,0:0:0:0:
402,192,102548,1,0,0:0:0:0:
256,192,102548,1,0,0:0:0:0:
182,192,102759,1,0,0:0:0:0:
109,192,102759,1,0,0:0:0:0:
329,192,102759,1,0,0:0:0:0:
256,192,102759,128,0,103604:0:0:0:0:
402,192,102759,1,0,0:0:0:0:
109,192,102970,1,0,0:0:0:0:
36,192,102970,1,0,0:0:0:0:
475,192,102970,1,0,0:0:0:0:
402,192,102970,1,0,0:0:0:0:
109,192,103182,128,0,103234:0:0:0:0:
182,192,103182,128,0,103234:0:0:0:0:
36,192,103182,128,0,103234:0:0:0:0:
329,192,103182,128,0,103234:0:0:0:0:
475,192,103287,1,0,0:0:0:0:
402,192,103287,1,0,0:0:0:0:
182,192,103393,1,0,0:0:0:0:
109,192,103393,1,0,0:0:0:0:
402,192,103498,1,0,0:0:0:0:
329,192,103498,1,0,0:0:0:0:
475,192,103604,1,0,0:0:0:0:
36,192,103604,1,0,0:0:0:0:
182,192,103604,128,0,103657:0:0:0:0:
109,192,103604,128,0,103657:0:0:0:0:
402,192,103710,1,0,0:0:0:0:
329,192,103815,1,0,0:0:0:0:
109,192,103815,128,0,103868:0:0:0:0:
36,192,103815,128,0,103868:0:0:0:0:
256,192,103921,1,0,0:0:0:0:
329,192,104027,1,0,0:0:0:0:
182,192,104027,128,0,104079:0:0:0:0:
109,192,104027,128,0,104079:0:0:0:0:
402,192,104132,1,0,0:0:0:0:
475,192,104238,1,0,0:0:0:0:
256,192,104238,128,0,104291:0:0:0:0:
182,192,104238,128,0,104291:0:0:0:0:
402,192,104344,1,0,0:0:0:0:
329,192,104449,1,0,0:0:0:0:
182,192,104449,128,0,104502:0:0:0:0:
36,192,104449,128,0,104502:0:0:0:0:
256,192,104555,1,0,0:0:0:0:
36,192,104660,1,0,0:0:0:0:
329,192,104660,128,0,104713:0:0:0:0:
475,192,104660,128,0,104713:0:0:0:0:
109,192,104766,1,0,0:0:0:0:
182,192,104872,1,0,0:0:0:0:
402,192,104872,128,0,104925:0:0:0:0:
329,192,104872,128,0,104925:0:0:0:0:
256,192,104977,1,0,0:0:0:0:
475,192,105083,1,0,0:0:0:0:
329,192,105083,128,0,105136:0:0:0:0:
109,192,105083,128,0,105136:0:0:0:0:
182,192,105189,1,0,0:0:0:0:
36,192,105294,1,0,0:0:0:0:
329,192,105294,128,0,105347:0:0:0:0:
402,192,105294,128,0,105347:0:0:0:0:
475,192,105400,1,0,0:0:0:0:
182,192,105400,128,0,105453:0:0:0:0:
109,192,105400,128,0,105453:0:0:0:0:
256,192,105506,1,0,0:0:0:0:
402,192,105611,128,0,105664:0:0:0:0:
329,192,105611,128,0,105664:0:0:0:0:
475,192,105717,1,0,0:0:0:0:
36,192,105717,1,0,0:0:0:0:
182,192,105717,128,0,105770:0:0:0:0:
109,192,105717,128,0,105770:0:0:0:0:
329,192,105822,1,0,0:0:0:0:
475,192,105928,1,0,0:0:0:0:
109,192,105928,128,0,105981:0:0:0:0:
256,192,105928,128,0,105981:0:0:0:0:
182,192,106034,128,0,106086:0:0:0:0:
329,192,106034,128,0,106086:0:0:0:0:
36,192,106139,1,0,0:0:0:0:
256,192,106139,128,0,106192:0:0:0:0:
402,192,106139,128,0,106192:0:0:0:0:
182,192,106245,1,0,0:0:0:0:
109,192,106351,1,0,0:0:0:0:
329,192,106351,128,0,106403:0:0:0:0:
475,192,106351,128,0,106403:0:0:0:0:
182,192,106456,1,0,0:0:0:0:
109,192,106562,1,0,0:0:0:0:
402,192,106562,128,0,106615:0:0:0:0:
256,192,106562,128,0,106615:0:0:0:0:
109,192,106773,128,0,106984:0:0:0:0:
329,192,106773,1,0,0:0:0:0:
182,192,106773,128,0,106984:0:0:0:0:
36,192,106984,1,0,0:0:0:0:
402,192,106984,128,0,107037:0:0:0:0:
256,192,106984,128,0,107037:0:0:0:0:
329,192,107090,1,0,0:0:0:0:
109,192,107196,1,0,0:0:0:0:
475,192,107196,128,0,107248:0:0:0:0:
402,192,107196,128,0,107248:0:0:0:0:
256,192,107301,1,0,0:0:0:0:
182,192,107407,1,0,0:0:0:0:
402,192,107407,128,0,107460:0:0:0:0:
329,192,107407,128,0,107460:0:0:0:0:
109,192,107513,1,0,0:0:0:0:
36,192,107618,1,0,0:0:0:0:
329,192,107618,128,0,107671:0:0:0:0:
256,192,107618,128,0,107671:0:0:0:0:
109,192,107724,1,0,0:0:0:0:
475,192,107829,1,0,0:0:0:0:
182,192,107829,128,0,107882:0:0:0:0:
329,192,107829,128,0,107882:0:0:0:0:
256,192,107935,1,0,0:0:0:0:
475,192,108041,1,0,0:0:0:0:
182,192,108041,128,0,108094:0:0:0:0:
36,192,108041,128,0,108094:0:0:0:0:
402,192,108146,1,0,0:0:0:0:
329,192,108252,1,0,0:0:0:0:
109,192,108252,128,0,108305:0:0:0:0:
182,192,108252,128,0,108305:0:0:0:0:
256,192,108358,1,0,0:0:0:0:
402,192,108463,1,0,0:0:0:0:
182,192,108463,128,0,108516:0:0:0:0:
36,192,108463,128,0,108516:0:0:0:0:
329,192,108569,1,0,0:0:0:0:
475,192,108675,128,0,109097:0:0:0:0:
182,192,108675,128,0,108727:0:0:0:0:
109,192,108675,128,0,108727:0:0:0:0:
329,192,108780,128,0,108833:0:0:0:0:
36,192,108780,128,0,108833:0:0:0:0:
256,192,108886,1,0,0:0:0:0:
182,192,108991,128,0,109044:0:0:0:0:
109,192,108991,128,0,109044:0:0:0:0:
402,192,109097,128,0,109520:0:0:0:0:
36,192,109097,128,0,109150:0:0:0:0:
329,192,109097,128,0,109150:0:0:0:0:
182,192,109203,1,0,0:0:0:0:
256,192,109308,128,0,109361:0:0:0:0:
36,192,109308,128,0,109361:0:0:0:0:
182,192,109414,1,0,0:0:0:0:
109,192,109414,1,0,0:0:0:0:
475,192,109520,1,0,0:0:0:0:
329,192,109520,128,0,109942:0:0:0:0:
36,192,109520,128,0,109572:0:0:0:0:
256,192,109520,128,0,109572:0:0:0:0:
36,192,109731,1,0,0:0:0:0:
182,192,109731,128,0,109784:0:0:0:0:
402,192,109731,128,0,109784:0:0:0:0:
109,192,109836,128,0,109889:0:0:0:0:
475,192,109942,1,0,0:0:0:0:
256,192,109942,128,0,110365:0:0:0:0:
36,192,109942,128,0,110048:0:0:0:0:
402,192,110048,1,0,0:0:0:0:
109,192,110048,128,0,110153:0:0:0:0:
182,192,110153,128,0,110259:0:0:0:0:
475,192,110153,1,0,0:0:0:0:
109,192,110259,1,0,0:0:0:0:
329,192,110259,128,0,110365:0:0:0:0:
36,192,110365,128,0,110470:0:0:0:0:
402,192,110365,128,0,110682:0:0:0:0:
475,192,110365,1,0,0:0:0:0:
182,192,110365,1,0,0:0:0:0:
109,192,110470,128,0,110576:0:0:0:0:
182,192,110576,128,0,110682:0:0:0:0:
329,192,110576,1,0,0:0:0:0:
256,192,110682,128,0,110787:0:0:0:0:
329,192,110787,128,0,111104:0:0:0:0:
109,192,110787,1,0,0:0:0:0:
475,192,110787,128,0,110893:0:0:0:0:
36,192,110787,1,0,0:0:0:0:
402,192,110893,128,0,110998:0:0:0:0:
256,192,110998,1,0,0:0:0:0:
182,192,110998,128,0,111104:0:0:0:0:
109,192,111104,128,0,111210:0:0:0:0:
475,192,111210,1,0,0:0:0:0:
402,192,111210,1,0,0:0:0:0:
256,192,111210,128,0,111527:0:0:0:0:
36,192,111210,128,0,111315:0:0:0:0:
109,192,111315,128,0,111421:0:0:0:0:
329,192,111421,128,0,111527:0:0:0:0:
182,192,111421,1,0,0:0:0:0:
402,192,111527,128,0,111632:0:0:0:0:
182,192,111632,128,0,111949:0:0:0:0:
256,192,111632,1,0,0:0:0:0:
475,192,111632,128,0,111738:0:0:0:0:
36,192,111632,1,0,0:0:0:0:
402,192,111738,128,0,111844:0:0:0:0:
109,192,111844,1,0,0:0:0:0:
329,192,111844,128,0,111949:0:0:0:0:
256,192,111949,128,0,112055:0:0:0:0:
36,192,112055,128,0,112108:0:0:0:0:
475,192,112055,128,0,112108:0:0:0:0:
109,192,112055,1,0,0:0:0:0:
402,192,112055,1,0,0:0:0:0:
402,192,112266,128,0,112319:0:0:0:0:
182,192,112266,1,0,0:0:0:0:
109,192,112266,128,0,112319:0:0:0:0:
329,192,112266,1,0,0:0:0:0:
475,192,112477,1,0,0:0:0:0:
256,192,112477,1,0,0:0:0:0:
36,192,112477,1,0,0:0:0:0:
182,192,112477,128,0,112530:0:0:0:0:
329,192,112477,128,0,112530:0:0:0:0:
109,192,112689,1,0,0:0:0:0:
402,192,112689,1,0,0:0:0:0:
256,192,112689,128,0,112741:0:0:0:0:
329,192,112900,1,0,0:0:0:0:
36,192,112900,128,0,112953:0:0:0:0:
475,192,112900,128,0,112953:0:0:0:0:
182,192,112900,1,0,0:0:0:0:
256,192,113006,1,0,0:0:0:0:
109,192,113111,128,0,113164:0:0:0:0:
402,192,113111,128,0,113164:0:0:0:0:
182,192,113111,1,0,0:0:0:0:
329,192,113111,1,0,0:0:0:0:
36,192,113217,1,0,0:0:0:0:
475,192,113217,1,0,0:0:0:0:
182,192,113322,128,0,113375:0:0:0:0:
109,192,113322,1,0,0:0:0:0:
329,192,113322,128,0,113375:0:0:0:0:
402,192,113322,1,0,0:0:0:0:
109,192,113534,1,0,0:0:0:0:
256,192,113534,1,0,0:0:0:0:
402,192,113534,1,0,0:0:0:0:
109,192,113745,128,0,113798:0:0:0:0:
36,192,113745,1,0,0:0:0:0:
475,192,113745,1,0,0:0:0:0:
402,192,113745,128,0,113798:0:0:0:0:
256,192,113956,128,0,114009:0:0:0:0:
402,192,113956,1,0,0:0:0:0:
109,192,113956,1,0,0:0:0:0:
256,192,114167,128,0,114220:0:0:0:0:
109,192,114167,1,0,0:0:0:0:
402,192,114167,1,0,0:0:0:0:
182,192,114379,128,0,114432:0:0:0:0:
329,192,114379,128,0,114432:0:0:0:0:
256,192,114379,1,0,0:0:0:0:
109,192,114590,1,0,0:0:0:0:
402,192,114590,1,0,0:0:0:0:
475,192,114590,128,0,114643:0:0:0:0:
36,192,114590,128,0,114643:0:0:0:0:
182,192,114801,1,0,0:0:0:0:
329,192,114801,1,0,0:0:0:0:
402,192,114801,128,0,114854:0:0:0:0:
109,192,114801,128,0,114854:0:0:0:0:
36,192,115013,1,0,0:0:0:0:
475,192,115013,1,0,0:0:0:0:
182,192,115013,128,0,115065:0:0:0:0:
329,192,115013,128,0,115065:0:0:0:0:
109,192,115224,1,0,0:0:0:0:
402,192,115224,1,0,0:0:0:0:
256,192,115224,128,0,115277:0:0:0:0:
256,192,115329,128,0,116703:0:0:0:0:
109,192,115435,1,0,0:0:0:0:
475,192,115435,128,0,115541:0:0:0:0:
36,192,115435,1,0,0:0:0:0:
402,192,115541,128,0,115646:0:0:0:0:
36,192,115646,1,0,0:0:0:0:
329,192,115646,128,0,115752:0:0:0:0:
109,192,115646,1,0,0:0:0:0:
182,192,115752,128,0,115858:0:0:0:0:
109,192,115858,128,0,115963:0:0:0:0:
402,192,115858,1,0,0:0:0:0:
475,192,115858,1,0,0:0:0:0:
36,192,115963,128,0,116069:0:0:0:0:
402,192,116069,1,0,0:0:0:0:
109,192,116069,128,0,116175:0:0:0:0:
475,192,116069,1,0,0:0:0:0:
182,192,116175,128,0,116280:0:0:0:0:
329,192,116280,128,0,116386:0:0:0:0:
36,192,116280,1,0,0:0:0:0:
109,192,116280,1,0,0:0:0:0:
402,192,116386,128,0,116491:0:0:0:0:
475,192,116491,128,0,116597:0:0:0:0:
109,192,116491,1,0,0:0:0:0:
36,192,116491,1,0,0:0:0:0:
402,192,116597,128,0,116703:0:0:0:0:
36,192,116703,128,0,116808:0:0:0:0:
109,192,116756,128,0,116861:0:0:0:0:
475,192,116808,128,0,116914:0:0:0:0:
182,192,116808,128,0,116914:0:0:0:0:
402,192,116861,128,0,116967:0:0:0:0:
329,192,116914,128,0,117020:0:0:0:0:
256,192,116967,128,0,117072:0:0:0:0:
36,192,117020,128,0,117125:0:0:0:0:
109,192,117072,128,0,117125:0:0:0:0:
182,192,117125,1,0,0:0:0:0:
329,192,117125,128,0,117231:0:0:0:0:
402,192,117125,128,0,117231:0:0:0:0:
109,192,117231,1,0,0:0:0:0:
182,192,117336,1,0,0:0:0:0:
475,192,117336,128,0,117442:0:0:0:0:
402,192,117336,128,0,117442:0:0:0:0:
256,192,117442,1,0,0:0:0:0:
182,192,117548,1,0,0:0:0:0:
329,192,117548,128,0,117653:0:0:0:0:
402,192,117548,128,0,117653:0:0:0:0:
109,192,117653,1,0,0:0:0:0:
36,192,117759,1,0,0:0:0:0:
329,192,117759,128,0,117865:0:0:0:0:
256,192,117759,128,0,117865:0:0:0:0:
109,192,117865,1,0,0:0:0:0:
182,192,117970,1,0,0:0:0:0:
475,192,117970,128,0,118076:0:0:0:0:
329,192,117970,128,0,118076:0:0:0:0:
256,192,118076,1,0,0:0:0:0:
475,192,118182,1,0,0:0:0:0:
182,192,118182,128,0,118287:0:0:0:0:
36,192,118182,128,0,118287:0:0:0:0:
402,192,118287,1,0,0:0:0:0:
329,192,118393,1,0,0:0:0:0:
109,192,118393,128,0,118498:0:0:0:0:
182,192,118393,128,0,118498:0:0:0:0:
256,192,118498,1,0,0:0:0:0:
36,192,118604,1,0,0:0:0:0:
182,192,118604,128,0,118710:0:0:0:0:
402,192,118604,128,0,118710:0:0:0:0:
329,192,118710,1,0,0:0:0:0:
182,192,118815,1,0,0:0:0:0:
475,192,118815,128,0,118921:0:0:0:0:
109,192,118815,128,0,118921:0:0:0:0:
402,192,118921,128,0,119027:0:0:0:0:
36,192,118921,128,0,119027:0:0:0:0:
329,192,119027,128,0,119132:0:0:0:0:
109,192,119027,128,0,119132:0:0:0:0:
182,192,119132,128,0,119238:0:0:0:0:
256,192,119132,128,0,119238:0:0:0:0:
36,192,119238,1,0,0:0:0:0:
475,192,119238,1,0,0:0:0:0:
329,192,119238,128,0,119344:0:0:0:0:
402,192,119238,128,0,119344:0:0:0:0:
182,192,119344,1,0,0:0:0:0:
36,192,119449,1,0,0:0:0:0:
256,192,119449,128,0,119555:0:0:0:0:
402,192,119449,128,0,119555:0:0:0:0:
182,192,119555,1,0,0:0:0:0:
475,192,119660,1,0,0:0:0:0:
256,192,119660,128,0,119766:0:0:0:0:
109,192,119660,128,0,119766:0:0:0:0:
329,192,119766,1,0,0:0:0:0:
402,192,119872,1,0,0:0:0:0:
182,192,119872,128,0,119977:0:0:0:0:
36,192,119872,128,0,119977:0:0:0:0:
329,192,119977,1,0,0:0:0:0:
256,192,120083,1,0,0:0:0:0:
402,192,120083,1,0,0:0:0:0:
109,192,120083,128,0,120189:0:0:0:0:
36,192,120083,128,0,120189:0:0:0:0:
402,192,120294,128,0,120506:0:0:0:0:
329,192,120294,128,0,120506:0:0:0:0:
182,192,120294,1,0,0:0:0:0:
109,192,120294,1,0,0:0:0:0:
475,192,120506,1,0,0:0:0:0:
256,192,120506,128,0,120611:0:0:0:0:
109,192,120506,128,0,120611:0:0:0:0:
182,192,120611,1,0,0:0:0:0:
402,192,120717,1,0,0:0:0:0:
109,192,120717,128,0,120822:0:0:0:0:
36,192,120717,128,0,120822:0:0:0:0:
256,192,120822,1,0,0:0:0:0:
329,192,120928,1,0,0:0:0:0:
109,192,120928,128,0,121034:0:0:0:0:
182,192,120928,128,0,121034:0:0:0:0:
402,192,121034,1,0,0:0:0:0:
475,192,121139,1,0,0:0:0:0:
182,192,121139,128,0,121245:0:0:0:0:
256,192,121139,128,0,121245:0:0:0:0:
402,192,121245,1,0,0:0:0:0:
329,192,121351,1,0,0:0:0:0:
36,192,121351,128,0,121456:0:0:0:0:
182,192,121351,128,0,121456:0:0:0:0:
256,192,121456,1,0,0:0:0:0:
36,192,121562,1,0,0:0:0:0:
329,192,121562,128,0,121667:0:0:0:0:
475,192,121562,128,0,121667:0:0:0:0:
109,192,121667,1,0,0:0:0:0:
182,192,121773,1,0,0:0:0:0:
402,192,121773,128,0,121879:0:0:0:0:
329,192,121773,128,0,121879:0:0:0:0:
256,192,121879,1,0,0:0:0:0:
475,192,121984,1,0,0:0:0:0:
329,192,121984,128,0,122090:0:0:0:0:
109,192,121984,128,0,122090:0:0:0:0:
182,192,122090,1,0,0:0:0:0:
36,192,122196,128,0,122618:0:0:0:0:
329,192,122196,128,0,122301:0:0:0:0:
402,192,122196,128,0,122301:0:0:0:0:
475,192,122301,128,0,122407:0:0:0:0:
182,192,122301,128,0,122407:0:0:0:0:
256,192,122407,1,0,0:0:0:0:
329,192,122513,128,0,122618:0:0:0:0:
402,192,122513,128,0,122618:0:0:0:0:
109,192,122618,128,0,123041:0:0:0:0:
475,192,122618,128,0,122724:0:0:0:0:
182,192,122618,128,0,122724:0:0:0:0:
329,192,122724,1,0,0:0:0:0:
256,192,122829,128,0,122935:0:0:0:0:
475,192,122829,128,0,122935:0:0:0:0:
402,192,122935,128,0,123041:0:0:0:0:
329,192,122935,128,0,123041:0:0:0:0:
256,192,123041,1,0,0:0:0:0:
182,192,123041,128,0,123463:0:0:0:0:
475,192,123041,128,0,123146:0:0:0:0:
36,192,123041,128,0,123146:0:0:0:0:
475,192,123252,1,0,0:0:0:0:
109,192,123252,128,0,123358:0:0:0:0:
329,192,123252,128,0,123358:0:0:0:0:
402,192,123358,1,0,0:0:0:0:
36,192,123463,1,0,0:0:0:0:
475,192,123463,128,0,123622:0:0:0:0:
256,192,123463,128,0,123886:0:0:0:0:
402,192,123569,128,0,123727:0:0:0:0:
109,192,123569,1,0,0:0:0:0:
329,192,123675,128,0,123833:0:0:0:0:
36,192,123675,1,0,0:0:0:0:
182,192,123780,128,0,123939:0:0:0:0:
402,192,123780,1,0,0:0:0:0:
36,192,123886,1,0,0:0:0:0:
475,192,123886,128,0,124044:0:0:0:0:
109,192,123886,128,0,124203:0:0:0:0:
329,192,123886,1,0,0:0:0:0:
402,192,123991,128,0,124150:0:0:0:0:
329,192,124097,128,0,124256:0:0:0:0:
182,192,124097,1,0,0:0:0:0:
256,192,124203,128,0,124361:0:0:0:0:
402,192,124308,1,0,0:0:0:0:
36,192,124308,128,0,124467:0:0:0:0:
182,192,124308,128,0,124625:0:0:0:0:
475,192,124308,1,0,0:0:0:0:
109,192,124414,128,0,124572:0:0:0:0:
329,192,124520,128,0,124678:0:0:0:0:
256,192,124520,1,0,0:0:0:0:
402,192,124625,128,0,124784:0:0:0:0:
109,192,124731,1,0,0:0:0:0:
475,192,124731,128,0,124889:0:0:0:0:
36,192,124731,1,0,0:0:0:0:
256,192,124731,128,0,125048:0:0:0:0:
402,192,124836,128,0,124995:0:0:0:0:
182,192,124942,128,0,125101:0:0:0:0:
329,192,124942,1,0,0:0:0:0:
109,192,125048,128,0,125206:0:0:0:0:
36,192,125153,128,0,125312:0:0:0:0:
329,192,125153,128,0,125470:0:0:0:0:
256,192,125153,1,0,0:0:0:0:
475,192,125153,1,0,0:0:0:0:
109,192,125259,128,0,125417:0:0:0:0:
182,192,125365,128,0,125523:0:0:0:0:
402,192,125365,1,0,0:0:0:0:
256,192,125470,128,0,125576:0:0:0:0:
109,192,125576,1,0,0:0:0:0:
475,192,125576,128,0,125629:0:0:0:0:
402,192,125576,1,0,0:0:0:0:
36,192,125576,128,0,125629:0:0:0:0:
182,192,125787,1,0,0:0:0:0:
329,192,125787,1,0,0:0:0:0:
402,192,125787,128,0,125840:0:0:0:0:
109,192,125787,128,0,125840:0:0:0:0:
36,192,125998,1,0,0:0:0:0:
475,192,125998,1,0,0:0:0:0:
182,192,125998,128,0,126051:0:0:0:0:
329,192,125998,128,0,126051:0:0:0:0:
256,192,125998,1,0,0:0:0:0:
256,192,126210,128,0,126263:0:0:0:0:
402,192,126210,1,0,0:0:0:0:
109,192,126210,1,0,0:0:0:0:
182,192,126421,1,0,0:0:0:0:
36,192,126421,128,0,126474:0:0:0:0:
475,192,126421,128,0,126474:0:0:0:0:
329,192,126421,1,0,0:0:0:0:
256,192,126527,1,0,0:0:0:0:
182,192,126632,1,0,0:0:0:0:
329,192,126632,1,0,0:0:0:0:
402,192,126632,128,0,126685:0:0:0:0:
109,192,126632,128,0,126685:0:0:0:0:
256,192,126738,1,0,0:0:0:0:
329,192,126844,128,0,126896:0:0:0:0:
36,192,126844,1,0,0:0:0:0:
475,192,126844,1,0,0:0:0:0:
182,192,126844,128,0,126896:0:0:0:0:
109,192,127055,1,0,0:0:0:0:
402,192,127055,1,0,0:0:0:0:
256,192,127055,1,0,0:0:0:0:
475,192,127266,128,0,127477:0:0:0:0:
329,192,127266,128,0,127477:0:0:0:0:
109,192,127266,1,0,0:0:0:0:
182,192,127372,128,0,127530:0:0:0:0:
36,192,127477,128,0,127636:0:0:0:0:
402,192,127477,128,0,127636:0:0:0:0:
256,192,127583,128,0,127741:0:0:0:0:
475,192,127689,128,0,127900:0:0:0:0:
109,192,127689,128,0,127900:0:0:0:0:
329,192,127794,128,0,127953:0:0:0:0:
402,192,127900,128,0,128111:0:0:0:0:
182,192,127900,128,0,128058:0:0:0:0:
256,192,128006,128,0,128111:0:0:0:0:
329,192,128111,128,0,128182:0:0:0:0:
36,192,128111,128,0,128182:0:0:0:0:
182,192,128182,128,0,128252:0:0:0:0:
329,192,128252,128,0,128322:0:0:0:0:
475,192,128252,128,0,128322:0:0:0:0:
36,192,128322,128,0,128393:0:0:0:0:
182,192,128322,128,0,128393:0:0:0:0:
329,192,128393,128,0,128463:0:0:0:0:
475,192,128463,128,0,128534:0:0:0:0:
182,192,128463,128,0,128534:0:0:0:0:
402,192,128534,1,0,0:0:0:0:
256,192,128534,128,0,128745:0:0:0:0:
36,192,128534,1,0,0:0:0:0:
36,192,128745,1,0,0:0:0:0:
329,192,128745,1,0,0:0:0:0:
182,192,128745,1,0,0:0:0:0:
475,192,128745,1,0,0:0:0:0:
109,192,128956,128,0,129220:0:0:0:0:
36,192,128956,1,0,0:0:0:0:
256,192,128956,1,0,0:0:0:0:
475,192,128956,128,0,129220:0:0:0:0:
329,192,129062,128,0,129326:0:0:0:0:
256,192,129167,1,0,0:0:0:0:
402,192,129167,128,0,129432:0:0:0:0:
182,192,129167,128,0,129432:0:0:0:0:
36,192,129273,128,0,129537:0:0:0:0:
475,192,129379,128,0,129643:0:0:0:0:
109,192,129379,128,0,129643:0:0:0:0:
256,192,129379,1,0,0:0:0:0:
329,192,129484,128,0,129748:0:0:0:0:
182,192,129590,128,0,129854:0:0:0:0:
402,192,129590,128,0,129854:0:0:0:0:
256,192,129590,1,0,0:0:0:0:
36,192,129696,128,0,129960:0:0:0:0:
109,192,129801,128,0,129960:0:0:0:0:
256,192,129801,1,0,0:0:0:0:
475,192,129801,128,0,129960:0:0:0:0:
36,192,130013,128,0,130171:0:0:0:0:
109,192,130013,128,0,130171:0:0:0:0:
402,192,130013,128,0,130171:0:0:0:0:
182,192,130013,128,0,130171:0:0:0:0:
475,192,130013,128,0,130171:0:0:0:0:
329,192,130013,128,0,130171:0:0:0:0:
475,192,130224,128,0,130594:0:0:0:0:
182,192,130224,128,0,130594:0:0:0:0:
109,192,130224,128,0,130594:0:0:0:0:
36,192,130224,128,0,130594:0:0:0:0:
402,192,130224,128,0,130594:0:0:0:0:
329,192,130224,128,0,130594:0:0:0:0:
475,192,130646,1,0,0:0:0:0:
109,192,130646,1,0,0:0:0:0:
36,192,130646,128,0,131491:0:0:0:0:
182,192,130646,128,0,130752:0:0:0:0:
329,192,130646,128,0,130752:0:0:0:0:
402,192,130752,128,0,130858:0:0:0:0:
256,192,130752,128,0,130858:0:0:0:0:
182,192,130858,128,0,130963:0:0:0:0:
475,192,130858,128,0,130963:0:0:0:0:
402,192,130963,128,0,131069:0:0:0:0:
109,192,130963,128,0,131069:0:0:0:0:
182,192,131069,128,0,131175:0:0:0:0:
329,192,131069,128,0,131175:0:0:0:0:
256,192,131175,128,0,131280:0:0:0:0:
402,192,131175,128,0,131280:0:0:0:0:
475,192,131280,128,0,131386:0:0:0:0:
329,192,131280,128,0,131386:0:0:0:0:
256,192,131386,128,0,131491:0:0:0:0:
402,192,131386,128,0,131491:0:0:0:0:
182,192,131491,128,0,132336:0:0:0:0:
109,192,131491,128,0,131597:0:0:0:0:
329,192,131491,128,0,131597:0:0:0:0:
36,192,131597,128,0,131703:0:0:0:0:
402,192,131597,128,0,131703:0:0:0:0:
109,192,131703,128,0,131808:0:0:0:0:
256,192,131703,128,0,131808:0:0:0:0:
329,192,131808,128,0,131914:0:0:0:0:
475,192,131808,128,0,131914:0:0:0:0:
36,192,131914,128,0,132020:0:0:0:0:
402,192,131914,128,0,132020:0:0:0:0:
109,192,132020,128,0,132125:0:0:0:0:
256,192,132020,128,0,132125:0:0:0:0:
329,192,132125,128,0,132231:0:0:0:0:
475,192,132125,128,0,132231:0:0:0:0:
256,192,132231,128,0,132336:0:0:0:0:
36,192,132231,128,0,132336:0:0:0:0:
329,192,132336,128,0,132759:0:0:0:0:
109,192,132336,128,0,132442:0:0:0:0:
402,192,132336,128,0,132442:0:0:0:0:
182,192,132442,128,0,132548:0:0:0:0:
475,192,132442,128,0,132548:0:0:0:0:
256,192,132548,128,0,132653:0:0:0:0:
402,192,132548,128,0,132653:0:0:0:0:
36,192,132653,128,0,132759:0:0:0:0:
182,192,132653,128,0,132759:0:0:0:0:
475,192,132759,128,0,132970:0:0:0:0:
109,192,132759,128,0,132865:0:0:0:0:
402,192,132759,128,0,132865:0:0:0:0:
182,192,132865,128,0,132970:0:0:0:0:
329,192,132865,128,0,132970:0:0:0:0:
256,192,132970,128,0,133182:0:0:0:0:
36,192,132970,128,0,133076:0:0:0:0:
182,192,133076,128,0,133182:0:0:0:0:
402,192,133076,128,0,133182:0:0:0:0:
109,192,133182,128,0,133604:0:0:0:0:
36,192,133182,128,0,133287:0:0:0:0:
475,192,133182,128,0,133287:0:0:0:0:
182,192,133287,128,0,133393:0:0:0:0:
329,192,133287,128,0,133393:0:0:0:0:
256,192,133393,128,0,133498:0:0:0:0:
475,192,133393,128,0,133498:0:0:0:0:
36,192,133498,128,0,133604:0:0:0:0:
329,192,133498,128,0,133604:0:0:0:0:
402,192,133604,128,0,134027:0:0:0:0:
182,192,133604,128,0,133710:0:0:0:0:
475,192,133604,128,0,133710:0:0:0:0:
256,192,133710,128,0,133815:0:0:0:0:
36,192,133710,128,0,133815:0:0:0:0:
109,192,133815,128,0,133921:0:0:0:0:
329,192,133815,128,0,133921:0:0:0:0:
256,192,133921,128,0,134027:0:0:0:0:
475,192,133921,128,0,134027:0:0:0:0:
182,192,134027,128,0,134872:0:0:0:0:
36,192,134027,128,0,134132:0:0:0:0:
329,192,134027,128,0,134132:0:0:0:0:
109,192,134132,128,0,134238:0:0:0:0:
256,192,134238,128,0,134344:0:0:0:0:
475,192,134238,128,0,134344:0:0:0:0:
402,192,134344,128,0,134449:0:0:0:0:
329,192,134449,128,0,134555:0:0:0:0:
36,192,134449,128,0,134555:0:0:0:0:
109,192,134555,128,0,134660:0:0:0:0:
256,192,134660,128,0,134766:0:0:0:0:
475,192,134660,128,0,134766:0:0:0:0:
402,192,134766,128,0,134872:0:0:0:0:
329,192,134872,128,0,135717:0:0:0:0:
256,192,134872,128,0,134977:0:0:0:0:
36,192,134872,128,0,134977:0:0:0:0:
109,192,134977,128,0,135083:0:0:0:0:
182,192,135083,128,0,135189:0:0:0:0:
402,192,135083,128,0,135189:0:0:0:0:
256,192,135189,128,0,135294:0:0:0:0:
475,192,135294,128,0,135400:0:0:0:0:
182,192,135294,128,0,135400:0:0:0:0:
36,192,135400,128,0,135506:0:0:0:0:
109,192,135506,128,0,135611:0:0:0:0:
402,192,135506,128,0,135611:0:0:0:0:
182,192,135611,128,0,135717:0:0:0:0:
36,192,135717,128,0,136562:0:0:0:0:
256,192,135717,128,0,135822:0:0:0:0:
475,192,135717,128,0,135822:0:0:0:0:
402,192,135822,128,0,135928:0:0:0:0:
329,192,135928,128,0,136034:0:0:0:0:
256,192,136034,128,0,136139:0:0:0:0:
475,192,136139,128,0,136562:0:0:0:0:
182,192,136139,128,0,136245:0:0:0:0:
402,192,136139,1,0,0:0:0:0:
109,192,136245,128,0,136351:0:0:0:0:
182,192,136351,128,0,136456:0:0:0:0:
256,192,136456,128,0,136562:0:0:0:0:
402,192,136562,128,0,137407:0:0:0:0:
329,192,136562,128,0,136667:0:0:0:0:
109,192,136562,1,0,0:0:0:0:
256,192,136667,128,0,136773:0:0:0:0:
182,192,136773,128,0,136879:0:0:0:0:
36,192,136773,1,0,0:0:0:0:
256,192,136879,128,0,136984:0:0:0:0:
36,192,136984,128,0,137301:0:0:0:0:
329,192,136984,1,0,0:0:0:0:
109,192,137090,128,0,137301:0:0:0:0:
475,192,137090,1,0,0:0:0:0:
182,192,137196,128,0,137407:0:0:0:0:
256,192,137196,1,0,0:0:0:0:
329,192,137301,128,0,137407:0:0:0:0:
256,192,137407,128,0,137724:0:0:0:0:
475,192,137407,128,0,137724:0:0:0:0:
109,192,137407,128,0,137513:0:0:0:0:
36,192,137407,128,0,137724:0:0:0:0:
182,192,137513,128,0,137618:0:0:0:0:
329,192,137618,128,0,137724:0:0:0:0:
402,192,137724,128,0,137829:0:0:0:0:
109,192,137829,128,0,138146:0:0:0:0:
329,192,137829,128,0,138146:0:0:0:0:
182,192,137829,128,0,138146:0:0:0:0:
256,192,137829,128,0,137935:0:0:0:0:
36,192,137935,128,0,138041:0:0:0:0:
475,192,138041,128,0,138146:0:0:0:0:
402,192,138146,128,0,138252:0:0:0:0:
36,192,138252,128,0,138569:0:0:0:0:
256,192,138252,128,0,138569:0:0:0:0:
475,192,138252,128,0,138569:0:0:0:0:
329,192,138252,128,0,138358:0:0:0:0:
109,192,138358,128,0,138463:0:0:0:0:
182,192,138463,128,0,138569:0:0:0:0:
402,192,138569,128,0,138675:0:0:0:0:
109,192,138675,128,0,138991:0:0:0:0:
256,192,138675,128,0,138991:0:0:0:0:
475,192,138675,128,0,138991:0:0:0:0:
329,192,138675,128,0,138780:0:0:0:0:
182,192,138780,128,0,138886:0:0:0:0:
36,192,138886,128,0,138991:0:0:0:0:
182,192,138991,128,0,139097:0:0:0:0:
256,192,139097,128,0,139414:0:0:0:0:
402,192,139097,128,0,139414:0:0:0:0:
329,192,139097,128,0,139414:0:0:0:0:
109,192,139097,128,0,139203:0:0:0:0:
36,192,139203,128,0,139308:0:0:0:0:
182,192,139308,128,0,139414:0:0:0:0:
475,192,139414,128,0,139520:0:0:0:0:
36,192,139520,128,0,139836:0:0:0:0:
256,192,139520,128,0,139836:0:0:0:0:
109,192,139520,128,0,139836:0:0:0:0:
329,192,139520,128,0,139625:0:0:0:0:
402,192,139625,128,0,139731:0:0:0:0:
182,192,139731,128,0,139836:0:0:0:0:
475,192,139836,128,0,139942:0:0:0:0:
182,192,139942,128,0,140365:0:0:0:0:
402,192,139942,128,0,140365:0:0:0:0:
329,192,139942,128,0,140365:0:0:0:0:
36,192,139942,128,0,140048:0:0:0:0:
109,192,140048,128,0,140153:0:0:0:0:
256,192,140153,128,0,140259:0:0:0:0:
36,192,140259,128,0,140365:0:0:0:0:
109,192,140365,1,0,0:0:0:0:
256,192,140365,1,0,0:0:0:0:
475,192,140365,1,0,0:0:0:0:
402,192,140576,1,0,0:0:0:0:
36,192,140576,1,0,0:0:0:0:
182,192,140576,1,0,0:0:0:0:
109,192,140787,128,0,140840:0:0:0:0:
256,192,140787,128,0,140840:0:0:0:0:
402,192,140787,128,0,140840:0:0:0:0:
475,192,140787,128,0,140840:0:0:0:0:
329,192,140893,1,0,0:0:0:0:
256,192,140998,1,0,0:0:0:0:
329,192,141104,1,0,0:0:0:0:
402,192,141210,128,0,141263:0:0:0:0:
182,192,141210,128,0,141263:0:0:0:0:
36,192,141210,128,0,141263:0:0:0:0:
109,192,141315,1,0,0:0:0:0:
329,192,141421,1,0,0:0:0:0:
402,192,141421,1,0,0:0:0:0:
256,192,141527,1,0,0:0:0:0:
182,192,141632,128,0,141685:0:0:0:0:
36,192,141632,128,0,141685:0:0:0:0:
475,192,141632,128,0,141685:0:0:0:0:
109,192,141738,1,0,0:0:0:0:
256,192,141844,1,0,0:0:0:0:
402,192,141844,1,0,0:0:0:0:
182,192,141949,1,0,0:0:0:0:
329,192,142055,128,0,142108:0:0:0:0:
475,192,142055,128,0,142108:0:0:0:0:
36,192,142055,128,0,142108:0:0:0:0:
109,192,142160,1,0,0:0:0:0:
182,192,142266,1,0,0:0:0:0:
402,192,142372,1,0,0:0:0:0:
36,192,142477,128,0,142689:0:0:0:0:
256,192,142477,128,0,142530:0:0:0:0:
329,192,142477,128,0,142530:0:0:0:0:
475,192,142477,128,0,142530:0:0:0:0:
109,192,142689,128,0,142741:0:0:0:0:
182,192,142689,128,0,142741:0:0:0:0:
402,192,142689,128,0,142741:0:0:0:0:
256,192,142900,128,0,143111:0:0:0:0:
475,192,142900,128,0,142953:0:0:0:0:
182,192,142900,128,0,142953:0:0:0:0:
36,192,142900,128,0,142953:0:0:0:0:
36,192,143111,128,0,143164:0:0:0:0:
182,192,143111,128,0,143164:0:0:0:0:
329,192,143111,128,0,143164:0:0:0:0:
475,192,143322,128,0,143534:0:0:0:0:
109,192,143322,128,0,143375:0:0:0:0:
256,192,143322,128,0,143375:0:0:0:0:
402,192,143322,128,0,143375:0:0:0:0:
402,192,143534,128,0,143586:0:0:0:0:
329,192,143534,128,0,143586:0:0:0:0:
182,192,143534,128,0,143586:0:0:0:0:
36,192,143639,128,0,143798:0:0:0:0:
109,192,143692,128,0,143851:0:0:0:0:
182,192,143745,128,0,143903:0:0:0:0:
402,192,143745,128,0,143798:0:0:0:0:
329,192,143745,128,0,143798:0:0:0:0:
256,192,143798,128,0,143956:0:0:0:0:
475,192,143851,128,0,143956:0:0:0:0:
402,192,143903,128,0,144009:0:0:0:0:
329,192,143956,128,0,144062:0:0:0:0:
36,192,143956,128,0,144009:0:0:0:0:
256,192,144009,128,0,144115:0:0:0:0:
182,192,144062,128,0,144167:0:0:0:0:
109,192,144115,128,0,144167:0:0:0:0:
256,192,144167,1,0,0:0:0:0:
402,192,144167,1,0,0:0:0:0:
329,192,144167,128,0,144326:0:0:0:0:
36,192,144167,128,0,144326:0:0:0:0:
475,192,144167,128,0,145013:0:0:0:0:
109,192,144273,128,0,144432:0:0:0:0:
256,192,144273,128,0,144432:0:0:0:0:
329,192,144379,128,0,144537:0:0:0:0:
36,192,144379,128,0,144537:0:0:0:0:
402,192,144484,128,0,144643:0:0:0:0:
109,192,144484,128,0,144590:0:0:0:0:
182,192,144590,128,0,144748:0:0:0:0:
329,192,144590,128,0,144748:0:0:0:0:
256,192,144696,128,0,144854:0:0:0:0:
109,192,144696,128,0,144854:0:0:0:0:
36,192,144801,128,0,144960:0:0:0:0:
329,192,144801,128,0,144960:0:0:0:0:
109,192,144907,128,0,145065:0:0:0:0:
256,192,144907,128,0,145065:0:0:0:0:
402,192,145013,128,0,145171:0:0:0:0:
182,192,145013,128,0,145171:0:0:0:0:
329,192,145013,128,0,145858:0:0:0:0:
109,192,145118,128,0,145277:0:0:0:0:
475,192,145118,128,0,145277:0:0:0:0:
402,192,145224,128,0,145382:0:0:0:0:
256,192,145224,128,0,145382:0:0:0:0:
182,192,145329,128,0,145488:0:0:0:0:
36,192,145329,128,0,145488:0:0:0:0:
475,192,145435,128,0,145594:0:0:0:0:
109,192,145435,128,0,145594:0:0:0:0:
402,192,145541,128,0,145699:0:0:0:0:
256,192,145541,128,0,145699:0:0:0:0:
36,192,145646,128,0,145805:0:0:0:0:
182,192,145646,128,0,145805:0:0:0:0:
256,192,145752,128,0,145910:0:0:0:0:
475,192,145752,128,0,145910:0:0:0:0:
182,192,145858,128,0,146280:0:0:0:0:
109,192,145858,128,0,146016:0:0:0:0:
402,192,145858,128,0,146016:0:0:0:0:
36,192,145963,128,0,146122:0:0:0:0:
329,192,145963,128,0,146122:0:0:0:0:
109,192,146069,128,0,146227:0:0:0:0:
256,192,146069,128,0,146227:0:0:0:0:
329,192,146175,128,0,146333:0:0:0:0:
475,192,146175,128,0,146333:0:0:0:0:
36,192,146280,128,0,146491:0:0:0:0:
402,192,146280,128,0,146439:0:0:0:0:
109,192,146280,128,0,146439:0:0:0:0:
182,192,146386,128,0,146544:0:0:0:0:
329,192,146386,128,0,146544:0:0:0:0:
475,192,146491,128,0,146650:0:0:0:0:
256,192,146491,128,0,146703:0:0:0:0:
329,192,146597,128,0,146756:0:0:0:0:
109,192,146597,128,0,146756:0:0:0:0:
402,192,146703,128,0,147125:0:0:0:0:
475,192,146703,128,0,146861:0:0:0:0:
36,192,146703,128,0,146861:0:0:0:0:
329,192,146808,128,0,146967:0:0:0:0:
182,192,146808,128,0,146967:0:0:0:0:
36,192,146914,128,0,147072:0:0:0:0:
256,192,146914,128,0,147072:0:0:0:0:
182,192,147020,128,0,147125:0:0:0:0:
475,192,147020,128,0,147178:0:0:0:0:
109,192,147125,128,0,147548:0:0:0:0:
36,192,147125,128,0,147284:0:0:0:0:
329,192,147125,128,0,147284:0:0:0:0:
475,192,147231,128,0,147389:0:0:0:0:
256,192,147231,128,0,147389:0:0:0:0:
402,192,147336,128,0,147495:0:0:0:0:
182,192,147336,128,0,147495:0:0:0:0:
36,192,147442,128,0,147601:0:0:0:0:
256,192,147442,128,0,147548:0:0:0:0:
182,192,147548,128,0,147706:0:0:0:0:
475,192,147548,128,0,147706:0:0:0:0:
329,192,147548,128,0,148393:0:0:0:0:
402,192,147653,128,0,147812:0:0:0:0:
256,192,147759,128,0,147917:0:0:0:0:
36,192,147759,128,0,147917:0:0:0:0:
109,192,147865,128,0,148023:0:0:0:0:
182,192,147970,128,0,148129:0:0:0:0:
475,192,147970,128,0,148129:0:0:0:0:
402,192,148076,128,0,148234:0:0:0:0:
256,192,148182,128,0,148340:0:0:0:0:
36,192,148182,128,0,148340:0:0:0:0:
109,192,148287,128,0,148446:0:0:0:0:
256,192,148393,128,0,148551:0:0:0:0:
475,192,148393,128,0,148551:0:0:0:0:
182,192,148393,128,0,149238:0:0:0:0:
402,192,148498,128,0,148657:0:0:0:0:
329,192,148604,128,0,148763:0:0:0:0:
109,192,148604,128,0,148763:0:0:0:0:
256,192,148710,128,0,148868:0:0:0:0:
36,192,148815,128,0,148974:0:0:0:0:
329,192,148815,128,0,148974:0:0:0:0:
475,192,148921,128,0,149079:0:0:0:0:
402,192,149027,128,0,149185:0:0:0:0:
109,192,149027,128,0,149185:0:0:0:0:
329,192,149132,128,0,149291:0:0:0:0:
256,192,149238,128,0,149396:0:0:0:0:
36,192,149238,128,0,149396:0:0:0:0:
475,192,149238,128,0,150083:0:0:0:0:
109,192,149344,128,0,149502:0:0:0:0:
182,192,149449,128,0,149608:0:0:0:0:
256,192,149555,128,0,149713:0:0:0:0:
329,192,149660,128,0,149819:0:0:0:0:
36,192,149660,128,0,150083:0:0:0:0:
109,192,149660,1,0,0:0:0:0:
402,192,149766,128,0,149925:0:0:0:0:
329,192,149872,128,0,150030:0:0:0:0:
256,192,149977,128,0,150136:0:0:0:0:
109,192,150083,128,0,150928:0:0:0:0:
402,192,150083,1,0,0:0:0:0:
182,192,150083,128,0,150241:0:0:0:0:
256,192,150189,128,0,150347:0:0:0:0:
329,192,150294,128,0,150453:0:0:0:0:
475,192,150294,1,0,0:0:0:0:
256,192,150400,128,0,150506:0:0:0:0:
475,192,150506,128,0,150822:0:0:0:0:
182,192,150506,1,0,0:0:0:0:
402,192,150611,128,0,150822:0:0:0:0:
36,192,150611,1,0,0:0:0:0:
256,192,150717,1,0,0:0:0:0:
329,192,150717,128,0,150928:0:0:0:0:
182,192,150822,128,0,150928:0:0:0:0:
402,192,150928,128,0,151086:0:0:0:0:
475,192,150928,128,0,151245:0:0:0:0:
36,192,150928,128,0,151245:0:0:0:0:
256,192,150928,128,0,151245:0:0:0:0:
329,192,151034,128,0,151192:0:0:0:0:
182,192,151139,128,0,151298:0:0:0:0:
109,192,151245,128,0,151403:0:0:0:0:
256,192,151351,128,0,151509:0:0:0:0:
329,192,151351,128,0,151667:0:0:0:0:
182,192,151351,128,0,151667:0:0:0:0:
402,192,151351,128,0,151667:0:0:0:0:
475,192,151456,128,0,151615:0:0:0:0:
36,192,151562,128,0,151720:0:0:0:0:
109,192,151667,128,0,151826:0:0:0:0:
475,192,151773,128,0,152090:0:0:0:0:
36,192,151773,128,0,152090:0:0:0:0:
256,192,151773,128,0,152090:0:0:0:0:
182,192,151773,128,0,151932:0:0:0:0:
402,192,151879,128,0,152037:0:0:0:0:
329,192,151984,128,0,152143:0:0:0:0:
109,192,152090,128,0,152248:0:0:0:0:
36,192,152196,128,0,152513:0:0:0:0:
256,192,152196,128,0,152513:0:0:0:0:
402,192,152196,128,0,152513:0:0:0:0:
182,192,152196,128,0,152354:0:0:0:0:
329,192,152301,128,0,152460:0:0:0:0:
475,192,152407,128,0,152565:0:0:0:0:
329,192,152513,128,0,152671:0:0:0:0:
256,192,152618,128,0,152935:0:0:0:0:
182,192,152618,128,0,152935:0:0:0:0:
402,192,152618,128,0,152777:0:0:0:0:
109,192,152618,128,0,152935:0:0:0:0:
475,192,152724,128,0,152882:0:0:0:0:
329,192,152829,128,0,152988:0:0:0:0:
36,192,152935,128,0,153094:0:0:0:0:
182,192,153041,128,0,153199:0:0:0:0:
256,192,153041,128,0,153358:0:0:0:0:
402,192,153041,128,0,153358:0:0:0:0:
475,192,153041,128,0,153358:0:0:0:0:
109,192,153146,128,0,153305:0:0:0:0:
329,192,153252,128,0,153410:0:0:0:0:
36,192,153358,128,0,153516:0:0:0:0:
475,192,153463,128,0,153622:0:0:0:0:
329,192,153463,128,0,153886:0:0:0:0:
109,192,153463,128,0,153886:0:0:0:0:
182,192,153463,128,0,153886:0:0:0:0:
402,192,153569,128,0,153727:0:0:0:0:
256,192,153675,128,0,153833:0:0:0:0:
475,192,153780,128,0,153886:0:0:0:0:
36,192,153886,1,0,0:0:0:0:
256,192,153886,1,0,0:0:0:0:
402,192,153886,1,0,0:0:0:0:
109,192,154097,1,0,0:0:0:0:
402,192,154097,1,0,0:0:0:0:
256,192,154097,1,0,0:0:0:0:
475,192,154308,1,0,0:0:0:0:
329,192,154308,1,0,0:0:0:0:
182,192,154308,128,0,154520:0:0:0:0:
36,192,154308,128,0,154520:0:0:0:0:
329,192,154414,128,0,154572:0:0:0:0:
475,192,154520,128,0,154678:0:0:0:0:
109,192,154520,128,0,154678:0:0:0:0:
256,192,154625,128,0,154784:0:0:0:0:
402,192,154731,128,0,154942:0:0:0:0:
36,192,154731,128,0,154942:0:0:0:0:
182,192,154836,128,0,154995:0:0:0:0:
329,192,154942,128,0,155101:0:0:0:0:
109,192,154942,128,0,155153:0:0:0:0:
256,192,155048,128,0,155153:0:0:0:0:
475,192,155153,128,0,155224:0:0:0:0:
182,192,155153,128,0,155224:0:0:0:0:
329,192,155224,128,0,155294:0:0:0:0:
36,192,155294,128,0,155365:0:0:0:0:
182,192,155294,128,0,155365:0:0:0:0:
475,192,155365,128,0,155435:0:0:0:0:
329,192,155365,128,0,155435:0:0:0:0:
182,192,155435,128,0,155506:0:0:0:0:
36,192,155506,128,0,155576:0:0:0:0:
329,192,155506,128,0,155576:0:0:0:0:
475,192,155576,1,0,0:0:0:0:
256,192,155576,128,0,155787:0:0:0:0:
109,192,155576,1,0,0:0:0:0:
36,192,155787,1,0,0:0:0:0:
475,192,155787,1,0,0:0:0:0:
182,192,155787,1,0,0:0:0:0:
329,192,155787,1,0,0:0:0:0:
256,192,155998,1,0,0:0:0:0:
36,192,155998,128,0,156263:0:0:0:0:
402,192,155998,128,0,156263:0:0:0:0:
475,192,155998,1,0,0:0:0:0:
182,192,156104,128,0,156368:0:0:0:0:
256,192,156210,1,0,0:0:0:0:
109,192,156210,128,0,156474:0:0:0:0:
329,192,156210,128,0,156474:0:0:0:0:
475,192,156315,128,0,156579:0:0:0:0:
256,192,156315,1,0,0:0:0:0:
36,192,156421,128,0,156685:0:0:0:0:
402,192,156421,128,0,156685:0:0:0:0:
256,192,156527,1,0,0:0:0:0:
182,192,156527,128,0,156791:0:0:0:0:
256,192,156632,1,0,0:0:0:0:
329,192,156632,128,0,156896:0:0:0:0:
109,192,156632,128,0,156896:0:0:0:0:
475,192,156738,128,0,157002:0:0:0:0:
402,192,156844,128,0,157002:0:0:0:0:
36,192,156844,128,0,157002:0:0:0:0:
256,192,156844,128,0,157002:0:0:0:0:
256,192,157055,1,0,0:0:0:0:
36,192,157055,1,0,0:0:0:0:
402,192,157055,1,0,0:0:0:0:
475,192,157055,1,0,0:0:0:0:
36,192,157266,1,0,0:0:0:0:
256,192,157266,1,0,0:0:0:0:
182,192,157266,1,0,0:0:0:0:
402,192,157266,1,0,0:0:0:0:
109,192,157477,128,0,158956:0:0:0:0:
402,192,157477,128,0,158956:0:0:0:0:
475,192,158534,128,0,158586:0:0:0:0:
329,192,158586,128,0,158639:0:0:0:0:
256,192,158639,128,0,158692:0:0:0:0:
182,192,158692,128,0,158745:0:0:0:0:
36,192,158745,128,0,158798:0:0:0:0:
475,192,158798,128,0,158851:0:0:0:0:
329,192,158851,128,0,158903:0:0:0:0:
256,192,158903,128,0,158956:0:0:0:0:
182,192,158956,128,0,159009:0:0:0:0:
109,192,159009,128,0,159062:0:0:0:0:
36,192,159062,128,0,159115:0:0:0:0:
475,192,159115,128,0,159167:0:0:0:0:
402,192,159167,128,0,159220:0:0:0:0:
329,192,159220,128,0,159273:0:0:0:0:
256,192,159273,128,0,159326:0:0:0:0:
182,192,159326,128,0,159379:0:0:0:0:
109,192,159379,128,0,159432:0:0:0:0:
36,192,159379,128,0,159432:0:0:0:0:
475,192,159379,128,0,159484:0:0:0:0:
402,192,159432,128,0,159537:0:0:0:0:
329,192,159484,128,0,159590:0:0:0:0:
256,192,159537,128,0,159643:0:0:0:0:
182,192,159590,128,0,159696:0:0:0:0:
109,192,159643,128,0,159748:0:0:0:0:
36,192,159696,128,0,159801:0:0:0:0:
475,192,159748,128,0,159801:0:0:0:0:
402,192,159801,128,0,159854:0:0:0:0:
329,192,159854,128,0,159907:0:0:0:0:
256,192,159907,128,0,159960:0:0:0:0:
182,192,159960,128,0,160013:0:0:0:0:
109,192,160013,128,0,160065:0:0:0:0:
36,192,160065,128,0,160118:0:0:0:0:
475,192,160118,128,0,160171:0:0:0:0:
402,192,160171,128,0,160224:0:0:0:0:
329,192,160224,128,0,160277:0:0:0:0:
256,192,160277,128,0,160329:0:0:0:0:
182,192,160329,128,0,160382:0:0:0:0:
109,192,160382,128,0,160435:0:0:0:0:
36,192,160435,128,0,160541:0:0:0:0:
109,192,160488,128,0,160594:0:0:0:0:
182,192,160541,128,0,160646:0:0:0:0:
256,192,160594,128,0,160699:0:0:0:0:
329,192,160646,128,0,160752:0:0:0:0:
402,192,160699,128,0,160752:0:0:0:0:
475,192,160752,128,0,160910:0:0:0:0:
402,192,160805,128,0,160963:0:0:0:0:
329,192,160858,128,0,161016:0:0:0:0:
256,192,160910,128,0,161069:0:0:0:0:
182,192,160963,128,0,161069:0:0:0:0:
109,192,161016,128,0,161122:0:0:0:0:
36,192,161069,128,0,161175:0:0:0:0:
109,192,161175,128,0,161280:0:0:0:0:
182,192,161280,128,0,161386:0:0:0:0:
256,192,161386,128,0,161491:0:0:0:0:
329,192,161491,128,0,161597:0:0:0:0:
109,192,161491,128,0,161597:0:0:0:0:
182,192,161597,128,0,161703:0:0:0:0:
256,192,161703,128,0,161808:0:0:0:0:
329,192,161808,128,0,161914:0:0:0:0:
402,192,161914,128,0,161984:0:0:0:0:
109,192,161984,128,0,162055:0:0:0:0:
402,192,162055,128,0,162125:0:0:0:0:
109,192,162125,128,0,162196:0:0:0:0:
402,192,162196,128,0,162266:0:0:0:0:
109,192,162266,128,0,162336:0:0:0:0:
182,192,162336,128,0,162548:0:0:0:0:
329,192,162548,128,0,162759:0:0:0:0:
256,192,162759,128,0,164449:0:0:0:0:
109,192,162759,128,0,162865:0:0:0:0:
475,192,162865,128,0,162970:0:0:0:0:
182,192,162970,128,0,163076:0:0:0:0:
402,192,163076,128,0,163182:0:0:0:0:
36,192,163182,128,0,164344:0:0:0:0:
329,192,163182,128,0,163287:0:0:0:0:
182,192,163287,128,0,163393:0:0:0:0:
109,192,163393,128,0,163498:0:0:0:0:
402,192,163498,128,0,163604:0:0:0:0:
475,192,163604,128,0,164344:0:0:0:0:
182,192,163604,128,0,163675:0:0:0:0:
329,192,163675,128,0,163745:0:0:0:0:
182,192,163745,128,0,163815:0:0:0:0:
329,192,163815,128,0,163886:0:0:0:0:
182,192,163886,128,0,163956:0:0:0:0:
329,192,163956,128,0,164027:0:0:0:0:
109,192,164027,128,0,164344:0:0:0:0:
402,192,164027,128,0,164344:0:0:0:0:
182,192,164027,128,0,164238:0:0:0:0:
329,192,164238,128,0,164449:0:0:0:0:
36,192,164449,128,0,164502:0:0:0:0:
109,192,164449,128,0,164502:0:0:0:0:
182,192,164449,128,0,164502:0:0:0:0:
475,192,164449,128,0,164502:0:0:0:0:
402,192,164449,128,0,164502:0:0:0:0:
402,192,164660,128,0,164713:0:0:0:0:
256,192,164660,128,0,164713:0:0:0:0:
109,192,164660,128,0,164713:0:0:0:0:
182,192,164872,128,0,164925:0:0:0:0:
329,192,164872,128,0,164925:0:0:0:0:
402,192,165083,128,0,165136:0:0:0:0:
256,192,165083,128,0,165136:0:0:0:0:
109,192,165083,128,0,165136:0:0:0:0:
36,192,165294,128,0,165347:0:0:0:0:
182,192,165294,128,0,165347:0:0:0:0:
329,192,165294,128,0,165347:0:0:0:0:
475,192,165294,128,0,165347:0:0:0:0:
109,192,165506,128,0,165558:0:0:0:0:
402,192,165506,128,0,165558:0:0:0:0:
329,192,165717,128,0,165770:0:0:0:0:
182,192,165717,128,0,165770:0:0:0:0:
109,192,165928,128,0,165981:0:0:0:0:
402,192,165928,128,0,165981:0:0:0:0:
256,192,166034,1,0,0:0:0:0:
256,192,166139,1,0,0:0:0:0:
36,192,166139,128,0,166298:0:0:0:0:
182,192,166298,1,0,0:0:0:0:
475,192,166456,128,0,166562:0:0:0:0:
256,192,166562,1,0,0:0:0:0:
329,192,166562,1,0,0:0:0:0:
36,192,166773,1,0,0:0:0:0:
475,192,166773,1,0,0:0:0:0:
109,192,166879,1,0,0:0:0:0:
402,192,166879,1,0,0:0:0:0:
182,192,166984,1,0,0:0:0:0:
329,192,166984,1,0,0:0:0:0:
109,192,167196,1,0,0:0:0:0:
402,192,167196,1,0,0:0:0:0:
182,192,167407,1,0,0:0:0:0:
329,192,167407,1,0,0:0:0:0:
182,192,167618,128,0,167829:0:0:0:0:
329,192,167618,128,0,167829:0:0:0:0:
109,192,167829,128,0,167882:0:0:0:0:
36,192,167829,128,0,167882:0:0:0:0:
402,192,167829,128,0,167882:0:0:0:0:
475,192,167829,128,0,167882:0:0:0:0:
402,192,168041,128,0,168094:0:0:0:0:
256,192,168041,128,0,168094:0:0:0:0:
109,192,168041,128,0,168094:0:0:0:0:
329,192,168252,128,0,168305:0:0:0:0:
182,192,168252,128,0,168305:0:0:0:0:
256,192,168463,128,0,168516:0:0:0:0:
109,192,168463,128,0,168516:0:0:0:0:
402,192,168463,128,0,168516:0:0:0:0:
182,192,168675,128,0,168727:0:0:0:0:
36,192,168675,128,0,168727:0:0:0:0:
329,192,168675,128,0,168727:0:0:0:0:
475,192,168675,128,0,168727:0:0:0:0:
109,192,168886,128,0,168939:0:0:0:0:
402,192,168886,128,0,168939:0:0:0:0:
182,192,169097,128,0,169150:0:0:0:0:
329,192,169097,128,0,169150:0:0:0:0:
109,192,169308,128,0,169361:0:0:0:0:
402,192,169308,128,0,169361:0:0:0:0:
256,192,169414,1,0,0:0:0:0:
256,192,169520,1,0,0:0:0:0:
475,192,169520,128,0,169942:0:0:0:0:
36,192,169520,128,0,169942:0:0:0:0:
182,192,169625,1,0,0:0:0:0:
109,192,169731,1,0,0:0:0:0:
402,192,169731,1,0,0:0:0:0:
329,192,169836,1,0,0:0:0:0:
256,192,169942,1,0,0:0:0:0:
182,192,169942,1,0,0:0:0:0:
109,192,170048,1,0,0:0:0:0:
475,192,170153,1,0,0:0:0:0:
182,192,170153,1,0,0:0:0:0:
402,192,170259,1,0,0:0:0:0:
329,192,170365,1,0,0:0:0:0:
256,192,170365,1,0,0:0:0:0:
36,192,170365,1,0,0:0:0:0:
182,192,170470,1,0,0:0:0:0:
402,192,170576,1,0,0:0:0:0:
109,192,170576,1,0,0:0:0:0:
475,192,170682,1,0,0:0:0:0:
182,192,170787,1,0,0:0:0:0:
329,192,170787,1,0,0:0:0:0:
36,192,170787,1,0,0:0:0:0:
109,192,170893,1,0,0:0:0:0:
475,192,170998,1,0,0:0:0:0:
182,192,170998,1,0,0:0:0:0:
256,192,171104,1,0,0:0:0:0:
329,192,171210,1,0,0:0:0:0:
475,192,171210,1,0,0:0:0:0:
36,192,171210,128,0,171368:0:0:0:0:
402,192,171210,128,0,171527:0:0:0:0:
109,192,171315,128,0,171474:0:0:0:0:
182,192,171421,128,0,171579:0:0:0:0:
329,192,171421,1,0,0:0:0:0:
256,192,171527,128,0,171685:0:0:0:0:
475,192,171632,128,0,171791:0:0:0:0:
36,192,171632,1,0,0:0:0:0:
109,192,171632,1,0,0:0:0:0:
329,192,171632,128,0,171949:0:0:0:0:
402,192,171738,128,0,171896:0:0:0:0:
256,192,171844,1,0,0:0:0:0:
182,192,171844,128,0,172002:0:0:0:0:
109,192,171949,128,0,172108:0:0:0:0:
36,192,172055,128,0,172213:0:0:0:0:
402,192,172055,1,0,0:0:0:0:
475,192,172055,1,0,0:0:0:0:
256,192,172055,128,0,172372:0:0:0:0:
109,192,172160,128,0,172319:0:0:0:0:
182,192,172266,1,0,0:0:0:0:
329,192,172266,128,0,172425:0:0:0:0:
402,192,172372,128,0,172530:0:0:0:0:
475,192,172477,128,0,172636:0:0:0:0:
256,192,172477,1,0,0:0:0:0:
182,192,172477,128,0,172794:0:0:0:0:
36,192,172477,1,0,0:0:0:0:
402,192,172583,128,0,172741:0:0:0:0:
329,192,172689,128,0,172847:0:0:0:0:
109,192,172689,1,0,0:0:0:0:
256,192,172794,128,0,172900:0:0:0:0:
36,192,172900,128,0,172953:0:0:0:0:
475,192,172900,128,0,172953:0:0:0:0:
109,192,172900,1,0,0:0:0:0:
402,192,172900,1,0,0:0:0:0:
109,192,173111,128,0,173164:0:0:0:0:
182,192,173111,1,0,0:0:0:0:
329,192,173111,1,0,0:0:0:0:
402,192,173111,128,0,173164:0:0:0:0:
329,192,173322,128,0,173375:0:0:0:0:
36,192,173322,1,0,0:0:0:0:
182,192,173322,128,0,173375:0:0:0:0:
256,192,173322,1,0,0:0:0:0:
475,192,173322,1,0,0:0:0:0:
256,192,173534,128,0,173586:0:0:0:0:
109,192,173534,1,0,0:0:0:0:
402,192,173534,1,0,0:0:0:0:
36,192,173745,128,0,173798:0:0:0:0:
182,192,173745,1,0,0:0:0:0:
329,192,173745,1,0,0:0:0:0:
475,192,173745,128,0,173798:0:0:0:0:
256,192,173851,1,0,0:0:0:0:
182,192,173956,1,0,0:0:0:0:
402,192,173956,128,0,174009:0:0:0:0:
329,192,173956,1,0,0:0:0:0:
109,192,173956,128,0,174009:0:0:0:0:
256,192,174062,1,0,0:0:0:0:
329,192,174167,128,0,174220:0:0:0:0:
182,192,174167,128,0,174220:0:0:0:0:
36,192,174167,1,0,0:0:0:0:
475,192,174167,1,0,0:0:0:0:
256,192,174379,1,0,0:0:0:0:
402,192,174379,1,0,0:0:0:0:
109,192,174379,1,0,0:0:0:0:
36,192,174590,1,0,0:0:0:0:
402,192,174590,128,0,174643:0:0:0:0:
109,192,174590,128,0,174643:0:0:0:0:
475,192,174590,1,0,0:0:0:0:
256,192,174801,128,0,174854:0:0:0:0:
402,192,174801,1,0,0:0:0:0:
109,192,174801,1,0,0:0:0:0:
109,192,175013,1,0,0:0:0:0:
256,192,175013,128,0,175065:0:0:0:0:
402,192,175013,1,0,0:0:0:0:
182,192,175224,128,0,175277:0:0:0:0:
256,192,175224,1,0,0:0:0:0:
329,192,175224,128,0,175277:0:0:0:0:
109,192,175435,1,0,0:0:0:0:
36,192,175435,128,0,175488:0:0:0:0:
402,192,175435,1,0,0:0:0:0:
475,192,175435,128,0,175488:0:0:0:0:
329,192,175646,1,0,0:0:0:0:
402,192,175646,128,0,175699:0:0:0:0:
109,192,175646,128,0,175699:0:0:0:0:
182,192,175646,1,0,0:0:0:0:
329,192,175858,128,0,175910:0:0:0:0:
36,192,175858,1,0,0:0:0:0:
182,192,175858,128,0,175910:0:0:0:0:
475,192,175858,1,0,0:0:0:0:
402,192,176069,1,0,0:0:0:0:
109,192,176069,1,0,0:0:0:0:
256,192,176069,128,0,176122:0:0:0:0:
256,192,176175,128,0,177548:0:0:0:0:
109,192,176280,1,0,0:0:0:0:
36,192,176280,1,0,0:0:0:0:
475,192,176280,128,0,176386:0:0:0:0:
402,192,176386,128,0,176491:0:0:0:0:
36,192,176491,1,0,0:0:0:0:
109,192,176491,1,0,0:0:0:0:
329,192,176491,128,0,176597:0:0:0:0:
182,192,176597,128,0,176703:0:0:0:0:
402,192,176703,1,0,0:0:0:0:
109,192,176703,128,0,176808:0:0:0:0:
36,192,176808,128,0,176914:0:0:0:0:
329,192,176808,1,0,0:0:0:0:
109,192,176914,128,0,177020:0:0:0:0:
402,192,176914,1,0,0:0:0:0:
182,192,177020,128,0,177125:0:0:0:0:
475,192,177020,1,0,0:0:0:0:
329,192,177125,128,0,177231:0:0:0:0:
109,192,177125,1,0,0:0:0:0:
36,192,177125,1,0,0:0:0:0:
402,192,177231,128,0,177336:0:0:0:0:
182,192,177231,1,0,0:0:0:0:
109,192,177336,1,0,0:0:0:0:
36,192,177336,1,0,0:0:0:0:
475,192,177336,128,0,177442:0:0:0:0:
402,192,177442,128,0,177548:0:0:0:0:
182,192,177442,1,0,0:0:0:0:
36,192,177548,128,0,177653:0:0:0:0:
329,192,177548,1,0,0:0:0:0:
475,192,177548,1,0,0:0:0:0:
109,192,177601,128,0,177706:0:0:0:0:
182,192,177653,128,0,177759:0:0:0:0:
256,192,177706,128,0,177812:0:0:0:0:
329,192,177759,128,0,177865:0:0:0:0:
402,192,177812,128,0,177917:0:0:0:0:
475,192,177865,128,0,177970:0:0:0:0:
256,192,177917,128,0,177970:0:0:0:0:
109,192,177970,128,0,178076:0:0:0:0:
182,192,177970,128,0,178076:0:0:0:0:
329,192,177970,128,0,178076:0:0:0:0:
402,192,178076,128,0,178182:0:0:0:0:
109,192,178182,128,0,178287:0:0:0:0:
36,192,178182,128,0,178287:0:0:0:0:
329,192,178182,128,0,178287:0:0:0:0:
256,192,178287,128,0,178393:0:0:0:0:
182,192,178393,128,0,178498:0:0:0:0:
109,192,178393,128,0,178498:0:0:0:0:
329,192,178393,128,0,178498:0:0:0:0:
402,192,178498,128,0,178604:0:0:0:0:
182,192,178604,128,0,178710:0:0:0:0:
256,192,178604,128,0,178710:0:0:0:0:
475,192,178604,128,0,178710:0:0:0:0:
402,192,178710,128,0,178815:0:0:0:0:
36,192,178815,128,0,178921:0:0:0:0:
182,192,178815,128,0,178921:0:0:0:0:
329,192,178815,128,0,178921:0:0:0:0:
256,192,178921,128,0,179027:0:0:0:0:
329,192,179027,128,0,179132:0:0:0:0:
475,192,179027,128,0,179132:0:0:0:0:
36,192,179027,128,0,179132:0:0:0:0:
109,192,179132,128,0,179238:0:0:0:0:
329,192,179238,128,0,179344:0:0:0:0:
402,192,179238,128,0,179344:0:0:0:0:
182,192,179238,128,0,179344:0:0:0:0:
256,192,179344,128,0,179449:0:0:0:0:
329,192,179449,128,0,179555:0:0:0:0:
109,192,179449,128,0,179555:0:0:0:0:
475,192,179449,128,0,179555:0:0:0:0:
182,192,179555,128,0,179660:0:0:0:0:
36,192,179660,128,0,179766:0:0:0:0:
402,192,179660,128,0,179766:0:0:0:0:
329,192,179660,128,0,179766:0:0:0:0:
475,192,179766,128,0,179872:0:0:0:0:
109,192,179766,128,0,179872:0:0:0:0:
402,192,179872,128,0,179977:0:0:0:0:
182,192,179872,128,0,179977:0:0:0:0:
329,192,179977,128,0,180083:0:0:0:0:
256,192,179977,128,0,180083:0:0:0:0:
109,192,180083,128,0,180189:0:0:0:0:
182,192,180083,128,0,180189:0:0:0:0:
36,192,180083,128,0,180189:0:0:0:0:
475,192,180083,128,0,180189:0:0:0:0:
329,192,180189,128,0,180294:0:0:0:0:
109,192,180294,128,0,180400:0:0:0:0:
256,192,180294,128,0,180400:0:0:0:0:
475,192,180294,128,0,180400:0:0:0:0:
329,192,180400,128,0,180506:0:0:0:0:
256,192,180506,128,0,180611:0:0:0:0:
402,192,180506,128,0,180611:0:0:0:0:
36,192,180506,128,0,180611:0:0:0:0:
182,192,180611,128,0,180717:0:0:0:0:
475,192,180717,128,0,180822:0:0:0:0:
329,192,180717,128,0,180822:0:0:0:0:
109,192,180717,128,0,180822:0:0:0:0:
182,192,180822,128,0,180928:0:0:0:0:
475,192,180928,128,0,181034:0:0:0:0:
402,192,180928,128,0,181034:0:0:0:0:
256,192,180928,128,0,181034:0:0:0:0:
109,192,180928,128,0,181034:0:0:0:0:
109,192,181139,128,0,181351:0:0:0:0:
182,192,181139,128,0,181351:0:0:0:0:
329,192,181139,128,0,181245:0:0:0:0:
402,192,181139,128,0,181245:0:0:0:0:
402,192,181351,128,0,181456:0:0:0:0:
256,192,181351,128,0,181456:0:0:0:0:
36,192,181351,128,0,181456:0:0:0:0:
329,192,181456,128,0,181562:0:0:0:0:
402,192,181562,128,0,181667:0:0:0:0:
475,192,181562,128,0,181667:0:0:0:0:
109,192,181562,128,0,181667:0:0:0:0:
256,192,181667,128,0,181773:0:0:0:0:
329,192,181773,128,0,181879:0:0:0:0:
402,192,181773,128,0,181879:0:0:0:0:
182,192,181773,128,0,181879:0:0:0:0:
109,192,181879,128,0,181984:0:0:0:0:
329,192,181984,128,0,182090:0:0:0:0:
256,192,181984,128,0,182090:0:0:0:0:
36,192,181984,128,0,182090:0:0:0:0:
109,192,182090,128,0,182196:0:0:0:0:
475,192,182196,128,0,182301:0:0:0:0:
329,192,182196,128,0,182301:0:0:0:0:
182,192,182196,128,0,182301:0:0:0:0:
256,192,182301,128,0,182407:0:0:0:0:
182,192,182407,128,0,182513:0:0:0:0:
36,192,182407,128,0,182513:0:0:0:0:
475,192,182407,128,0,182513:0:0:0:0:
402,192,182513,128,0,182618:0:0:0:0:
109,192,182618,128,0,182724:0:0:0:0:
182,192,182618,128,0,182724:0:0:0:0:
329,192,182618,128,0,182724:0:0:0:0:
256,192,182724,128,0,182829:0:0:0:0:
182,192,182829,128,0,182935:0:0:0:0:
402,192,182829,128,0,182935:0:0:0:0:
36,192,182829,128,0,182935:0:0:0:0:
329,192,182935,128,0,183041:0:0:0:0:
182,192,183041,128,0,183146:0:0:0:0:
109,192,183041,128,0,183146:0:0:0:0:
475,192,183041,128,0,183463:0:0:0:0:
36,192,183146,128,0,183252:0:0:0:0:
329,192,183146,128,0,183252:0:0:0:0:
256,192,183252,128,0,183358:0:0:0:0:
182,192,183358,128,0,183463:0:0:0:0:
109,192,183358,128,0,183463:0:0:0:0:
36,192,183463,128,0,183569:0:0:0:0:
402,192,183463,128,0,183886:0:0:0:0:
329,192,183463,128,0,183569:0:0:0:0:
182,192,183569,128,0,183675:0:0:0:0:
256,192,183675,128,0,183780:0:0:0:0:
36,192,183675,128,0,183780:0:0:0:0:
182,192,183780,128,0,183886:0:0:0:0:
109,192,183780,128,0,183886:0:0:0:0:
329,192,183886,128,0,184308:0:0:0:0:
36,192,183886,128,0,183991:0:0:0:0:
475,192,183886,128,0,183991:0:0:0:0:
256,192,183886,128,0,183991:0:0:0:0:
182,192,184097,128,0,184203:0:0:0:0:
402,192,184097,128,0,184203:0:0:0:0:
36,192,184097,128,0,184203:0:0:0:0:
109,192,184203,128,0,184308:0:0:0:0:
36,192,184308,128,0,184467:0:0:0:0:
256,192,184308,128,0,184731:0:0:0:0:
475,192,184308,128,0,184414:0:0:0:0:
109,192,184414,128,0,184572:0:0:0:0:
402,192,184414,128,0,184520:0:0:0:0:
182,192,184520,128,0,184678:0:0:0:0:
475,192,184520,128,0,184625:0:0:0:0:
329,192,184625,128,0,184784:0:0:0:0:
109,192,184625,128,0,184731:0:0:0:0:
36,192,184731,128,0,184889:0:0:0:0:
402,192,184731,128,0,185048:0:0:0:0:
182,192,184731,128,0,184836:0:0:0:0:
475,192,184731,128,0,184836:0:0:0:0:
109,192,184836,128,0,184995:0:0:0:0:
182,192,184942,128,0,185101:0:0:0:0:
329,192,184942,128,0,185048:0:0:0:0:
256,192,185048,128,0,185206:0:0:0:0:
475,192,185153,128,0,185312:0:0:0:0:
329,192,185153,128,0,185470:0:0:0:0:
36,192,185153,128,0,185259:0:0:0:0:
109,192,185153,128,0,185259:0:0:0:0:
402,192,185259,128,0,185417:0:0:0:0:
182,192,185365,128,0,185523:0:0:0:0:
256,192,185365,128,0,185470:0:0:0:0:
109,192,185470,128,0,185629:0:0:0:0:
256,192,185576,128,0,185893:0:0:0:0:
36,192,185576,128,0,185734:0:0:0:0:
402,192,185576,128,0,185682:0:0:0:0:
475,192,185576,128,0,185682:0:0:0:0:
109,192,185682,128,0,185840:0:0:0:0:
329,192,185787,128,0,185946:0:0:0:0:
182,192,185787,128,0,185893:0:0:0:0:
402,192,185893,128,0,186051:0:0:0:0:
475,192,185998,128,0,186157:0:0:0:0:
182,192,185998,128,0,186315:0:0:0:0:
256,192,185998,128,0,186104:0:0:0:0:
36,192,185998,128,0,186104:0:0:0:0:
402,192,186104,128,0,186263:0:0:0:0:
329,192,186210,128,0,186368:0:0:0:0:
109,192,186210,128,0,186315:0:0:0:0:
256,192,186315,128,0,186421:0:0:0:0:
36,192,186421,128,0,186474:0:0:0:0:
475,192,186421,128,0,186474:0:0:0:0:
109,192,186421,128,0,186527:0:0:0:0:
402,192,186421,128,0,186527:0:0:0:0:
402,192,186632,128,0,186685:0:0:0:0:
109,192,186632,128,0,186685:0:0:0:0:
182,192,186632,128,0,186738:0:0:0:0:
329,192,186632,128,0,186738:0:0:0:0:
329,192,186844,128,0,186896:0:0:0:0:
182,192,186844,128,0,186896:0:0:0:0:
475,192,186844,128,0,186949:0:0:0:0:
256,192,186844,128,0,186949:0:0:0:0:
36,192,186844,128,0,186949:0:0:0:0:
256,192,187055,128,0,187108:0:0:0:0:
109,192,187055,128,0,187160:0:0:0:0:
402,192,187055,128,0,187160:0:0:0:0:
36,192,187266,128,0,187319:0:0:0:0:
475,192,187266,128,0,187319:0:0:0:0:
329,192,187266,128,0,187372:0:0:0:0:
182,192,187266,128,0,187372:0:0:0:0:
256,192,187372,128,0,187477:0:0:0:0:
109,192,187477,128,0,187530:0:0:0:0:
402,192,187477,128,0,187530:0:0:0:0:
182,192,187477,128,0,187583:0:0:0:0:
329,192,187477,128,0,187583:0:0:0:0:
256,192,187583,128,0,187689:0:0:0:0:
182,192,187689,128,0,187741:0:0:0:0:
329,192,187689,128,0,187741:0:0:0:0:
36,192,187689,128,0,187794:0:0:0:0:
475,192,187689,128,0,187794:0:0:0:0:
109,192,187900,128,0,188006:0:0:0:0:
256,192,187900,128,0,188006:0:0:0:0:
402,192,187900,128,0,188006:0:0:0:0:
182,192,188111,128,0,188322:0:0:0:0:
36,192,188111,128,0,188322:0:0:0:0:
402,192,188111,128,0,188217:0:0:0:0:
329,192,188217,128,0,188375:0:0:0:0:
109,192,188322,128,0,188481:0:0:0:0:
475,192,188322,128,0,188481:0:0:0:0:
256,192,188428,128,0,188586:0:0:0:0:
36,192,188534,128,0,188745:0:0:0:0:
402,192,188534,128,0,188745:0:0:0:0:
182,192,188639,128,0,188798:0:0:0:0:
109,192,188745,128,0,188956:0:0:0:0:
329,192,188745,128,0,188903:0:0:0:0:
256,192,188851,128,0,188956:0:0:0:0:
475,192,188956,128,0,189027:0:0:0:0:
182,192,188956,128,0,189027:0:0:0:0:
329,192,189027,128,0,189097:0:0:0:0:
36,192,189097,128,0,189167:0:0:0:0:
182,192,189097,128,0,189167:0:0:0:0:
329,192,189167,128,0,189238:0:0:0:0:
475,192,189167,128,0,189238:0:0:0:0:
182,192,189238,128,0,189308:0:0:0:0:
329,192,189308,128,0,189379:0:0:0:0:
36,192,189308,128,0,189379:0:0:0:0:
256,192,189379,128,0,189590:0:0:0:0:
475,192,189379,1,0,0:0:0:0:
109,192,189379,1,0,0:0:0:0:
36,192,189590,1,0,0:0:0:0:
182,192,189590,1,0,0:0:0:0:
475,192,189590,1,0,0:0:0:0:
329,192,189590,1,0,0:0:0:0:
36,192,189801,128,0,190065:0:0:0:0:
402,192,189801,128,0,190065:0:0:0:0:
475,192,189801,1,0,0:0:0:0:
256,192,189801,1,0,0:0:0:0:
182,192,189907,128,0,190171:0:0:0:0:
329,192,190013,128,0,190277:0:0:0:0:
256,192,190013,1,0,0:0:0:0:
109,192,190013,128,0,190277:0:0:0:0:
475,192,190118,128,0,190382:0:0:0:0:
36,192,190224,128,0,190488:0:0:0:0:
402,192,190224,128,0,190488:0:0:0:0:
256,192,190224,1,0,0:0:0:0:
182,192,190329,128,0,190594:0:0:0:0:
256,192,190435,1,0,0:0:0:0:
329,192,190435,128,0,190699:0:0:0:0:
109,192,190435,128,0,190699:0:0:0:0:
475,192,190541,128,0,190805:0:0:0:0:
36,192,190646,128,0,190805:0:0:0:0:
256,192,190646,1,0,0:0:0:0:
402,192,190646,128,0,190805:0:0:0:0:
182,192,190858,1,0,0:0:0:0:
36,192,190858,1,0,0:0:0:0:
256,192,190858,1,0,0:0:0:0:
475,192,190858,1,0,0:0:0:0:
329,192,190858,1,0,0:0:0:0:
109,192,191069,1,0,0:0:0:0:
402,192,191069,1,0,0:0:0:0:
329,192,191069,1,0,0:0:0:0:
182,192,191175,1,0,0:0:0:0:
256,192,191175,1,0,0:0:0:0:
475,192,191280,1,0,0:0:0:0:
36,192,191280,1,0,0:0:0:0:
402,192,191386,1,0,0:0:0:0:
109,192,191386,1,0,0:0:0:0:
256,192,191491,1,0,0:0:0:0:
182,192,191491,1,0,0:0:0:0:
329,192,191491,128,0,191703:0:0:0:0:
402,192,191597,128,0,191703:0:0:0:0:
475,192,191703,128,0,191914:0:0:0:0:
109,192,191703,1,0,0:0:0:0:
402,192,191808,128,0,191914:0:0:0:0:
329,192,191914,1,0,0:0:0:0:
36,192,191914,128,0,192125:0:0:0:0:
256,192,191914,1,0,0:0:0:0:
109,192,192020,128,0,192125:0:0:0:0:
182,192,192125,128,0,192336:0:0:0:0:
402,192,192125,1,0,0:0:0:0:
109,192,192231,128,0,192336:0:0:0:0:
475,192,192336,128,0,192442:0:0:0:0:
36,192,192336,128,0,192442:0:0:0:0:
329,192,192336,1,0,0:0:0:0:
256,192,192442,128,0,192548:0:0:0:0:
109,192,192548,1,0,0:0:0:0:
402,192,192548,1,0,0:0:0:0:
182,192,192759,128,0,192865:0:0:0:0:
329,192,192759,128,0,192865:0:0:0:0:
36,192,192759,1,0,0:0:0:0:
475,192,192759,1,0,0:0:0:0:
256,192,192865,128,0,192970:0:0:0:0:
36,192,192970,128,0,193076:0:0:0:0:
475,192,192970,128,0,193076:0:0:0:0:
329,192,193076,128,0,193182:0:0:0:0:
109,192,193182,128,0,193393:0:0:0:0:
256,192,193182,1,0,0:0:0:0:
402,192,193182,1,0,0:0:0:0:
182,192,193287,128,0,193393:0:0:0:0:
256,192,193393,128,0,193604:0:0:0:0:
475,192,193393,1,0,0:0:0:0:
182,192,193498,128,0,193604:0:0:0:0:
109,192,193604,1,0,0:0:0:0:
402,192,193604,128,0,193815:0:0:0:0:
36,192,193604,1,0,0:0:0:0:
329,192,193710,128,0,193815:0:0:0:0:
256,192,193815,128,0,194027:0:0:0:0:
109,192,193815,1,0,0:0:0:0:
329,192,193921,128,0,194027:0:0:0:0:
36,192,194027,128,0,194132:0:0:0:0:
402,192,194027,128,0,194132:0:0:0:0:
256,192,194132,128,0,194238:0:0:0:0:
109,192,194238,1,0,0:0:0:0:
475,192,194238,1,0,0:0:0:0:
182,192,194344,1,0,0:0:0:0:
329,192,194344,1,0,0:0:0:0:
402,192,194449,1,0,0:0:0:0:
36,192,194449,1,0,0:0:0:0:
182,192,194555,1,0,0:0:0:0:
475,192,194555,1,0,0:0:0:0:
109,192,194660,1,0,0:0:0:0:
329,192,194660,1,0,0:0:0:0:
182,192,194766,1,0,0:0:0:0:
402,192,194766,1,0,0:0:0:0:
256,192,194872,1,0,0:0:0:0:
475,192,194872,1,0,0:0:0:0:
182,192,194977,1,0,0:0:0:0:
402,192,194977,1,0,0:0:0:0:
329,192,195083,1,0,0:0:0:0:
109,192,195083,1,0,0:0:0:0:
36,192,195189,1,0,0:0:0:0:
256,192,195189,1,0,0:0:0:0:
109,192,195294,1,0,0:0:0:0:
329,192,195294,1,0,0:0:0:0:
182,192,195400,1,0,0:0:0:0:
402,192,195400,1,0,0:0:0:0:
256,192,195506,1,0,0:0:0:0:
475,192,195506,1,0,0:0:0:0:
402,192,195611,1,0,0:0:0:0:
182,192,195611,1,0,0:0:0:0:
329,192,195717,1,0,0:0:0:0:
109,192,195717,1,0,0:0:0:0:
36,192,195822,1,0,0:0:0:0:
256,192,195822,1,0,0:0:0:0:
109,192,195928,1,0,0:0:0:0:
329,192,195928,1,0,0:0:0:0:
182,192,196034,1,0,0:0:0:0:
402,192,196034,1,0,0:0:0:0:
256,192,196139,1,0,0:0:0:0:
475,192,196139,1,0,0:0:0:0:
402,192,196245,1,0,0:0:0:0:
182,192,196245,1,0,0:0:0:0:
329,192,196351,1,0,0:0:0:0:
109,192,196351,1,0,0:0:0:0:
256,192,196456,1,0,0:0:0:0:
36,192,196456,1,0,0:0:0:0:
182,192,196562,1,0,0:0:0:0:
109,192,196562,1,0,0:0:0:0:
475,192,196562,128,0,196615:0:0:0:0:
402,192,196615,128,0,196667:0:0:0:0:
329,192,196667,128,0,196720:0:0:0:0:
256,192,196720,128,0,196773:0:0:0:0:
182,192,196773,128,0,196826:0:0:0:0:
475,192,196773,1,0,0:0:0:0:
402,192,196773,1,0,0:0:0:0:
109,192,196826,128,0,196879:0:0:0:0:
36,192,196879,128,0,196932:0:0:0:0:
475,192,196984,128,0,197037:0:0:0:0:
182,192,196984,1,0,0:0:0:0:
109,192,196984,1,0,0:0:0:0:
402,192,197037,128,0,197090:0:0:0:0:
329,192,197090,128,0,197143:0:0:0:0:
256,192,197143,128,0,197196:0:0:0:0:
182,192,197196,128,0,197248:0:0:0:0:
475,192,197196,1,0,0:0:0:0:
402,192,197196,1,0,0:0:0:0:
109,192,197248,128,0,197301:0:0:0:0:
36,192,197301,128,0,197354:0:0:0:0:
109,192,197354,128,0,197460:0:0:0:0:
182,192,197407,128,0,197513:0:0:0:0:
475,192,197407,1,0,0:0:0:0:
402,192,197407,1,0,0:0:0:0:
256,192,197460,128,0,197565:0:0:0:0:
329,192,197513,128,0,197618:0:0:0:0:
402,192,197565,128,0,197671:0:0:0:0:
475,192,197618,128,0,197724:0:0:0:0:
182,192,197618,1,0,0:0:0:0:
256,192,197618,1,0,0:0:0:0:
36,192,197671,128,0,197777:0:0:0:0:
109,192,197724,128,0,197829:0:0:0:0:
182,192,197777,128,0,197882:0:0:0:0:
256,192,197829,128,0,197935:0:0:0:0:
475,192,197829,1,0,0:0:0:0:
36,192,197829,1,0,0:0:0:0:
329,192,197882,128,0,197988:0:0:0:0:
402,192,197935,128,0,198041:0:0:0:0:
475,192,197988,128,0,198094:0:0:0:0:
36,192,198041,128,0,198146:0:0:0:0:
256,192,198041,1,0,0:0:0:0:
329,192,198041,1,0,0:0:0:0:
109,192,198094,128,0,198199:0:0:0:0:
182,192,198146,128,0,198252:0:0:0:0:
256,192,198199,128,0,198252:0:0:0:0:
36,192,198252,128,0,198305:0:0:0:0:
402,192,198252,128,0,198305:0:0:0:0:
475,192,198252,128,0,198305:0:0:0:0:
109,192,198569,128,0,198622:0:0:0:0:
402,192,198569,128,0,198622:0:0:0:0:
475,192,198569,128,0,198622:0:0:0:0:
182,192,198780,128,0,198886:0:0:0:0:
402,192,198780,128,0,198886:0:0:0:0:
329,192,198780,128,0,198886:0:0:0:0:
109,192,198780,128,0,198886:0:0:0:0:
256,192,198886,128,0,199097:0:0:0:0:
109,192,199097,128,0,199308:0:0:0:0:
402,192,199097,128,0,199308:0:0:0:0:
182,192,199308,128,0,199520:0:0:0:0:
329,192,199308,128,0,199520:0:0:0:0:
256,192,199520,128,0,199731:0:0:0:0:
109,192,199731,128,0,199836:0:0:0:0:
475,192,199731,1,0,0:0:0:0:
402,192,199731,1,0,0:0:0:0:
256,192,199836,128,0,199942:0:0:0:0:
109,192,199942,128,0,199995:0:0:0:0:
36,192,199942,128,0,199995:0:0:0:0:
475,192,199942,128,0,199995:0:0:0:0:
402,192,199942,128,0,200048:0:0:0:0:
329,192,200048,128,0,200153:0:0:0:0:
256,192,200153,128,0,200259:0:0:0:0:
36,192,200259,128,0,200312:0:0:0:0:
402,192,200259,128,0,200312:0:0:0:0:
109,192,200259,128,0,200312:0:0:0:0:
182,192,200259,128,0,200365:0:0:0:0:
256,192,200365,128,0,200470:0:0:0:0:
109,192,200470,128,0,200576:0:0:0:0:
182,192,200470,128,0,200576:0:0:0:0:
329,192,200470,128,0,200576:0:0:0:0:
402,192,200470,128,0,200576:0:0:0:0:
256,192,200576,128,0,200787:0:0:0:0:
109,192,200787,128,0,200998:0:0:0:0:
402,192,200787,128,0,200998:0:0:0:0:
182,192,200998,128,0,201210:0:0:0:0:
329,192,200998,128,0,201210:0:0:0:0:
475,192,200998,1,0,0:0:0:0:
36,192,201104,1,0,0:0:0:0:
256,192,201210,128,0,201421:0:0:0:0:
475,192,201210,1,0,0:0:0:0:
109,192,201210,128,0,201421:0:0:0:0:
402,192,201210,128,0,201421:0:0:0:0:
