osu file format v12

[General]
AudioFilename: Ryuuko Mixer (Denpa Onna to Seishun Otoko x Oklahoma Mixer).mp3
AudioLeadIn: 0
PreviewTime: 15274
Countdown: 0
SampleSet: Soft
StackLeniency: 0.7
Mode: 0
LetterboxInBreaks: 0
WidescreenStoryboard: 1

[Editor]
DistanceSpacing: 0.8
BeatDivisor: 2
GridSize: 4

[Metadata]
Title:Ryuuko Mixer
TitleUnicode:リュウコミキサー
Artist:nain tou
ArtistUnicode:ナイン投
Creator:Stefan
Version:Normal
Source:電波女と青春男
Tags:oklahoma mifune thenutritiousguy niconicodouga mad nico douga denpa onna to seishun otoko
BeatmapID:179973
BeatmapSetID:60167

[Difficulty]
HPDrainRate:4
CircleSize:4
OverallDifficulty:5
ApproachRate:5
SliderMultiplier:1.1
SliderTickRate:2

[Events]
//Background and Video events
0,0,"BG.jpg",0,0
Video,0,"HEY.avi"
//Break Periods
//Storyboard Layer 0 (Background)
//Storyboard Layer 1 (Fail)
//Storyboard Layer 2 (Pass)
//Storyboard Layer 3 (Foreground)
//Storyboard Sound Samples
//Background Colour Transformations
3,100,163,162,255

[TimingPoints]
2156,326.086956521739,4,2,0,70,1,0
4764,-100,4,2,1,70,0,0
8677,-100,4,2,0,70,0,0
9003,-100,4,2,1,70,0,0
9329,-100,4,2,0,70,0,0
10960,-100,4,2,1,70,0,0
11286,-100,4,2,0,70,0,0
11612,-100,4,2,1,70,0,0
11938,-100,4,2,0,70,0,0
12264,-100,4,2,1,70,0,0
14547,-100,4,2,0,70,0,0
25628,361.44578313253,4,2,0,70,1,0
26350,327.868852459016,4,2,0,70,1,0
26677,300,4,2,0,70,1,0
27277,320.855614973262,4,2,0,70,1,0
27918,303.030303030303,4,2,0,70,1,0
28221,326.086956521739,4,2,1,70,1,0
32134,-100,4,2,0,70,0,0
32460,-100,4,2,1,70,0,0
32786,-100,4,2,0,70,0,0
34416,-100,4,2,1,70,0,0
34742,-100,4,2,0,70,0,0
35068,-100,4,2,1,70,0,0
35394,-100,4,2,0,70,0,0
35721,-100,4,2,1,70,0,0
38003,-100,4,2,0,70,0,0
38655,-100,4,2,0,40,0,0

[Colours]
Combo1 : 168,101,34
Combo2 : 4,200,4
Combo3 : 21,140,204
Combo4 : 250,145,29

[HitObjects]
128,200,2156,2,0,P|76:212|48:260,1,110,2|2,0:0|0:0,0:0:0:0:
48,346,2808,2,0,P|100:334|128:282,1,110,2|2,0:0|0:0,0:0:0:0:
171,287,3297,2,0,P|198:333|250:345,1,110,2|2,0:0|0:0,0:0:0:0:
294,344,3786,2,0,L|352:343,2,55,0|0|2,0:0|0:0|0:0,0:0:0:0:
324,260,4438,1,0,0:0:0:0:
296,176,4764,6,0,B|280:104|208:104|208:104|112:104,1,220,4|0,0:0|0:0,0:0:0:0:
84,188,5742,1,2,0:0:0:0:
112,272,6069,2,0,B|128:344|200:344|200:344|296:344,1,220,0|0,0:0|0:0,0:0:0:0:
380,328,7047,1,10,0:0:0:0:
448,268,7373,6,0,P|424:168|320:144,1,220,2|2,0:0|0:0,0:0:0:0:
240,176,8351,1,8,0:0:0:0:
188,104,8677,1,2,0:0:0:0:
236,32,9003,1,0,0:0:0:0:
320,56,9329,1,2,0:0:0:0:
296,232,9982,6,0,B|232:276|180:225|180:225|120:296,1,220,2|2,0:0|0:0,0:0:0:0:
48,344,10960,1,8,0:0:0:0:
12,264,11286,2,0,P|0:211|19:160,1,110,2|8,0:0|0:0,0:0:0:0:
88,216,11938,2,0,P|107:165|95:112,1,110,2|8,0:0|0:0,0:0:0:0:
20,68,12590,6,0,P|112:28|184:108,1,220,2|0,0:0|0:0,0:0:0:0:
256,156,13569,1,8,0:0:0:0:
344,140,13895,1,2,0:0:0:0:
420,300,14547,1,2,0:0:0:0:
248,340,15199,6,0,B|192:364|148:320|148:320|132:252|60:248,1,220,2|0,0:3|0:0,0:0:0:0:
88,164,16177,1,0,0:0:0:0:
144,96,16503,2,0,P|236:44|336:84,1,220,2|2,0:0|0:0,0:0:0:0:
476,188,17808,6,0,B|432:224|372:212|372:212|388:272|340:312,1,220,2|0,0:3|0:0,0:0:0:0:
292,240,18786,1,0,0:0:0:0:
256,320,19112,2,0,B|200:284|208:224|208:224|108:260,1,220,2|2,0:0|0:0,0:0:0:0:
104,84,20416,5,2,0:0:0:0:
184,120,20742,1,0,0:0:0:0:
268,88,21069,2,0,P|372:104|412:204,1,220,8|2,0:0|0:0,0:0:0:0:
400,288,22047,1,0,0:0:0:0:
324,336,22373,1,0,0:0:0:0:
152,292,23025,6,0,B|112:249|145:191|145:191|112:137|156:89,1,220,2|2,0:0|0:0,0:0:0:0:
328,116,24329,1,2,0:0:0:0:
372,192,24655,1,2,0:0:0:0:
328,268,24982,1,8,0:0:0:0:
256,192,25628,12,2,26977,0:0:0:0:
444,104,28221,6,0,P|356:44|244:64,1,220,4|0,0:0|0:0,0:0:0:0:
164,80,29199,1,8,0:0:0:0:
76,72,29525,2,0,P|16:160|36:272,1,220,2|0,0:0|0:0,0:0:0:0:
95,329,30503,1,8,0:0:0:0:
180,344,30829,6,0,P|286:360|374:300,1,220,2|2,0:0|0:0,0:0:0:0:
400,216,31807,1,8,0:0:0:0:
360,136,32134,1,2,0:0:0:0:
276,112,32460,1,0,0:0:0:0:
200,156,32786,1,2,0:0:0:0:
75,280,33438,6,0,B|16:202|120:150|60:68,1,220,2|2,0:0|0:0,0:0:0:0:
140,28,34416,1,8,0:0:0:0:
220,60,34742,2,0,B|272:84|328:60,1,110,2|2,0:0|0:0,0:0:0:0:
388,124,35394,2,0,P|404:176|384:228,1,110,2|2,0:0|0:0,0:0:0:0:
316,172,36047,6,0,P|216:154|168:246,1,220,2|0,0:0|0:0,0:0:0:0:
224,316,37025,1,2,0:0:0:0:
256,236,37351,1,8,0:0:0:0:
168,84,38003,1,2,0:0:0:0:
344,84,38655,1,4,0:0:0:0:
