osu file format v14

[General]
AudioFilename: 10. End Of Daylight(REDALiCE Remix).mp3
AudioLeadIn: 0
PreviewTime: -1
Countdown: 1
SampleSet: Normal
StackLeniency: 0.2
Mode: 0
LetterboxInBreaks: 1
WidescreenStoryboard: 0

[Editor]
DistanceSpacing: 1.2
BeatDivisor: 4
GridSize: 8
TimelineZoom: 1.4

[Metadata]
Title:End Of Daylight(REDALiCE Remix)
TitleUnicode:End Of Daylight(REDALiCE Remix)
Artist:nachi
ArtistUnicode:nachi
Creator:Twinkle Turkey
Version:?
Source:
Tags:
BeatmapID:675918
BeatmapSetID:301423

[Difficulty]
HPDrainRate:6
CircleSize:4
OverallDifficulty:6
ApproachRate:9.4
SliderMultiplier:1.4
SliderTickRate:1

[Events]
//Background and Video events
//Break Periods
//Storyboard Layer 0 (Background)
//Storyboard Layer 1 (Fail)
//Storyboard Layer 2 (Pass)
//Storyboard Layer 3 (Foreground)
//Storyboard Sound Samples

[TimingPoints]
418,342.857142857143,4,1,0,100,1,0
20989,-66.6666666666667,4,1,0,100,0,0
21246,-66.6666666666667,4,1,0,5,0,0
21332,-66.6666666666667,4,1,0,100,0,0
21589,-66.6666666666667,4,1,0,5,0,0
21675,-66.6666666666667,4,1,0,100,0,0
21932,-66.6666666666667,4,1,0,5,0,0
22018,-66.6666666666667,4,1,0,100,0,0
22275,-66.6666666666667,4,1,0,5,0,0
22360,-66.6666666666667,4,1,0,100,0,0
23046,-100,4,1,0,100,0,0
24075,-66.6666666666667,4,1,0,100,0,0
25103,-133.333333333333,4,1,0,100,0,0
28532,-100,4,1,0,100,0,0
33246,-133.333333333333,4,1,0,5,0,0
33332,-133.333333333333,4,1,0,100,0,0
38818,-100,4,1,0,100,0,0
42932,-100,4,1,0,5,0,0
43275,-100,4,1,0,100,0,0
43618,-50,4,1,0,100,0,0
55275,-66.6666666666667,4,1,0,100,0,0
55446,-66.6666666666667,4,1,0,5,0,0
55618,-66.6666666666667,4,1,0,100,0,0
55789,-66.6666666666667,4,1,0,5,0,0
55960,-66.6666666666667,4,1,0,100,0,0
56132,-66.6666666666667,4,1,0,5,0,0
56303,-66.6666666666667,4,1,0,100,0,0
56475,-66.6666666666667,4,1,0,5,0,0
56646,-66.6666666666667,4,1,0,100,0,0
56818,-66.6666666666667,4,1,0,5,0,0
56989,-66.6666666666667,4,1,0,100,0,0
57160,-66.6666666666667,4,1,0,5,0,0
57332,-66.6666666666667,4,1,0,100,0,0
57503,-66.6666666666667,4,1,0,5,0,0
57675,-66.6666666666667,4,1,0,100,0,0
57846,-66.6666666666667,4,1,0,5,0,0
58018,-66.6666666666667,4,1,0,100,0,0
58189,-66.6666666666667,4,1,0,5,0,0
58360,-66.6666666666667,4,1,0,100,0,0
58532,-66.6666666666667,4,1,0,5,0,0
58703,-66.6666666666667,4,1,0,100,0,0
58875,-66.6666666666667,4,1,0,5,0,0
59046,-66.6666666666667,4,1,0,100,0,0
59218,-66.6666666666667,4,1,0,5,0,0
59389,-66.6666666666667,4,1,0,100,0,0
69503,-200,4,1,0,100,0,0
71732,-66.6666666666667,4,1,0,100,0,0
74989,-200,4,1,0,100,0,0
77218,-100,4,1,0,100,0,0
109789,-200,4,1,0,100,0,0
110132,-66.6666666666667,4,1,0,100,0,0
119732,-200,4,1,0,5,0,0
120760,-66.6666666666667,4,1,0,100,0,0
137560,-62.5,4,1,0,100,0,0
163618,-68.9655172413793,4,1,0,100,0,0
163960,-76.9230769230769,4,1,0,100,0,0
164303,-86.9565217391304,4,1,0,100,0,0
164646,-100,4,1,0,100,0,0
185560,-100,4,1,0,5,0,0
186075,-50,4,1,0,100,0,0
191732,-66.6666666666667,4,1,0,100,0,0
192418,-50,4,1,0,100,0,0
196360,-100,4,1,0,100,0,0
208875,-100,4,1,0,100,0,0
231846,-90.9090909090909,4,1,0,100,0,0
233560,-83.3333333333333,4,1,0,100,0,0
234589,-76.9230769230769,4,1,0,100,0,0
236303,-71.4285714285714,4,1,0,100,0,0
261503,-66.6666666666667,4,1,0,100,0,0
262018,-62.5,4,1,0,100,0,0
262532,-58.8235294117647,4,1,0,100,0,0
263732,-66.6666666666667,4,1,0,100,0,0
296303,-100,4,1,0,100,0,0

[HitObjects]
256,96,418,6,0,B|320:128|352:128|384:160,1,140
267,239,932,1,0,0:0:0:0:
256,96,1103,1,0,0:0:0:0:
180,261,1446,1,0,0:0:0:0:
166,79,1789,1,0,0:0:0:0:
256,96,1960,2,0,L|179:93,1,70
256,96,2303,2,0,L|188:140,1,70
256,96,2646,1,0,0:0:0:0:
277,136,2732,1,0,0:0:0:0:
312,164,2818,2,0,B|329:201|336:260|361:272,1,105
349,261,3160,6,0,B|376:203|422:163|419:118,1,140
276,135,3675,1,0,0:0:0:0:
349,261,3846,1,0,0:0:0:0:
167,278,4189,1,0,0:0:0:0:
232,107,4532,2,0,P|267:85|286:51,1,70
349,261,4875,2,0,P|350:302|370:335,1,70
166,279,5218,2,0,P|129:259|90:260,1,70
59,275,5475,1,0,0:0:0:0:
45,318,5560,1,0,0:0:0:0:
62,144,5732,1,0,0:0:0:0:
167,278,5903,6,0,P|208:262|196:170,1,140
317,265,6418,1,0,0:0:0:0:
167,279,6589,1,0,0:0:0:0:
136,99,6932,1,0,0:0:0:0:
311,148,7275,1,0,0:0:0:0:
347,268,7446,1,0,0:0:0:0:
266,261,7618,1,0,0:0:0:0:
144,232,7789,1,0,0:0:0:0:
190,166,7960,1,0,0:0:0:0:
276,75,8131,1,0,0:0:0:0:
263,42,8218,1,0,0:0:0:0:
292,24,8303,2,0,P|337:48|380:88,1,105
377,85,8646,6,0,P|414:107|410:210,1,140
280,204,9160,1,0,0:0:0:0:
377,85,9332,1,0,0:0:0:0:
453,250,9675,1,0,0:0:0:0:
377,85,10018,1,0,0:0:0:0:
185,128,10189,1,0,0:0:0:0:
156,212,10360,1,0,0:0:0:0:
346,177,10532,1,0,0:0:0:0:
303,259,10703,1,0,0:0:0:0:
125,302,10875,2,0,L|77:326,2,35
185,128,11218,1,0,0:0:0:0:
377,85,11389,6,0,P|313:120|292:208,1,140
93,180,11903,1,0,0:0:0:0:
220,332,12075,1,0,0:0:0:0:
450,173,12418,1,0,0:0:0:0:
199,48,12760,1,0,0:0:0:0:
199,48,12932,1,0,0:0:0:0:
220,332,13275,1,0,0:0:0:0:
450,173,13618,1,0,0:0:0:0:
450,173,13703,1,0,0:0:0:0:
450,173,13789,1,0,0:0:0:0:
450,173,14132,6,0,B|388:143|340:157|286:135,1,140
158,285,14646,1,0,0:0:0:0:
126,77,14818,1,0,0:0:0:0:
393,156,15160,1,0,0:0:0:0:
190,349,15503,1,0,0:0:0:0:
190,349,15675,1,0,0:0:0:0:
126,77,16018,1,0,0:0:0:0:
393,156,16360,1,0,0:0:0:0:
393,156,16446,1,0,0:0:0:0:
393,156,16532,1,0,0:0:0:0:
440,291,16875,6,0,P|361:268|315:301,1,140
235,97,17389,1,0,0:0:0:0:
49,124,17560,6,0,P|45:183|105:228,1,140
235,97,18075,1,0,0:0:0:0:
465,45,18246,6,0,B|439:102|447:168|387:190,1,140
235,97,18760,1,0,0:0:0:0:
51,280,18932,6,0,P|112:296|173:352,1,140
235,97,19446,1,0,0:0:0:0:
344,136,19618,5,0,0:0:0:0:
416,237,19789,1,0,0:0:0:0:
95,237,19960,1,0,0:0:0:0:
168,136,20131,1,0,0:0:0:0:
396,83,20303,5,0,0:0:0:0:
340,192,20475,1,0,0:0:0:0:
172,192,20646,1,0,0:0:0:0:
116,83,20818,1,0,0:0:0:0:
254,325,20989,6,0,P|331:281|417:321,1,157.500006008148
461,261,21332,2,0,P|386:213|275:220,1,157.500006008148
313,136,21675,2,0,B|379:131|413:147|413:147|425:133|425:106|390:97,1,157.500006008148
306,61,22018,2,0,P|248:98|261:192,1,157.500006008148
223,247,22360,5,0,0:0:0:0:
31,170,22703,2,0,P|57:112|121:96,1,105.000004005432
355,261,23046,2,0,B|388:258|432:208|484:198,2,140
184,57,24075,2,0,P|181:101|142:154,1,105.000004005432
256,94,24418,2,0,P|309:71|296:180,1,210.000008010865
128,256,25103,6,0,B|160:192|224:256|256:184|256:184|288:256|352:192|384:256,1,315.000012016297
168,160,26475,1,0,0:0:0:0:
256,64,26818,1,0,0:0:0:0:
344,160,27160,1,0,0:0:0:0:
256,64,27503,1,0,0:0:0:0:
256,184,27846,2,0,B|264:224|248:264|256:304,1,105.000004005432
327,171,28532,2,0,P|426:142|400:268,1,280
256,184,29560,1,0,0:0:0:0:
185,171,29903,2,0,P|86:142|112:268,1,280
256,192,30675,12,0,31618,0:0:0:0:
376,144,31960,5,0,0:0:0:0:
376,144,32132,1,0,0:0:0:0:
376,144,32303,1,0,0:0:0:0:
376,144,32475,1,0,0:0:0:0:
202,67,32646,1,0,0:0:0:0:
167,156,32817,1,0,0:0:0:0:
256,192,32988,1,0,0:0:0:0:
291,103,33160,1,0,0:0:0:0:
256,192,33332,6,0,P|288:160|288:96,1,105.000004005432
217,110,34018,2,0,P|248:44|291:30,1,105.000004005432
291,103,34703,2,0,B|320:133|336:143|361:147|361:147|354:176|336:183,1,105.000004005432
289,202,35389,2,0,B|326:247|373:237|373:237|382:255|381:268,1,105.000004005432
448,240,36075,6,0,B|456:310|378:346|325:305|325:305|276:289|216:276|216:276|202:291|214:319,1,315.000012016297
159,355,37446,2,0,B|117:306|142:223|197:208|197:208|275:180|240:99|222:81,1,315.000012016297
336,80,38818,6,0,L|400:144,1,70
320,208,39160,2,0,L|256:144,1,70
96,80,39503,2,0,P|64:112|64:160,1,70
112,208,39846,2,0,P|144:176|144:128,1,70
224,80,40189,5,0,0:0:0:0:
288,144,40360,1,0,0:0:0:0:
352,224,40532,1,0,0:0:0:0:
416,304,40703,1,0,0:0:0:0:
288,288,40875,5,0,0:0:0:0:
325,200,41046,1,0,0:0:0:0:
452,193,41218,1,0,0:0:0:0:
480,96,41389,1,0,0:0:0:0:
352,80,41560,5,0,0:0:0:0:
327,59,41645,1,0,0:0:0:0:
299,46,41731,1,0,0:0:0:0:
268,40,41817,1,0,0:0:0:0:
237,42,41902,1,0,0:0:0:0:
207,51,41988,1,0,0:0:0:0:
180,68,42074,1,0,0:0:0:0:
159,91,42159,1,0,0:0:0:0:
150,121,42245,5,0,0:0:0:0:
176,136,42331,1,0,0:0:0:0:
199,157,42417,1,0,0:0:0:0:
215,185,42502,1,0,0:0:0:0:
223,214,42588,1,0,0:0:0:0:
224,246,42674,1,0,0:0:0:0:
217,277,42759,1,0,0:0:0:0:
204,305,42845,1,0,0:0:0:0:
184,329,42932,6,0,L|160:320,2,17.5
136,344,43103,2,0,L|128:328,2,17.5
392,40,43446,1,0,0:0:0:0:
304,344,43618,2,0,P|360:216|320:184,1,210
184,196,43960,2,0,P|139:110|208:40,1,210
288,48,44303,5,0,0:0:0:0:
423,209,44475,1,0,0:0:0:0:
222,148,44646,1,0,0:0:0:0:
355,310,44818,1,0,0:0:0:0:
446,95,44989,2,0,P|391:52|332:195,1,280
377,131,45503,1,0,0:0:0:0:
97,308,45675,1,0,0:0:0:0:
311,75,45846,1,0,0:0:0:0:
53,232,46018,2,0,B|131:191|131:191|161:239|241:250|296:135|197:109,1,280
83,115,46532,1,0,0:0:0:0:
179,307,46703,1,0,0:0:0:0:
236,132,46875,1,0,0:0:0:0:
83,115,47046,6,0,B|153:106|186:53|186:54|276:9|324:114,1,280
236,132,47560,1,0,0:0:0:0:
467,30,47732,1,0,0:0:0:0:
441,280,47903,1,0,0:0:0:0:
236,132,48075,2,0,P|163:75|115:208,1,280
365,196,48589,1,0,0:0:0:0:
189,376,48760,1,0,0:0:0:0:
162,150,48932,1,0,0:0:0:0:
372,286,49103,2,0,P|432:263|458:185,1,140
359,100,49446,2,0,P|299:123|273:201,1,140
365,196,49789,5,0,0:0:0:0:
365,28,49960,1,0,0:0:0:0:
196,28,50132,1,0,0:0:0:0:
196,195,50303,1,0,0:0:0:0:
365,196,50475,2,0,P|376:118|396:213,1,280
266,74,50989,1,0,0:0:0:0:
127,212,51160,1,0,0:0:0:0:
266,351,51332,1,0,0:0:0:0:
404,212,51503,2,0,P|449:156|320:37,1,280
121,148,52018,5,0,0:0:0:0:
356,120,52189,1,0,0:0:0:0:
449,338,52360,1,0,0:0:0:0:
308,192,52532,2,0,P|266:112|417:53,1,280
356,120,53046,1,0,0:0:0:0:
67,320,53389,1,0,0:0:0:0:
68,47,53732,1,0,0:0:0:0:
254,193,53903,5,0,0:0:0:0:
379,151,54075,1,0,0:0:0:0:
400,132,54160,1,0,0:0:0:0:
410,105,54246,1,0,0:0:0:0:
254,193,54418,1,0,0:0:0:0:
140,61,54589,2,0,P|216:80|270:126,1,140
372,323,54932,2,0,P|296:304|242:258,1,140
432,249,55275,6,0,P|360:213|322:207,1,105.000004005432,0|4,0:0|0:0,0:0:0:0:
80,135,55618,2,0,P|152:171|190:177,1,105.000004005432,0|4,0:0|0:0,0:0:0:0:
329,144,55960,5,0,0:0:0:0:
426,121,56132,1,0,0:0:0:0:
181,239,56303,1,0,0:0:0:0:
84,261,56475,1,0,0:0:0:0:
342,28,56646,6,0,P|276:74|282:129,1,105.000004005432,0|4,0:0|0:0,0:0:0:0:
169,355,56989,2,0,P|236:310|229:254,1,105.000004005432,0|4,0:0|0:0,0:0:0:0:
184,95,57332,5,0,0:0:0:0:
253,53,57503,1,0,0:0:0:0:
328,289,57675,1,0,0:0:0:0:
259,331,57846,1,0,0:0:0:0:
109,78,58018,6,0,P|86:142|145:174,1,105.000004005432,0|4,0:0|0:0,0:0:0:0:
402,305,58360,2,0,P|426:242|367:210,1,105.000004005432,0|4,0:0|0:0,0:0:0:0:
97,288,58703,5,0,0:0:0:0:
70,198,58875,1,0,0:0:0:0:
413,95,59046,1,0,0:0:0:0:
441,185,59218,1,0,0:0:0:0:
181,145,59389,5,0,0:0:0:0:
165,51,59560,1,0,0:0:0:0:
331,239,59732,1,0,0:0:0:0:
347,333,59903,1,0,0:0:0:0:
181,145,60075,2,0,B|241:143|256:84|256:84|271:142|332:147,1,210.000008010865
256,319,60760,5,0,0:0:0:0:
115,161,60932,1,0,0:0:0:0:
331,239,61103,1,0,0:0:0:0:
195,77,61275,1,0,0:0:0:0:
256,319,61446,2,0,B|199:294|154:316|87:331|41:283,1,210.000008010865
242,203,61960,1,0,0:0:0:0:
394,57,62132,1,0,0:0:0:0:
460,130,62303,1,0,0:0:0:0:
248,114,62475,2,0,B|153:123|99:97|99:97|69:138|76:195,1,210.000008010865
376,241,62989,5,0,0:0:0:0:
146,248,63160,1,0,0:0:0:0:
394,57,63332,1,0,0:0:0:0:
313,296,63503,2,0,B|255:281|220:332|169:366|103:336,1,210.000008010865
316,126,64018,1,0,0:0:0:0:
180,123,64189,1,0,0:0:0:0:
445,325,64360,1,0,0:0:0:0:
392,149,64532,2,0,P|385:91|255:75,1,210.000008010865
352,288,65046,5,0,0:0:0:0:
128,128,65218,1,0,0:0:0:0:
384,128,65389,1,0,0:0:0:0:
160,288,65560,1,0,0:0:0:0:
257,72,65903,1,0,0:0:0:0:
257,72,66246,5,0,0:0:0:0:
357,210,66418,2,0,L|399:268,1,52.5000020027161
254,292,66675,2,0,L|219:243,1,52.5000020027161
382,96,66932,1,0,0:0:0:0:
239,149,67103,1,0,0:0:0:0:
437,232,67275,1,0,0:0:0:0:
300,244,67446,1,0,0:0:0:0:
107,220,67618,5,0,0:0:0:0:
196,53,67789,2,0,L|157:102,1,52.5000020027161
401,180,68046,2,0,L|440:131,1,52.5000020027161
271,99,68303,1,0,0:0:0:0:
351,251,68475,1,0,0:0:0:0:
196,134,68646,1,0,0:0:0:0:
56,71,68818,1,0,0:0:0:0:
151,199,68989,5,0,0:0:0:0:
324,144,69160,1,0,0:0:0:0:
348,153,69246,1,0,0:0:0:0:
266,252,69418,1,0,0:0:0:0:
243,239,69503,2,0,P|183:222|256:217,1,210
266,252,70617,1,0,0:0:0:0:
348,153,70789,1,0,0:0:0:0:
324,144,70875,1,0,0:0:0:0:
151,195,71732,5,0,0:0:0:0:
318,108,71903,2,0,L|377:95,1,52.5000020027161
371,263,72160,2,0,L|311:275,1,52.5000020027161
318,108,72418,1,0,0:0:0:0:
192,273,72589,1,0,0:0:0:0:
156,52,72760,1,0,0:0:0:0:
345,189,72932,1,0,0:0:0:0:
345,189,73103,5,0,0:0:0:0:
151,195,73275,2,0,L|91:162,1,52.5000020027161
318,108,73532,2,0,L|374:146,1,52.5000020027161
109,249,73789,1,0,0:0:0:0:
248,105,73960,1,0,0:0:0:0:
216,229,74132,1,0,0:0:0:0:
426,108,74303,1,0,0:0:0:0:
151,196,74475,5,0,0:0:0:0:
319,198,74646,1,0,0:0:0:0:
341,212,74732,1,0,0:0:0:0:
201,115,74903,1,0,0:0:0:0:
194,89,74989,2,0,P|169:49|178:116,1,210
201,115,76104,1,0,0:0:0:0:
341,212,76275,1,0,0:0:0:0:
319,198,76361,1,0,0:0:0:0:
160,33,77218,6,0,P|142:69|179:241,1,210
226,168,77903,2,0,P|252:233|156:313,1,210
168,229,78589,2,0,B|223:186|340:235|400:185,1,210
406,277,79275,2,0,P|457:212|386:117,1,210
373,199,79960,6,0,B|293:171|284:53|399:34|399:34|359:29|260:122|211:29|211:29|124:0|77:105|156:138|156:138|206:179|218:293|101:303|96:233|101:171|175:165|235:251,1,980
320,127,82703,6,0,P|358:83|394:67,1,70
401,177,83046,2,0,P|363:221|327:237,1,70
321,128,83389,2,0,P|282:99|188:104,1,140
245,192,83903,1,0,0:0:0:0:
139,193,84075,1,0,0:0:0:0:
192,283,84246,1,0,0:0:0:0:
245,192,84418,2,0,B|278:165|276:112|326:71,1,140
389,155,84932,1,0,0:0:0:0:
436,61,85103,1,0,0:0:0:0:
389,155,85275,5,0,0:0:0:0:
384,206,85360,1,0,0:0:0:0:
407,253,85446,5,0,0:0:0:0:
430,300,85532,1,0,0:0:0:0:
383,274,85618,1,0,0:0:0:0:
331,268,85703,1,0,0:0:0:0:
301,311,85789,5,0,0:0:0:0:
252,331,85875,1,0,0:0:0:0:
200,326,85960,1,0,0:0:0:0:
153,300,86046,1,0,0:0:0:0:
180,254,86132,5,0,0:0:0:0:
206,208,86218,1,0,0:0:0:0:
200,156,86303,1,0,0:0:0:0:
171,111,86389,1,0,0:0:0:0:
118,113,86475,5,0,0:0:0:0:
156,55,86560,1,0,0:0:0:0:
225,61,86646,1,0,0:0:0:0:
256,123,86732,1,0,0:0:0:0:
256,193,86818,1,0,0:0:0:0:
362,193,87846,6,0,L|386:225,1,35
150,193,88018,2,0,L|126:225,1,35
256,193,88189,6,0,L|309:91,1,105
370,76,88532,1,0,0:0:0:0:
395,213,88703,1,0,0:0:0:0:
256,192,88875,1,0,0:0:0:0:
256,192,89046,1,0,0:0:0:0:
256,193,89218,6,0,L|203:91,1,105
142,76,89561,1,0,0:0:0:0:
117,213,89732,1,0,0:0:0:0:
256,192,89904,1,0,0:0:0:0:
256,192,90075,1,0,0:0:0:0:
256,192,90247,1,0,0:0:0:0:
370,76,90418,1,0,0:0:0:0:
142,76,90589,1,0,0:0:0:0:
370,308,90760,1,0,0:0:0:0:
142,308,90932,6,0,P|80:278|66:217,1,105
81,151,91275,1,0,0:0:0:0:
256,192,91446,1,0,0:0:0:0:
370,308,91618,1,0,0:0:0:0:
370,308,91789,1,0,0:0:0:0:
370,308,91960,6,0,P|432:278|446:217,1,105
431,151,92303,1,0,0:0:0:0:
256,192,92474,1,0,0:0:0:0:
142,308,92646,1,0,0:0:0:0:
142,308,92818,1,0,0:0:0:0:
142,308,92989,5,0,0:0:0:0:
256,64,93160,1,0,0:0:0:0:
370,308,93332,1,0,0:0:0:0:
256,192,93503,1,0,0:0:0:0:
256,192,93675,6,0,P|352:160|375:143,1,105
429,58,94018,1,0,0:0:0:0:
256,1,94189,1,0,0:0:0:0:
256,192,94360,1,0,0:0:0:0:
256,192,94532,1,0,0:0:0:0:
256,192,94703,6,0,P|160:224|137:241,1,105
83,326,95046,1,0,0:0:0:0:
256,383,95217,1,0,0:0:0:0:
256,192,95388,1,0,0:0:0:0:
256,192,95560,1,0,0:0:0:0:
307,64,95732,1,0,0:0:0:0:
435,192,95903,1,0,0:0:0:0:
204,320,96075,1,0,0:0:0:0:
76,192,96246,1,0,0:0:0:0:
256,192,96418,6,0,P|352:192|352:64,1,245
304,127,97103,2,0,B|261:101|189:98|189:98|143:48|85:68|71:89,1,245
125,141,97789,2,0,B|84:203|84:203|111:226|71:279|146:333|222:309,1,245
173,238,98475,2,0,B|212:236|261:247|266:323|266:323|328:319|382:262,1,245
420,255,99160,5,0,0:0:0:0:
420,255,99503,1,0,0:0:0:0:
343,137,99675,1,0,0:0:0:0:
482,130,99846,1,0,0:0:0:0:
420,255,100018,1,0,0:0:0:0:
343,137,100189,5,0,0:0:0:0:
343,137,100532,1,0,0:0:0:0:
206,173,100704,1,0,0:0:0:0:
243,40,100875,1,0,0:0:0:0:
343,137,101047,1,0,0:0:0:0:
343,137,101218,5,0,0:0:0:0:
305,271,101389,1,0,0:0:0:0:
206,173,101560,1,0,0:0:0:0:
118,282,101732,1,0,0:0:0:0:
57,155,101903,5,0,0:0:0:0:
57,155,102246,1,0,0:0:0:0:
147,47,102418,1,0,0:0:0:0:
206,173,102589,1,0,0:0:0:0:
57,155,102760,1,0,0:0:0:0:
118,282,102932,5,0,0:0:0:0:
118,282,103275,1,0,0:0:0:0:
206,173,103446,1,0,0:0:0:0:
256,304,103618,1,0,0:0:0:0:
118,282,103789,1,0,0:0:0:0:
206,173,103960,5,0,0:0:0:0:
297,66,104132,1,0,0:0:0:0:
347,196,104303,1,0,0:0:0:0:
432,84,104475,1,0,0:0:0:0:
473,217,104646,6,0,L|441:289,1,70
269,130,104989,2,0,L|301:58,1,70
347,196,105332,2,0,P|324:256|246:289,1,140
269,130,105846,1,0,0:0:0:0:
259,288,106018,6,0,L|189:243,1,70
347,196,106360,2,0,P|407:232|418:301,1,140
441,74,106875,1,0,0:0:0:0:
347,196,107046,1,0,0:0:0:0:
296,64,107218,1,0,0:0:0:0:
441,74,107389,6,0,L|301:137,1,140
174,109,107903,1,0,0:0:0:0:
190,248,108075,1,0,0:0:0:0:
313,131,108246,1,0,0:0:0:0:
174,109,108418,2,0,B|127:128|111:178|60:212,1,140
335,296,108932,5,0,0:0:0:0:
258,26,109103,1,0,0:0:0:0:
177,296,109275,1,0,0:0:0:0:
384,128,109446,1,0,0:0:0:0:
320,128,109532,1,0,0:0:0:0:
256,128,109618,1,0,0:0:0:0:
193,128,109703,1,0,0:0:0:0:
129,128,109789,2,0,P|104:153|91:191,1,70
256,288,110303,5,0,0:0:0:0:
417,188,110475,1,0,0:0:0:0:
250,98,110646,1,0,0:0:0:0:
210,72,110732,1,0,0:0:0:0:
162,70,110818,1,0,0:0:0:0:
303,194,110989,1,0,0:0:0:0:
122,246,111160,5,0,0:0:0:0:
250,98,111332,1,0,0:0:0:0:
310,276,111503,1,0,0:0:0:0:
310,276,111675,1,0,0:0:0:0:
436,136,111846,1,0,0:0:0:0:
250,98,112018,1,0,0:0:0:0:
203,105,112103,1,0,0:0:0:0:
161,127,112189,1,0,0:0:0:0:
337,192,112360,5,0,0:0:0:0:
147,199,112532,1,0,0:0:0:0:
319,123,112703,2,0,L|261:172,1,52.5000020027161
185,257,112875,5,0,0:0:0:0:
364,313,113046,1,0,0:0:0:0:
319,123,113218,1,0,0:0:0:0:
185,257,113389,1,0,0:0:0:0:
185,257,113560,5,0,0:0:0:0:
39,135,113732,1,0,0:0:0:0:
215,69,113903,1,0,0:0:0:0:
185,257,114075,1,0,0:0:0:0:
319,123,114246,5,0,0:0:0:0:
185,257,114418,1,0,0:0:0:0:
215,69,114589,1,0,0:0:0:0:
362,186,114760,1,0,0:0:0:0:
383,228,114846,1,0,0:0:0:0:
379,275,114932,1,0,0:0:0:0:
209,192,115103,5,0,0:0:0:0:
279,15,115275,1,0,0:0:0:0:
362,186,115446,1,0,0:0:0:0:
383,228,115532,1,0,0:0:0:0:
379,275,115618,5,0,0:0:0:0:
173,232,115789,1,0,0:0:0:0:
354,127,115960,1,0,0:0:0:0:
157,51,116132,1,0,0:0:0:0:
366,52,116303,1,0,0:0:0:0:
170,130,116475,1,0,0:0:0:0:
365,204,116646,1,0,0:0:0:0:
181,307,116818,1,0,0:0:0:0:
130,296,116903,1,0,0:0:0:0:
105,249,116989,5,0,0:0:0:0:
213,68,117160,1,0,0:0:0:0:
393,177,117332,1,0,0:0:0:0:
285,356,117503,1,0,0:0:0:0:
317,314,117589,1,0,0:0:0:0:
369,315,117675,1,0,0:0:0:0:
369,105,117846,1,0,0:0:0:0:
158,105,118018,1,0,0:0:0:0:
158,314,118189,1,0,0:0:0:0:
108,332,118275,1,0,0:0:0:0:
65,302,118360,5,0,0:0:0:0:
73,266,118446,1,0,0:0:0:0:
77,229,118532,1,0,0:0:0:0:
69,192,118618,1,0,0:0:0:0:
58,157,118703,5,0,0:0:0:0:
84,117,118789,1,0,0:0:0:0:
122,88,118875,1,0,0:0:0:0:
168,79,118960,1,0,0:0:0:0:
214,89,119046,5,0,0:0:0:0:
233,143,119132,1,0,0:0:0:0:
272,185,119218,1,0,0:0:0:0:
326,202,119303,1,0,0:0:0:0:
383,193,119389,5,0,0:0:0:0:
433,239,119475,1,0,0:0:0:0:
433,306,119560,1,0,0:0:0:0:
376,345,119646,1,0,0:0:0:0:
311,322,119732,2,0,L|294:311,11,17.5
273,297,120760,1,4,0:0:0:0:
160,128,121103,5,2,0:0:0:0:
370,111,121275,1,0,0:0:0:0:
273,297,121446,1,8,0:0:0:0:
223,81,121618,5,2,0:0:0:0:
395,203,121790,1,0,0:0:0:0:
201,283,121960,1,8,0:0:0:0:
302,86,122132,5,2,0:0:0:0:
355,290,122304,1,0,0:0:0:0:
155,226,122475,1,8,0:0:0:0:
359,140,122646,5,2,0:0:0:0:
269,331,122819,1,0,0:0:0:0:
156,154,122990,1,8,0:0:0:0:
135,106,123075,1,0,0:0:0:0:
87,85,123160,5,8,0:0:0:0:
297,85,123332,1,0,0:0:0:0:
297,294,123503,1,8,0:0:0:0:
86,294,123675,1,8,0:0:0:0:
86,84,123846,5,2,0:0:0:0:
190,266,124018,1,0,0:0:0:0:
297,85,124189,1,8,0:0:0:0:
71,165,124360,5,2,0:0:0:0:
268,238,124532,1,0,0:0:0:0:
233,30,124703,1,8,0:0:0:0:
112,237,124875,5,2,0:0:0:0:
309,166,125047,1,0,0:0:0:0:
150,30,125218,1,8,0:0:0:0:
190,266,125389,5,2,2:0:0:0:
296,85,125561,1,0,2:0:0:0:
86,83,125732,1,8,0:0:0:0:
52,123,125818,1,0,0:0:0:0:
48,174,125903,1,8,0:0:0:0:
196,322,126075,1,0,0:0:0:0:
344,173,126246,1,8,0:0:0:0:
492,321,126418,1,8,0:0:0:0:
492,321,126589,5,2,0:0:0:0:
492,111,126760,1,0,0:0:0:0:
281,111,126932,1,8,0:0:0:0:
492,111,127103,5,0,0:0:0:0:
492,321,127274,1,2,0:0:0:0:
309,216,127446,1,8,0:0:0:0:
161,68,127618,5,2,0:0:0:0:
161,277,127789,1,0,0:0:0:0:
372,277,127960,1,8,0:0:0:0:
161,277,128132,5,0,0:0:0:0:
161,68,128303,1,2,0:0:0:0:
344,173,128475,1,8,0:0:0:0:
348,121,128560,1,0,0:0:0:0:
313,80,128646,1,8,0:0:0:0:
133,190,128818,1,0,0:0:0:0:
344,173,128989,1,8,0:0:0:0:
161,68,129160,1,8,0:0:0:0:
66,256,129332,6,0,P|88:309|251:294,1,210.000008010865
164,248,129846,2,0,B|188:203|217:184|217:184|282:219|337:158,1,210.000008010865
263,118,130360,2,0,P|329:83|411:178,1,210.000008010865
331,164,130875,2,0,B|332:228|399:247|399:247|411:295|371:332|337:324,1,210.000008010865
307,319,131303,1,0,0:0:0:0:
262,290,131389,1,0,0:0:0:0:
151,61,131561,1,0,0:0:0:0:
205,65,131646,1,0,0:0:0:0:
250,94,131732,1,0,0:0:0:0:
262,290,131903,1,0,0:0:0:0:
250,94,132075,5,0,0:0:0:0:
156,281,132246,1,0,0:0:0:0:
366,269,132418,1,0,0:0:0:0:
250,94,132589,5,0,0:0:0:0:
449,156,132760,1,0,0:0:0:0:
242,198,132932,1,0,0:0:0:0:
445,249,133103,5,0,0:0:0:0:
445,38,133275,1,0,0:0:0:0:
235,38,133446,1,0,0:0:0:0:
235,248,133618,5,0,0:0:0:0:
86,99,133789,1,0,0:0:0:0:
86,308,133960,1,0,0:0:0:0:
122,345,134046,1,0,0:0:0:0:
174,346,134132,5,0,0:0:0:0:
322,197,134303,1,0,0:0:0:0:
111,197,134475,1,0,0:0:0:0:
259,345,134646,1,0,0:0:0:0:
111,197,134818,5,0,0:0:0:0:
259,48,134989,1,0,0:0:0:0:
259,257,135160,1,0,0:0:0:0:
407,108,135332,5,0,0:0:0:0:
462,309,135503,1,0,0:0:0:0:
259,257,135675,1,0,0:0:0:0:
407,108,135846,5,0,0:0:0:0:
196,108,136018,1,0,0:0:0:0:
47,256,136189,1,0,0:0:0:0:
259,257,136360,1,0,0:0:0:0:
110,107,136532,1,0,0:0:0:0:
110,316,136703,1,0,0:0:0:0:
157,339,136789,1,0,0:0:0:0:
208,327,136875,5,0,0:0:0:0:
356,178,137046,1,0,0:0:0:0:
145,178,137218,1,0,0:0:0:0:
293,29,137389,1,0,0:0:0:0:
196,230,137560,5,0,0:0:0:0:
376,96,137732,1,0,0:0:0:0:
404,317,137903,1,0,0:0:0:0:
196,230,138075,5,0,0:0:0:0:
196,6,138246,1,0,0:0:0:0:
420,6,138418,1,0,0:0:0:0:
420,229,138589,5,0,0:0:0:0:
196,230,138760,1,0,0:0:0:0:
309,35,138932,1,0,0:0:0:0:
85,35,139103,5,0,0:0:0:0:
196,230,139275,1,0,0:0:0:0:
309,35,139446,1,0,0:0:0:0:
329,87,139532,1,0,0:0:0:0:
380,109,139618,5,0,0:0:0:0:
331,327,139789,1,0,0:0:0:0:
242,122,139960,1,0,0:0:0:0:
123,312,140132,1,0,0:0:0:0:
242,122,140303,6,0,P|298:95|369:224,1,224
304,172,140818,2,0,P|236:201|168:89,1,224
242,122,141332,2,0,B|311:68|311:68|361:103|407:71|445:126,1,224
432,170,141760,5,0,0:0:0:0:
434,226,141846,1,0,0:0:0:0:
453,278,141932,1,0,0:0:0:0:
430,329,142018,5,0,0:0:0:0:
376,343,142103,1,0,0:0:0:0:
320,331,142189,1,0,0:0:0:0:
284,287,142275,1,0,0:0:0:0:
239,254,142360,6,0,L|175:248,1,56
273,130,142532,2,0,L|337:136,1,56
88,117,142703,1,0,0:0:0:0:
88,117,143046,6,0,B|158:118|206:95|210:56|210:56|249:32|315:63,1,224
181,251,143560,1,0,0:0:0:0:
405,238,143732,1,0,0:0:0:0:
282,50,143903,1,0,0:0:0:0:
292,275,144075,1,0,0:0:0:0:
402,80,144246,1,0,0:0:0:0:
177,84,144418,1,0,0:0:0:0:
292,275,144589,2,0,P|342:318|412:331,1,112
299,122,144932,2,0,P|249:79|179:66,1,112
292,275,145275,2,0,L|358:274,1,56
402,80,145446,1,0,0:0:0:0:
177,84,145618,1,0,0:0:0:0:
292,275,145789,6,0,P|365:280|357:159,1,224
99,136,146303,1,0,0:0:0:0:
332,221,146475,1,0,0:0:0:0:
229,22,146646,1,0,0:0:0:0:
150,232,146818,1,0,0:0:0:0:
294,61,146989,1,0,0:0:0:0:
214,269,147160,1,0,0:0:0:0:
135,58,147332,2,0,B|63:63|63:63|33:92|41:121,1,112
255,344,147675,2,0,P|317:303|384:320,1,112
294,61,148018,1,0,0:0:0:0:
241,78,148103,1,0,0:0:0:0:
209,124,148189,2,0,P|206:197|325:231,1,168
281,164,148532,6,0,P|340:140|427:253,1,224
220,331,149046,1,0,0:0:0:0:
343,227,149218,1,0,0:0:0:0:
127,168,149389,1,0,0:0:0:0:
285,10,149560,1,0,0:0:0:0:
343,227,149732,1,0,0:0:0:0:
121,253,149903,1,0,0:0:0:0:
283,97,150075,2,0,L|409:93,1,112
230,151,150418,2,0,P|209:85|240:34,1,112
58,336,150760,1,0,0:0:0:0:
58,336,150846,1,0,0:0:0:0:
58,336,150932,1,0,0:0:0:0:
393,307,151103,1,0,0:0:0:0:
198,33,151275,6,0,B|224:86|338:86|338:86|370:96|376:148,1,224
255,328,151789,1,0,0:0:0:0:
97,170,151960,1,0,0:0:0:0:
255,11,152132,1,0,0:0:0:0:
412,168,152303,1,0,0:0:0:0:
255,328,152475,1,0,0:0:0:0:
255,104,152646,1,0,0:0:0:0:
413,262,152818,2,0,B|440:300|440:300|456:320|485:317|485:317|488:342,1,112
226,224,153160,2,0,P|207:172|169:122,1,112
393,78,153503,1,0,0:0:0:0:
444,101,153589,1,0,0:0:0:0:
468,151,153675,1,0,0:0:0:0:
216,317,153846,1,0,0:0:0:0:
94,40,154018,5,0,0:0:0:0:
418,344,154360,1,0,0:0:0:0:
44,122,154703,5,0,0:0:0:0:
467,261,155045,1,0,0:0:0:0:
35,218,155389,5,0,0:0:0:0:
476,165,155731,1,0,0:0:0:0:
67,309,156074,5,0,0:0:0:0:
444,74,156416,1,0,0:0:0:0:
444,74,156589,1,0,0:0:0:0:
444,74,156760,5,0,0:0:0:0:
67,309,157102,1,0,0:0:0:0:
476,165,157445,5,0,0:0:0:0:
35,218,157789,1,0,0:0:0:0:
467,261,158131,5,0,0:0:0:0:
44,122,158473,1,0,0:0:0:0:
418,344,158816,5,0,0:0:0:0:
94,40,159158,1,0,0:0:0:0:
134,80,159332,1,0,0:0:0:0:
175,116,159503,5,0,0:0:0:0:
337,268,159675,1,0,0:0:0:0:
145,155,159846,5,0,0:0:0:0:
366,228,160018,1,0,0:0:0:0:
134,206,160189,5,0,0:0:0:0:
377,177,160360,1,0,0:0:0:0:
147,259,160532,5,0,0:0:0:0:
364,124,160703,1,0,0:0:0:0:
364,124,160789,1,0,0:0:0:0:
364,124,160875,5,0,0:0:0:0:
147,259,161046,1,0,0:0:0:0:
388,176,161218,5,0,0:0:0:0:
123,207,161389,1,0,0:0:0:0:
387,235,161560,5,0,0:0:0:0:
124,148,161732,1,0,0:0:0:0:
361,290,161903,5,0,0:0:0:0:
150,93,162075,1,0,0:0:0:0:
150,93,162160,1,0,0:0:0:0:
150,93,162246,5,0,0:0:0:0:
185,64,162332,1,0,0:0:0:0:
226,46,162418,1,0,0:0:0:0:
270,51,162503,1,0,0:0:0:0:
309,72,162589,1,0,0:0:0:0:
331,111,162675,1,0,0:0:0:0:
317,153,162760,1,0,0:0:0:0:
280,179,162846,1,0,0:0:0:0:
232,205,162932,5,0,0:0:0:0:
195,231,163018,1,0,0:0:0:0:
181,273,163103,1,0,0:0:0:0:
203,312,163189,1,0,0:0:0:0:
242,333,163275,1,0,0:0:0:0:
286,338,163360,1,0,0:0:0:0:
327,320,163446,1,0,0:0:0:0:
361,290,163532,1,0,0:0:0:0:
391,263,163618,6,0,L|439:225,1,50.7500015487671
317,153,163789,2,0,L|269:191,1,50.7500015487671
442,110,163960,2,0,L|451:62,1,45.4999979171754
240,67,164132,2,0,L|231:115,1,45.4999979171754
364,94,164303,6,0,L|324:67,1,40.2500007677078
229,223,164475,2,0,L|269:250,1,40.2500007677078
240,67,164646,6,0,P|174:55|127:98,1,105
195,124,164989,6,0,B|156:153|95:172|95:172|112:191|135:225|101:284,1,210
47,228,165675,2,0,B|24:282|62:352|144:329|144:329|191:330,1,210
195,236,166360,2,0,B|230:220|230:220|236:277|277:327|348:332|348:332|360:311,1,210
358,234,167046,2,0,B|384:188|404:239|399:292|339:283|290:254|278:203|315:146,1,210
391,101,167732,2,0,B|383:62|334:64|269:61|315:108|247:124|220:119|220:119|205:51|156:85|125:67|114:142|161:205|186:218|267:193|311:177|338:140,1,560
395,234,169446,1,0,0:0:0:0:
288,267,169789,2,0,B|180:288|123:255|123:255|154:210,1,210
146,143,170475,5,0,0:0:0:0:
217,66,170646,1,0,0:0:0:0:
248,166,170818,1,0,0:0:0:0:
146,143,170989,1,0,0:0:0:0:
77,222,171160,2,0,L|49:143,1,70
181,327,171503,1,0,0:0:0:0:
181,221,171675,1,0,0:0:0:0:
273,270,171846,5,0,0:0:0:0:
376,189,172018,1,0,0:0:0:0:
363,314,172189,1,0,0:0:0:0:
458,231,172360,1,0,0:0:0:0:
478,36,172532,2,0,L|459:104,1,70
293,115,172875,1,0,0:0:0:0:
167,116,173046,1,0,0:0:0:0:
73,201,173218,2,0,B|137:213|196:265|196:265|251:220|324:267|324:267|376:223|457:208,1,420
256,49,174589,5,0,0:0:0:0:
187,154,174760,1,0,0:0:0:0:
325,154,174932,1,0,0:0:0:0:
256,49,175103,1,0,0:0:0:0:
256,248,175275,5,0,2:0:0:0:
359,90,175446,1,0,2:0:0:0:
152,90,175618,1,0,2:0:0:0:
256,248,175789,1,0,2:0:0:0:
426,161,175960,6,0,P|389:203|395:273,1,105
331,295,176303,2,0,P|315:226|331:166,1,105
318,122,176646,2,0,P|267:148|250:196,1,105
202,241,176989,2,0,L|94:173,1,105
85,81,177332,6,0,P|170:64|210:83,1,105
305,149,177675,2,0,P|220:166|180:147,1,105
184,68,178018,2,0,P|269:51|309:70,1,105
404,136,178361,2,0,P|319:153|279:134,1,105
137,145,178703,6,0,P|102:172|93:244,1,105
168,321,179046,2,0,P|203:294|212:222,1,105
374,144,179389,2,0,P|414:178|423:229,1,105
344,321,179732,2,0,P|304:287|295:236,1,105
188,35,180075,6,0,L|100:112,1,105
99,260,180418,2,0,L|168:339,1,105
324,349,180760,2,0,L|412:272,1,105
413,124,181103,2,0,L|336:36,1,105
256,32,181446,5,0,0:0:0:0:
168,144,181618,1,0,0:0:0:0:
296,96,181789,1,0,0:0:0:0:
210,206,181960,1,0,0:0:0:0:
347,234,182132,5,0,0:0:0:0:
248,135,182303,1,0,0:0:0:0:
347,35,182475,1,0,0:0:0:0:
445,133,182646,1,0,0:0:0:0:
445,273,182818,5,0,0:0:0:0:
373,152,182989,1,0,0:0:0:0:
247,213,183160,1,0,0:0:0:0:
156,105,183332,1,0,0:0:0:0:
112,237,183503,5,0,0:0:0:0:
223,322,183675,1,0,0:0:0:0:
173,191,183846,1,0,0:0:0:0:
57,111,184018,1,0,0:0:0:0:
112,237,184189,5,0,0:0:0:0:
157,263,184275,1,0,0:0:0:0:
209,265,184360,1,0,0:0:0:0:
257,244,184446,1,0,0:0:0:0:
285,199,184532,1,0,0:0:0:0:
284,146,184618,1,0,0:0:0:0:
257,101,184703,1,0,0:0:0:0:
210,76,184789,1,0,0:0:0:0:
157,81,184875,6,0,L|112:107,1,35
333,58,185046,2,0,L|378:32,1,35
112,237,185218,6,0,L|67:263,1,35
431,139,185389,2,0,L|476:113,1,35
256,192,185560,2,0,L|235:183,2,17.5
210,145,185732,2,0,L|202:123,2,17.5
436,321,186075,1,0,0:0:0:0:
425,67,186246,2,0,B|280:101|280:101|315:150|296:201,1,210
89,316,186589,2,0,B|232:283|232:283|197:234|209:226,1,210
302,157,186932,5,0,0:0:0:0:
83,65,187103,1,0,0:0:0:0:
113,301,187275,1,0,0:0:0:0:
302,157,187446,1,0,0:0:0:0:
83,65,187618,6,0,B|169:95|169:95|133:206|228:307|275:287,1,280
395,158,188132,1,0,0:0:0:0:
218,44,188303,1,0,0:0:0:0:
96,215,188475,1,0,0:0:0:0:
269,98,188646,6,0,B|383:62|383:62|401:123|480:128|480:128|466:201,1,280
277,238,189160,1,0,0:0:0:0:
483,277,189332,1,0,0:0:0:0:
306,164,189503,1,0,0:0:0:0:
96,145,189675,6,0,B|74:214|74:214|181:215|202:330|271:298,1,280
366,169,190189,1,0,0:0:0:0:
191,82,190360,1,0,0:0:0:0:
366,169,190532,1,0,0:0:0:0:
466,35,190703,6,0,B|431:107|431:107|447:124|476:212|428:261|310:263,1,280
161,191,191218,1,0,0:0:0:0:
191,82,191389,1,0,0:0:0:0:
351,193,191560,1,0,0:0:0:0:
321,302,191732,2,0,B|271:260|271:260|191:298|126:267,1,210.000008010865
321,302,192246,1,0,0:0:0:0:
351,193,192418,6,0,B|400:120|400:120|384:80|408:32,1,140
161,191,192760,2,0,P|128:264|176:352,1,140
351,193,193103,2,0,B|264:184|264:184|281:98|220:38|161:58,1,280
161,308,193618,1,0,0:0:0:0:
356,119,193789,5,0,0:0:0:0:
89,36,193960,1,0,0:0:0:0:
161,308,194132,2,0,B|210:291|210:291|282:314|352:299|407:328|407:328|436:314,1,280
180,188,194646,1,0,0:0:0:0:
441,85,194818,1,0,0:0:0:0:
161,85,194989,1,0,0:0:0:0:
423,179,195160,2,0,P|470:234|352:215,1,280
381,35,195675,1,0,0:0:0:0:
381,35,196018,1,0,0:0:0:0:
381,35,196360,2,0,B|297:73|237:58|165:112,1,210
308,160,197046,1,0,0:0:0:0:
189,235,197218,1,0,0:0:0:0:
328,239,197389,1,0,0:0:0:0:
213,158,197560,1,0,0:0:0:0:
254,23,197732,1,0,0:0:0:0:
418,154,197903,6,0,L|441:230,1,70
73,220,198246,2,0,L|94:154,1,70
436,42,198589,2,0,B|415:92|363:100|335:152|336:154,1,140
122,93,199103,1,0,0:0:0:0:
397,287,199275,2,0,L|443:225,1,70
51,75,199618,2,0,P|56:123|141:161,1,140
331,68,200132,1,0,0:0:0:0:
172,221,200303,1,0,0:0:0:0:
382,138,200475,1,0,0:0:0:0:
130,163,200646,6,0,B|151:118|151:118|182:131|191:77|256:72,1,140
368,77,201160,1,0,0:0:0:0:
368,217,201332,1,0,0:0:0:0:
228,217,201503,1,0,0:0:0:0:
228,357,201675,2,0,P|276:307|332:342,1,140
136,240,202189,1,0,0:0:0:0:
368,217,202360,1,0,0:0:0:0:
184,112,202532,1,0,0:0:0:0:
408,104,202703,2,0,P|423:148|431:198,1,70
104,280,203046,2,0,P|89:236|81:186,1,70
289,293,203389,5,0,0:0:0:0:
169,129,203560,1,0,0:0:0:0:
363,192,203732,1,0,0:0:0:0:
169,254,203903,1,0,0:0:0:0:
289,90,204075,1,0,0:0:0:0:
289,90,204418,5,0,0:0:0:0:
162,277,204589,1,0,0:0:0:0:
154,50,204761,1,0,0:0:0:0:
294,229,204932,1,0,0:0:0:0:
76,166,205104,1,0,0:0:0:0:
76,166,205446,5,0,0:0:0:0:
316,235,205617,1,0,0:0:0:0:
162,38,205789,1,0,0:0:0:0:
171,287,205960,1,0,0:0:0:0:
310,80,206132,1,0,0:0:0:0:
310,80,206475,5,0,0:0:0:0:
309,355,206646,1,0,0:0:0:0:
471,132,206818,1,0,0:0:0:0:
210,217,206989,1,0,0:0:0:0:
471,302,207161,1,0,0:0:0:0:
471,302,207503,5,0,0:0:0:0:
197,168,207674,1,0,0:0:0:0:
496,115,207846,1,0,0:0:0:0:
285,333,208017,1,0,0:0:0:0:
328,33,208189,1,0,0:0:0:0:
359,191,208532,5,0,0:0:0:0:
306,138,208875,2,0,P|400:120|435:226,1,210
359,191,209560,2,0,B|339:204|330:218|330:218|250:232|249:268|192:258|192:258|174:243|175:226,1,210
149,167,210246,2,0,B|187:136|187:136|137:106|150:12|227:3,1,210
233,80,210932,2,0,P|304:95|441:67,1,210
397,2,211618,2,0,B|469:-32|549:43|507:101|482:141|482:141|383:183|388:253|483:278|516:196|477:158|342:159|342:159|317:192|287:209|197:223|165:61|266:28|316:72,1,840
437,69,214018,1,0,0:0:0:0:
212,148,214360,6,0,P|163:131|112:56,1,140
45,200,215046,2,0,P|103:262|167:272,1,140
306,244,215732,2,0,P|360:234|396:312,1,140
245,285,216418,1,0,0:0:0:0:
103,224,216760,1,0,0:0:0:0:
55,76,217103,2,0,B|103:174|210:180|210:180|355:195|370:165|340:92|274:72|239:127|285:234|285:234|298:255|358:260|436:221|447:140|416:69|376:52|306:9|252:28|199:105,1,980
93,238,219846,6,0,P|96:298|226:324,1,210
171,266,220532,2,0,B|210:232|261:235|261:235|296:261|339:261|378:233,1,210
316,181,221218,2,0,B|268:146|179:162|120:210,1,210
171,267,221903,2,0,P|108:285|59:163,1,210
51,98,222589,6,0,B|90:48|90:48|120:103|212:73|212:73|178:118|226:174|226:174|189:197|123:154|123:154|72:237|208:333|321:238|330:171|276:114|276:114|299:80|289:51|271:23|271:23|367:75|409:44|409:44|391:90|409:127,1,1120
469,217,225503,1,0,0:0:0:0:
367,265,225675,1,0,0:0:0:0:
458,329,225846,1,0,0:0:0:0:
469,217,226018,1,0,0:0:0:0:
301,69,226360,5,0,0:0:0:0:
221,148,226532,1,0,0:0:0:0:
300,148,226703,1,0,0:0:0:0:
221,68,226875,1,0,0:0:0:0:
117,110,227046,1,0,0:0:0:0:
129,307,227389,5,0,0:0:0:0:
207,228,227560,1,0,0:0:0:0:
298,293,227732,1,0,0:0:0:0:
320,183,227903,1,0,0:0:0:0:
342,143,227989,1,0,0:0:0:0:
338,97,228075,5,0,0:0:0:0:
301,69,228160,1,0,0:0:0:0:
255,63,228246,1,0,0:0:0:0:
215,86,228332,1,0,0:0:0:0:
194,126,228418,1,0,0:0:0:0:
157,152,228503,1,0,0:0:0:0:
112,161,228589,1,0,0:0:0:0:
67,150,228675,1,0,0:0:0:0:
27,128,228760,5,0,0:0:0:0:
33,176,228846,1,0,0:0:0:0:
37,224,228932,1,0,0:0:0:0:
63,265,229018,1,0,0:0:0:0:
108,281,229103,1,0,0:0:0:0:
153,262,229189,1,0,0:0:0:0:
207,228,229275,1,0,0:0:0:0:
253,241,229360,1,0,0:0:0:0:
298,293,229446,5,0,0:0:0:0:
298,293,230818,6,0,P|353:250|424:248,1,140
321,147,231332,1,0,0:0:0:0:
298,293,231503,1,0,0:0:0:0:
214,297,231846,6,0,P|154:250|76:248,1,154.000004699707
189,137,232360,1,0,0:0:0:0:
214,297,232531,1,0,0:0:0:0:
256,64,232875,5,0,0:0:0:0:
168,192,233046,1,0,0:0:0:0:
344,192,233218,1,0,0:0:0:0:
256,64,233389,1,0,0:0:0:0:
256,232,233560,6,0,B|304:248|320:296|320:296|336:320|400:320,1,167.999994873047
408,152,234075,1,0,0:0:0:0:
256,232,234246,1,0,0:0:0:0:
256,232,234589,6,0,B|203:249|185:302|185:302|168:328|114:328,1,181.999991668702
88,144,235104,1,0,0:0:0:0:
256,232,235275,1,0,0:0:0:0:
144,192,235618,5,0,0:0:0:0:
256,64,235789,1,0,0:0:0:0:
368,192,235960,1,0,0:0:0:0:
144,192,236303,6,0,B|136:128|176:96|176:96|192:64|184:8,1,195.999994018555
304,168,236818,1,0,0:0:0:0:
144,192,236989,1,0,0:0:0:0:
368,192,237332,6,0,B|376:128|336:96|336:96|320:64|328:8,1,195.999994018555
208,168,237847,1,0,0:0:0:0:
368,192,238018,1,0,0:0:0:0:
256,320,238360,5,0,0:0:0:0:
128,192,238532,1,0,0:0:0:0:
256,64,238704,1,0,0:0:0:0:
384,192,238875,1,0,0:0:0:0:
256,320,239046,6,0,P|184:288|128:184,1,195.999994018555
126,92,239732,2,0,P|212:64|256:144,1,195.999994018555
256,320,240418,2,0,P|328:288|384:184,1,195.999994018555
385,92,241103,2,0,P|299:64|256:144,1,195.999994018555
256,188,241532,1,0,0:0:0:0:
256,232,241618,1,0,0:0:0:0:
256,275,241703,1,0,0:0:0:0:
256,319,241789,5,0,0:0:0:0:
256,319,242132,1,0,0:0:0:0:
181,88,242303,1,0,0:0:0:0:
377,231,242474,1,0,0:0:0:0:
377,231,242818,1,0,0:0:0:0:
377,231,243160,1,0,0:0:0:0:
134,231,243332,1,0,0:0:0:0:
330,88,243504,1,0,0:0:0:0:
330,88,243846,5,0,0:0:0:0:
134,231,244018,1,0,0:0:0:0:
377,231,244189,1,0,0:0:0:0:
181,88,244360,1,0,0:0:0:0:
255,319,244532,5,0,0:0:0:0:
255,319,244875,1,0,0:0:0:0:
330,88,245046,1,0,0:0:0:0:
134,231,245217,1,0,0:0:0:0:
134,231,245561,1,0,0:0:0:0:
134,231,245903,1,0,0:0:0:0:
377,231,246075,1,0,0:0:0:0:
181,88,246247,1,0,0:0:0:0:
181,88,246589,5,0,0:0:0:0:
377,231,246760,1,0,0:0:0:0:
134,231,246932,1,0,0:0:0:0:
330,88,247103,1,0,0:0:0:0:
255,319,247275,5,0,0:0:0:0:
377,231,247446,1,0,0:0:0:0:
181,88,247618,1,0,0:0:0:0:
134,231,247789,1,0,0:0:0:0:
330,88,247960,6,0,P|375:103|370:236,1,195.999994018555
181,88,248475,1,0,0:0:0:0:
255,319,248646,1,0,0:0:0:0:
377,231,248818,1,0,0:0:0:0:
134,230,248989,6,0,P|107:143|181:88,1,195.999994018555
377,231,249503,1,0,0:0:0:0:
134,230,249675,1,0,0:0:0:0:
378,230,249846,1,0,0:0:0:0:
405,189,249931,1,0,0:0:0:0:
408,139,250017,5,0,0:0:0:0:
377,101,250103,1,0,0:0:0:0:
330,88,250189,1,0,0:0:0:0:
287,108,250274,1,0,0:0:0:0:
256,144,250360,5,0,0:0:0:0:
225,108,250447,1,0,0:0:0:0:
182,88,250532,1,0,0:0:0:0:
135,101,250618,1,0,0:0:0:0:
104,139,250704,5,0,0:0:0:0:
107,189,250790,1,0,0:0:0:0:
134,230,250875,1,0,0:0:0:0:
178,249,250960,1,0,0:0:0:0:
217,278,251046,5,0,0:0:0:0:
256,312,251132,1,0,0:0:0:0:
295,278,251218,1,0,0:0:0:0:
334,249,251304,1,0,0:0:0:0:
378,230,251389,5,0,0:0:0:0:
182,88,251560,1,0,0:0:0:0:
134,230,251732,1,0,0:0:0:0:
330,88,251903,1,0,0:0:0:0:
256,312,252075,6,0,L|256:96,2,195.999994018555
60,289,252932,1,0,0:0:0:0:
176,132,253103,1,0,0:0:0:0:
256,312,253275,5,0,0:0:0:0:
97,194,253446,1,0,0:0:0:0:
276,116,253617,1,0,0:0:0:0:
256,312,253789,5,0,0:0:0:0:
177,131,253960,1,0,0:0:0:0:
370,153,254131,1,0,0:0:0:0:
256,312,254303,5,0,0:0:0:0:
276,116,254475,1,0,0:0:0:0:
433,230,254646,2,0,L|466:283,2,48.9999985046387
361,46,254989,1,0,0:0:0:0:
299,231,255160,1,0,0:0:0:0:
235,44,255332,1,0,0:0:0:0:
67,144,255503,5,0,0:0:0:0:
143,325,255675,1,0,0:0:0:0:
262,170,255846,1,0,0:0:0:0:
67,144,256018,5,0,0:0:0:0:
235,44,256189,1,0,0:0:0:0:
239,239,256360,1,0,0:0:0:0:
43,243,256532,5,0,0:0:0:0:
138,72,256703,1,0,0:0:0:0:
239,239,256874,1,0,0:0:0:0:
70,340,257046,5,0,0:0:0:0:
67,144,257217,1,0,0:0:0:0:
238,238,257388,1,0,0:0:0:0:
280,263,257475,1,0,0:0:0:0:
328,269,257560,1,0,0:0:0:0:
467,129,257732,1,0,0:0:0:0:
279,73,257903,1,0,0:0:0:0:
139,212,258075,1,0,0:0:0:0:
330,171,258246,5,0,0:0:0:0:
190,31,258418,1,0,0:0:0:0:
51,169,258589,1,0,0:0:0:0:
189,307,258760,5,0,0:0:0:0:
189,110,258932,1,0,0:0:0:0:
262,290,259103,1,0,0:0:0:0:
262,93,259275,5,0,0:0:0:0:
457,93,259446,1,0,0:0:0:0:
359,263,259618,1,0,0:0:0:0:
262,93,259789,5,0,0:0:0:0:
123,231,259960,1,0,0:0:0:0:
315,188,260132,1,0,0:0:0:0:
343,147,260218,1,0,0:0:0:0:
349,98,260303,1,0,0:0:0:0:
176,192,260475,1,0,0:0:0:0:
359,263,260646,1,0,0:0:0:0:
171,321,260818,1,0,0:0:0:0:
53,165,260989,6,0,P|111:148|156:106,1,97.9999970092774
279,264,261332,1,0,0:0:0:0:
459,165,261503,6,0,P|401:148|355:104,1,105.000004005432
219,269,261846,1,0,0:0:0:0:
53,165,262018,6,0,P|111:148|159:103,1,112
308,274,262361,1,0,0:0:0:0:
459,165,262532,6,0,P|401:148|347:97,1,119.000002269745
189,278,262875,1,0,0:0:0:0:
133,297,262960,1,0,0:0:0:0:
75,280,263046,1,0,0:0:0:0:
159,82,263218,1,0,0:0:0:0:
361,151,263389,1,0,0:0:0:0:
189,278,263560,1,0,0:0:0:0:
74,101,263732,5,0,0:0:0:0:
245,220,263903,1,0,0:0:0:0:
348,36,264075,1,0,0:0:0:0:
364,244,264246,5,0,0:0:0:0:
193,125,264417,1,0,0:0:0:0:
90,309,264589,1,0,0:0:0:0:
299,321,264760,5,0,0:0:0:0:
108,231,264932,1,0,0:0:0:0:
201,43,265103,1,0,0:0:0:0:
392,133,265275,5,0,0:0:0:0:
201,43,265447,1,0,0:0:0:0:
306,224,265618,1,0,0:0:0:0:
338,264,265703,1,0,0:0:0:0:
387,280,265789,1,0,0:0:0:0:
212,164,265960,1,0,0:0:0:0:
390,52,266132,1,0,0:0:0:0:
470,245,266303,1,0,0:0:0:0:
268,300,266475,5,0,0:0:0:0:
392,133,266646,1,0,0:0:0:0:
182,110,266818,1,0,0:0:0:0:
268,300,266989,5,0,0:0:0:0:
291,93,267160,1,0,0:0:0:0:
97,178,267332,1,0,0:0:0:0:
268,300,267503,5,0,0:0:0:0:
182,109,267674,1,0,0:0:0:0:
60,282,267846,1,0,0:0:0:0:
268,300,268018,5,0,0:0:0:0:
97,178,268189,1,0,0:0:0:0:
291,93,268361,1,0,0:0:0:0:
342,95,268446,1,0,0:0:0:0:
382,128,268532,1,0,0:0:0:0:
338,332,268703,1,0,0:0:0:0:
243,143,268875,1,0,0:0:0:0:
144,327,269046,1,0,0:0:0:0:
255,102,269218,5,0,0:0:0:0:
308,264,269389,1,0,0:0:0:0:
171,164,269560,1,0,0:0:0:0:
340,164,269732,5,0,0:0:0:0:
203,264,269903,1,0,0:0:0:0:
255,102,270075,1,0,0:0:0:0:
323,311,270246,5,0,0:0:0:0:
144,182,270417,1,0,0:0:0:0:
365,182,270589,1,0,0:0:0:0:
186,311,270760,5,0,0:0:0:0:
255,102,270932,1,0,0:0:0:0:
323,311,271103,1,0,0:0:0:0:
368,337,271189,1,0,0:0:0:0:
420,331,271275,1,0,0:0:0:0:
467,126,271446,1,0,0:0:0:0:
288,238,271618,1,0,0:0:0:0:
111,125,271789,1,0,0:0:0:0:
286,88,271960,6,0,B|336:65|382:94|396:151|396:151|367:190|434:245,1,210.000008010865
204,291,272475,2,0,B|244:246|244:246|163:239|144:167|181:135,1,210.000008010865
291,318,272989,2,0,P|338:246|244:165,1,210.000008010865
212,162,273418,5,0,0:0:0:0:
161,173,273503,1,0,0:0:0:0:
116,201,273589,1,0,0:0:0:0:
87,245,273675,1,0,0:0:0:0:
87,297,273760,1,0,0:0:0:0:
122,335,273846,1,0,0:0:0:0:
174,338,273932,1,0,0:0:0:0:
216,307,274018,1,0,0:0:0:0:
237,259,274103,1,0,0:0:0:0:
266,215,274189,1,0,0:0:0:0:
316,198,274275,1,0,0:0:0:0:
366,211,274360,5,0,0:0:0:0:
366,211,274703,6,0,P|368:144|488:96,1,210.000008010865
339,34,275218,1,0,0:0:0:0:
227,145,275389,1,0,0:0:0:0:
95,58,275560,1,0,0:0:0:0:
97,215,275732,1,0,0:0:0:0:
176,79,275903,1,0,0:0:0:0:
248,219,276075,1,0,0:0:0:0:
360,109,276246,2,0,P|426:119|460:161,1,105.000004005432
293,148,276589,2,0,P|227:138|193:96,1,105.000004005432
311,225,276932,1,0,0:0:0:0:
287,283,277018,1,0,0:0:0:0:
235,318,277103,2,0,P|180:330|123:315,1,105.000004005432
121,109,277446,6,0,B|203:107|231:82|231:82|273:42|358:53,1,210.000008010865
399,186,277960,1,0,0:0:0:0:
472,46,278132,1,0,0:0:0:0:
342,135,278303,1,0,0:0:0:0:
379,288,278475,1,0,0:0:0:0:
468,158,278646,1,0,0:0:0:0:
317,205,278818,1,0,0:0:0:0:
185,118,278989,2,0,P|116:88|86:46,1,105.000004005432
254,83,279332,2,0,P|323:113|353:155,1,105.000004005432
196,197,279675,1,0,0:0:0:0:
134,207,279760,1,0,0:0:0:0:
76,179,279846,2,0,P|44:105|74:67,1,105.000004005432
101,293,280189,6,0,P|171:319|296:245,1,210.000008010865
288,104,280703,1,0,0:0:0:0:
185,224,280875,1,0,0:0:0:0:
134,75,281046,1,0,0:0:0:0:
288,104,281218,1,0,0:0:0:0:
340,255,281389,1,0,0:0:0:0:
185,224,281560,1,0,0:0:0:0:
288,104,281732,2,0,P|336:73|417:70,1,105.000004005432
279,185,282075,2,0,P|231:216|150:219,1,105.000004005432
392,189,282418,1,0,0:0:0:0:
428,239,282503,1,0,0:0:0:0:
403,297,282589,2,0,P|342:331|278:303,1,105.000004005432
456,174,282932,6,0,P|458:109|336:46,1,210.000008010865
218,139,283446,1,0,0:0:0:0:
375,131,283618,1,0,0:0:0:0:
304,271,283789,1,0,0:0:0:0:
218,139,283960,1,0,0:0:0:0:
149,281,284132,1,0,0:0:0:0:
142,124,284303,1,0,0:0:0:0:
220,260,284475,2,0,P|239:316|303:357,1,105.000004005432
292,124,284818,2,0,P|273:68|209:27,1,105.000004005432
259,194,285160,1,0,0:0:0:0:
314,223,285246,1,0,0:0:0:0:
376,232,285332,2,0,P|422:207|442:135,1,105.000004005432
385,48,285675,5,0,0:0:0:0:
127,336,286018,1,0,0:0:0:0:
439,131,286360,5,0,0:0:0:0:
72,252,286703,1,0,0:0:0:0:
445,231,287046,5,0,0:0:0:0:
66,152,287389,1,0,0:0:0:0:
400,321,287732,5,0,0:0:0:0:
112,63,288075,1,0,0:0:0:0:
216,133,288246,1,0,0:0:0:0:
297,36,288418,5,0,0:0:0:0:
215,348,288760,1,0,0:0:0:0:
369,77,289103,5,0,0:0:0:0:
142,306,289445,1,0,0:0:0:0:
411,149,289789,5,0,0:0:0:0:
100,234,290131,1,0,0:0:0:0:
412,233,290475,5,0,0:0:0:0:
100,151,290817,1,0,0:0:0:0:
226,143,290989,1,0,0:0:0:0:
170,256,291160,5,0,0:0:0:0:
342,128,291332,1,0,0:0:0:0:
342,256,291503,5,0,0:0:0:0:
170,128,291675,1,0,0:0:0:0:
299,70,291846,5,0,0:0:0:0:
256,192,292018,1,0,0:0:0:0:
213,70,292189,5,0,0:0:0:0:
256,192,292361,1,0,0:0:0:0:
368,288,292532,5,0,0:0:0:0:
304,155,292703,1,0,0:0:0:0:
144,288,292875,5,0,0:0:0:0:
208,155,293046,1,0,0:0:0:0:
348,110,293218,5,0,0:0:0:0:
256,192,293389,1,0,0:0:0:0:
164,110,293560,5,0,0:0:0:0:
256,192,293731,1,0,0:0:0:0:
403,203,293903,6,0,L|430:138,3,52.5000020027161
348,110,294246,6,0,L|305:37,3,52.5000020027161
273,142,294589,6,0,L|254:195,3,52.5000020027161
196,123,294932,6,0,L|151:68,3,52.5000020027161
94,139,295275,5,0,0:0:0:0:
89,190,295360,1,0,0:0:0:0:
105,240,295446,1,0,0:0:0:0:
149,267,295532,1,0,0:0:0:0:
197,246,295618,1,0,0:0:0:0:
238,214,295703,1,0,0:0:0:0:
274,170,295789,1,0,0:0:0:0:
315,138,295874,1,0,0:0:0:0:
363,117,295960,1,0,0:0:0:0:
407,144,296046,1,0,0:0:0:0:
423,194,296132,1,0,0:0:0:0:
418,245,296217,1,0,0:0:0:0:
378,294,296303,6,0,P|343:317|240:300,1,140
