osu file format v14

[General]
AudioFilename: 10. End Of Daylight(REDALiCE Remix).mp3
AudioLeadIn: 0
PreviewTime: -1
Countdown: 1
SampleSet: Normal
StackLeniency: 0.2
Mode: 0
LetterboxInBreaks: 1
WidescreenStoryboard: 1

[Editor]
Bookmarks: 22360
DistanceSpacing: 1
BeatDivisor: 4
GridSize: 16
TimelineZoom: 2.4

[Metadata]
Title:End Of Daylight(REDALiCE Remix)
TitleUnicode:End Of Daylight(REDALiCE Remix)
Artist:nachi
ArtistUnicode:nachi
Creator:Kardet
Version:Freedom
Source:
Tags:
BeatmapID:681702
BeatmapSetID:301423

[Difficulty]
HPDrainRate:6
CircleSize:5.5
OverallDifficulty:9
ApproachRate:9.8
SliderMultiplier:1.4
SliderTickRate:1

[Events]
//Background and Video events
//Break Periods
2,49645,65424
//Storyboard Layer 0 (Background)
//Storyboard Layer 1 (Fail)
//Storyboard Layer 2 (Pass)
//Storyboard Layer 3 (Foreground)
//Storyboard Sound Samples

[TimingPoints]
418,342.857142857143,4,1,0,100,1,0
42932,-50,4,1,0,100,0,0
44303,-100,4,1,0,100,0,0
66246,-100,4,1,0,30,0,0
82703,-100,4,1,0,100,0,0

[HitObjects]
464,272,22360,6,0,B|400:240|400:240|440:168,7,140
312,104,25103,2,0,P|272:72|192:112,7,140
256,232,27846,2,0,B|285:298|336:247|361:323,7,140
392,184,30589,2,0,L|456:56,7,140
424,196,33332,5,0,0:0:0:0:
303,123,33675,1,0,0:0:0:0:
231,243,34018,1,0,0:0:0:0:
351,316,34360,1,0,0:0:0:0:
283,194,34703,5,0,0:0:0:0:
162,121,35046,1,0,0:0:0:0:
90,241,35389,1,0,0:0:0:0:
210,314,35731,1,0,0:0:0:0:
132,200,36075,5,0,0:0:0:0:
252,128,36418,1,0,0:0:0:0:
132,200,36760,1,0,0:0:0:0:
252,128,37103,1,0,0:0:0:0:
288,264,37446,5,0,0:0:0:0:
408,192,37789,1,0,0:0:0:0:
288,264,38131,1,0,0:0:0:0:
408,192,38474,1,0,0:0:0:0:
432,52,38818,2,0,P|368:48|348:72,1,70
304,80,39160,1,0,0:0:0:0:
268,140,39332,1,0,0:0:0:0:
208,45,39503,6,0,P|192:85|148:81,1,70
113,133,39846,1,0,0:0:0:0:
90,199,40018,1,0,0:0:0:0:
200,182,40189,6,0,L|244:250,1,70
287,290,40532,1,0,0:0:0:0:
352,314,40703,1,0,0:0:0:0:
338,202,40875,6,0,P|290:182|296:150,1,70
257,108,41218,1,0,0:0:0:0:
206,60,41389,1,0,0:0:0:0:
136,208,41560,5,0,0:0:0:0:
108,228,41645,1,0,0:0:0:0:
95,260,41731,1,0,0:0:0:0:
102,294,41817,1,0,0:0:0:0:
126,319,41902,1,0,0:0:0:0:
159,327,41988,1,0,0:0:0:0:
192,316,42074,1,0,0:0:0:0:
213,289,42159,1,0,0:0:0:0:
216,248,42245,5,0,0:0:0:0:
196,191,42331,1,0,0:0:0:0:
207,133,42417,1,0,0:0:0:0:
241,85,42503,1,0,0:0:0:0:
293,57,42588,1,0,0:0:0:0:
352,55,42674,1,0,0:0:0:0:
406,78,42760,1,0,0:0:0:0:
448,127,42846,1,0,0:0:0:0:
468,191,42932,6,0,P|452:244|412:180,1,140
108,164,43275,5,0,0:0:0:0:
108,164,43446,5,0,0:0:0:0:
236,104,43618,6,0,P|308:124|344:260,1,210
315,286,43960,6,0,P|303:210|355:298,1,280
220,200,44475,5,0,0:0:0:0:
212,228,44646,1,0,0:0:0:0:
72,236,44818,1,0,0:0:0:0:
64,264,44989,1,0,0:0:0:0:
154,79,45332,5,0,0:0:0:0:
162,107,45503,1,0,0:0:0:0:
302,116,45675,5,0,0:0:0:0:
310,144,45846,1,0,0:0:0:0:
450,145,46018,5,0,0:0:0:0:
450,145,46360,6,0,P|462:201|454:233,1,70
442,280,46703,1,0,0:0:0:0:
407,341,46875,1,0,0:0:0:0:
163,112,47046,6,0,P|176:73|153:114,1,140
238,110,47560,1,0,0:0:0:0:
307,120,47732,1,0,0:0:0:0:
367,154,47903,1,0,0:0:0:0:
412,207,48075,1,0,0:0:0:0:
105,283,48418,1,0,0:0:0:0:
176,142,48589,1,0,0:0:0:0:
251,273,48760,1,0,0:0:0:0:
176,142,48932,1,0,0:0:0:0:
105,283,49103,2,0,P|136:256|227:286,1,140
96,248,65903,6,0,P|88:212|132:252,1,140
112,128,66418,5,0,0:0:0:0:
125,95,66503,1,0,0:0:0:0:
152,74,66589,1,0,0:0:0:0:
186,69,66675,1,0,0:0:0:0:
218,82,66760,1,0,0:0:0:0:
239,110,66846,1,0,0:0:0:0:
244,144,66932,1,0,0:0:0:0:
232,176,67018,1,0,0:0:0:0:
213,204,67103,1,0,0:0:0:0:
219,238,67189,1,0,0:0:0:0:
246,258,67275,1,0,0:0:0:0:
280,255,67360,1,0,0:0:0:0:
302,229,67446,1,0,0:0:0:0:
301,195,67532,1,0,0:0:0:0:
277,171,67618,1,0,0:0:0:0:
340,84,67789,5,0,0:0:0:0:
377,88,67874,1,0,0:0:0:0:
410,109,67960,1,0,0:0:0:0:
430,141,68046,1,0,0:0:0:0:
435,179,68131,1,0,0:0:0:0:
423,215,68217,1,0,0:0:0:0:
400,244,68303,1,0,0:0:0:0:
384,209,68388,1,0,0:0:0:0:
354,185,68474,1,0,0:0:0:0:
317,176,68560,1,0,0:0:0:0:
280,185,68645,1,0,0:0:0:0:
251,210,68731,1,0,0:0:0:0:
236,245,68817,1,0,0:0:0:0:
238,283,68903,1,0,0:0:0:0:
257,316,68988,1,0,0:0:0:0:
172,180,69160,5,0,0:0:0:0:
148,213,69245,1,0,0:0:0:0:
152,254,69331,1,0,0:0:0:0:
182,283,69417,1,0,0:0:0:0:
223,285,69502,1,0,0:0:0:0:
256,260,69588,1,0,0:0:0:0:
264,220,69675,1,0,0:0:0:0:
240,186,69760,1,0,0:0:0:0:
244,145,69846,1,0,0:0:0:0:
274,116,69932,1,0,0:0:0:0:
315,114,70017,1,0,0:0:0:0:
348,139,70103,1,0,0:0:0:0:
356,179,70189,1,0,0:0:0:0:
340,220,70275,1,0,0:0:0:0:
300,232,70360,1,0,0:0:0:0:
168,80,70532,5,0,0:0:0:0:
146,120,70617,1,0,0:0:0:0:
138,164,70703,1,0,0:0:0:0:
143,209,70789,1,0,0:0:0:0:
161,251,70874,1,0,0:0:0:0:
191,285,70960,1,0,0:0:0:0:
229,309,71046,1,0,0:0:0:0:
273,321,71132,1,0,0:0:0:0:
318,320,71217,1,0,0:0:0:0:
361,305,71303,1,0,0:0:0:0:
398,278,71389,1,0,0:0:0:0:
425,242,71474,1,0,0:0:0:0:
440,199,71560,1,0,0:0:0:0:
442,154,71646,1,0,0:0:0:0:
432,108,71732,1,0,0:0:0:0:
296,112,71903,5,0,0:0:0:0:
260,80,71988,1,0,0:0:0:0:
214,88,72074,1,0,0:0:0:0:
192,130,72160,1,0,0:0:0:0:
211,173,72245,1,0,0:0:0:0:
257,184,72331,1,0,0:0:0:0:
299,160,72417,1,0,0:0:0:0:
347,169,72503,1,0,0:0:0:0:
378,205,72589,1,0,0:0:0:0:
380,253,72674,1,0,0:0:0:0:
351,291,72760,1,0,0:0:0:0:
305,303,72846,1,0,0:0:0:0:
261,283,72932,1,0,0:0:0:0:
219,304,73017,1,0,0:0:0:0:
212,351,73103,1,0,0:0:0:0:
184,228,73275,5,0,0:0:0:0:
151,187,73360,1,0,0:0:0:0:
143,136,73446,1,0,0:0:0:0:
161,87,73532,1,0,0:0:0:0:
200,53,73617,1,0,0:0:0:0:
251,43,73703,1,0,0:0:0:0:
301,59,73789,1,0,0:0:0:0:
336,97,73875,1,0,0:0:0:0:
348,148,73960,1,0,0:0:0:0:
334,197,74046,1,0,0:0:0:0:
310,243,74131,1,0,0:0:0:0:
324,292,74217,1,0,0:0:0:0:
370,315,74303,1,0,0:0:0:0:
419,300,74388,1,0,0:0:0:0:
442,255,74474,1,0,0:0:0:0:
334,197,74646,5,0,0:0:0:0:
321,146,74731,1,0,0:0:0:0:
291,103,74817,1,0,0:0:0:0:
247,75,74903,1,0,0:0:0:0:
196,65,74988,1,0,0:0:0:0:
144,74,75074,1,0,0:0:0:0:
100,102,75160,1,0,0:0:0:0:
69,144,75246,1,0,0:0:0:0:
56,194,75331,1,0,0:0:0:0:
62,246,75417,1,0,0:0:0:0:
84,288,75503,2,0,L|64:320,4,35
224,208,76018,5,0,0:0:0:0:
203,258,76103,1,0,0:0:0:0:
227,307,76189,1,0,0:0:0:0:
280,322,76275,1,0,0:0:0:0:
326,294,76360,1,0,0:0:0:0:
336,240,76446,1,0,0:0:0:0:
303,197,76532,1,0,0:0:0:0:
267,155,76617,1,0,0:0:0:0:
260,100,76703,1,0,0:0:0:0:
283,50,76789,1,0,0:0:0:0:
330,21,76875,2,0,L|364:-20,4,35
376,152,77389,5,0,0:0:0:0:
325,118,77474,1,0,0:0:0:0:
271,143,77560,1,0,0:0:0:0:
263,203,77646,1,0,0:0:0:0:
310,240,77731,1,0,0:0:0:0:
367,220,77818,1,0,0:0:0:0:
424,199,77903,1,0,0:0:0:0:
479,226,77989,1,0,0:0:0:0:
497,285,78075,1,0,0:0:0:0:
467,338,78160,1,0,0:0:0:0:
407,353,78246,2,0,L|372:316,4,35
236,296,78760,5,0,0:0:0:0:
192,247,78845,1,0,0:0:0:0:
199,183,78931,1,0,0:0:0:0:
252,146,79017,1,0,0:0:0:0:
315,160,79102,1,0,0:0:0:0:
346,217,79188,1,0,0:0:0:0:
324,276,79275,2,0,L|288:304,8,35
396,172,80132,1,0,0:0:0:0:
341,128,80217,1,0,0:0:0:0:
273,116,80303,1,0,0:0:0:0:
207,137,80389,1,0,0:0:0:0:
159,187,80474,1,0,0:0:0:0:
139,253,80560,1,0,0:0:0:0:
148,320,80646,2,0,L|156:360,8,35
248,200,81503,5,0,0:0:0:0:
198,154,81588,1,0,0:0:0:0:
207,87,81674,1,0,0:0:0:0:
266,55,81760,1,0,0:0:0:0:
327,85,81845,1,0,0:0:0:0:
337,151,81931,1,0,0:0:0:0:
288,199,82017,1,0,0:0:0:0:
285,267,82103,1,0,0:0:0:0:
330,319,82189,1,0,0:0:0:0:
398,326,82274,1,0,0:0:0:0:
452,285,82360,1,0,0:0:0:0:
380,208,82703,5,0,0:0:0:0:
97,241,82875,1,0,0:0:0:0:
313,58,83046,1,0,0:0:0:0:
250,331,83218,1,0,0:0:0:0:
140,73,83389,1,0,0:0:0:0:
288,240,83732,5,0,0:0:0:0:
488,44,83903,1,0,0:0:0:0:
212,88,84075,1,0,0:0:0:0:
444,244,84246,1,0,0:0:0:0:
172,316,84418,1,0,0:0:0:0:
76,272,84760,2,0,L|100:192,1,70
120,124,85103,5,0,0:0:0:0:
120,124,85275,1,0,0:0:0:0:
132,91,85360,1,0,0:0:0:0:
161,73,85446,1,0,0:0:0:0:
195,74,85532,1,0,0:0:0:0:
223,95,85617,1,0,0:0:0:0:
233,127,85703,1,0,0:0:0:0:
222,160,85789,1,0,0:0:0:0:
195,181,85875,1,0,0:0:0:0:
164,194,85960,1,0,0:0:0:0:
153,227,86046,1,0,0:0:0:0:
170,256,86132,5,0,0:0:0:0:
204,221,86217,1,0,0:0:0:0:
247,198,86303,1,0,0:0:0:0:
295,190,86389,1,0,0:0:0:0:
343,197,86474,1,0,0:0:0:0:
387,219,86560,1,0,0:0:0:0:
421,254,86646,1,0,0:0:0:0:
443,298,86732,1,0,0:0:0:0:
452,348,86818,1,0,0:0:0:0:
456,152,86989,5,0,0:0:0:0:
256,348,87161,1,0,0:0:0:0:
276,68,87332,1,0,0:0:0:0:
76,264,87504,1,0,0:0:0:0:
76,264,87846,2,0,P|112:228|212:256,1,140
