osu file format v14

[General]
AudioFilename: dreams.mp3
AudioLeadIn: 0
PreviewTime: 6726
Countdown: 0
SampleSet: Soft
StackLeniency: 0.3
Mode: 0
LetterboxInBreaks: 0
WidescreenStoryboard: 1

[Editor]
Bookmarks: 6833,20547,34261,47976,61690,78833
DistanceSpacing: 1.4
BeatDivisor: 8
GridSize: 4
TimelineZoom: 1

[Metadata]
Title:dreams
TitleUnicode:dreams
Artist:n u a g e s
ArtistUnicode:n u a g e s
Creator:Melancholy Haze
Version:simple
Source:
Tags:nuages chillwave chill downtempo experimental alan watts cut version
BeatmapID:933363
BeatmapSetID:432435

[Difficulty]
HPDrainRate:2
CircleSize:3
OverallDifficulty:2
ApproachRate:3
SliderMultiplier:1.2
SliderTickRate:1

[Events]
//Background and Video events
0,0,"background.jpg",0,0
//Break Periods
//Storyboard Layer 0 (Background)
//Storyboard Layer 1 (Fail)
//Storyboard Layer 2 (Pass)
//Storyboard Layer 3 (Foreground)
//Storyboard Sound Samples

[TimingPoints]
3404,857.142857142857,4,2,99,40,1,0
6819,857.142857142857,4,2,2,40,1,0
60843,857.142857142857,4,2,2,40,1,0
61700,857.142857142857,4,2,1,20,1,0
78833,-100,4,2,1,10,0,0

[Colours]
Combo1 : 71,16,65
Combo2 : 61,92,86
Combo3 : 44,71,107
SliderBorder : 0,0,0
SliderTrackOverride : 80,80,80

[HitObjects]
256,192,3404,12,0,5118,0:0:0:0:
120,72,6819,6,0,P|141:108|139:189,1,120,2|8,0:0|0:0,0:0:0:0:
85,247,8104,1,8,0:0:0:0:
148,302,8533,2,0,P|220:321|271:301,1,120,0|8,0:0|0:0,0:0:0:0:
396,208,10247,6,0,P|445:213|504:175,2,120,2|8|0,0:0|0:0|0:0,0:0:0:0:
240,168,12819,2,0,P|196:183|170:179,1,60,8|0,0:0|0:0,0:0:0:0:
120,124,13676,6,0,P|103:156|118:238,2,120,2|8|0,0:0|0:0|0:0,0:0:0:0:
277,65,16247,2,0,L|330:67,2,45,8|8|8,0:0|0:0|0:0,0:0:0:0:
84,148,17961,5,8,0:0:0:0:
179,287,18819,2,0,P|231:308|297:282,1,120,0|8,0:0|0:0,0:0:0:0:
361,246,20104,1,0,0:0:0:0:
425,192,20533,6,0,L|440:65,2,120,2|8|0,0:0|0:0|0:0,0:0:0:0:
361,246,22676,1,0,0:0:0:0:
284,210,23104,2,0,P|240:216|217:215,1,60,8|0,0:0|0:0,0:0:0:0:
142,198,23961,6,0,P|124:151|133:75,1,120,2|8,0:0|0:0,0:0:0:0:
207,49,25247,2,0,P|254:67|330:58,1,120,0|0,0:0|0:0,0:0:0:0:
396,100,26533,2,0,L|382:170,1,60,8|0,0:0|0:0,0:0:0:0:
340,230,27390,6,0,P|365:278|356:349,2,120,2|8|0,0:0|0:0|0:0,0:0:0:0:
177,188,29961,2,0,L|121:182,2,45,8|8|8,0:0|0:0|0:0,0:0:0:0:
344,60,31676,6,0,L|362:182,1,120,8|0,0:0|0:0,0:0:0:0:
234,289,33390,2,0,L|220:221,1,60,8|0,0:0|0:0,0:0:0:0:
177,159,34247,6,0,P|115:158|60:125,1,120,2|8,0:0|0:0,0:0:0:0:
217,59,35961,2,0,P|279:60|334:93,1,120,0|8,0:0|0:0,0:0:0:0:
391,143,37247,1,0,0:0:0:0:
348,215,37676,6,0,P|329:273|352:329,1,120,2|8,0:0|0:0,0:0:0:0:
412,270,38961,2,0,P|432:217|408:156,1,120,0|0,0:0|0:0,0:0:0:0:
338,118,40247,2,0,P|305:120|278:121,1,60,8|0,0:0|0:0,0:0:0:0:
198,95,41104,6,0,P|138:82|76:104,2,120,2|8|0,0:0|0:0|0:0,0:0:0:0:
281,128,43247,1,0,0:0:0:0:
326,201,43676,2,0,L|330:253,2,45,8|8|8,0:0|0:0|0:0,0:0:0:0:
152,320,45390,6,0,P|145:260|160:202,1,120,8|0,0:0|0:0,0:0:0:0:
324,160,47104,1,8,0:0:0:0:
371,321,47961,6,0,P|431:329|481:302,2,120,2|8|0,0:0|0:0|0:0,0:0:0:0:
294,286,50104,1,0,0:0:0:0:
217,250,50533,2,0,L|149:254,1,60,8|8,0:0|0:0,0:0:0:0:
89,204,51390,6,0,P|105:143|88:77,1,120,2|8,0:0|0:0,0:0:0:0:
164,40,52676,2,0,P|225:56|291:39,1,120
356,78,53961,2,0,L|407:123,1,60,8|0,0:0|0:0,0:0:0:0:
365,193,54818,6,0,P|304:204|246:187,1,120,2|8,0:0|0:0,0:0:0:0:
174,150,56104,1,0,0:0:0:0:
95,179,56533,2,0,B|70:213|88:241|104:264|84:296,1,120,0|8,0:0|0:0,0:0:0:0:
251,313,58247,6,0,P|297:300|375:314,1,120,2|8,0:0|0:0,0:0:0:0:
444,276,59533,1,0,0:0:0:0:
498,211,59961,2,0,P|486:152|497:87,1,123.5,0|8,0:0|0:0,0:0:0:0:
336,55,61700,6,0,B|279:25|224:63|224:63|162:106|106:58,1,240,2|0,0:0|0:0,0:0:0:0:
46,217,64271,1,0,0:0:0:0:
189,308,65128,6,0,P|250:284|423:324,2,240,2|0|2,0:0|0:0|0:0,0:0:0:0:
50,215,69414,6,0,P|51:143|23:93,2,120,0|0|0,0:0|0:0|0:0,0:0:0:0:
188,309,71985,6,0,B|237:276|297:313|297:313|260:240|293:189,1,240,2|0,0:0|0:0,0:0:0:0:
393,62,74557,1,0,0:0:0:0:
241,134,75414,6,0,P|172:155|118:145,2,120,2|0|0,0:0|0:0|0:0,0:0:0:0:
396,196,77985,1,0,0:0:0:0:
251,281,78842,6,0,B|201:276|175:287|175:287|172:215|91:200|55:252,2,240,2|0|2,0:0|0:0|0:0,0:0:0:0:
394,193,83128,6,0,L|417:73,2,120,0|0|0,0:0|0:0|0:0,0:0:0:0:
254,286,85700,5,2,0:0:0:0:
