osu file format v14

[General]
AudioFilename: dreams.mp3
AudioLeadIn: 0
PreviewTime: 6726
Countdown: 0
SampleSet: Soft
StackLeniency: 0.3
Mode: 0
LetterboxInBreaks: 0
WidescreenStoryboard: 1

[Editor]
Bookmarks: 6833,20547,34261,47976,61690,78833
DistanceSpacing: 1.3
BeatDivisor: 8
GridSize: 4
TimelineZoom: 1

[Metadata]
Title:dreams
TitleUnicode:dreams
Artist:n u a g e s
ArtistUnicode:n u a g e s
Creator:Melancholy Haze
Version:advanced
Source:
Tags:nuages chillwave chill downtempo experimental alan watts cut version
BeatmapID:933362
BeatmapSetID:432435

[Difficulty]
HPDrainRate:4
CircleSize:4
OverallDifficulty:3.7
ApproachRate:4.5
SliderMultiplier:1.6
SliderTickRate:1

[Events]
//Background and Video events
0,0,"background.jpg",0,0
//Break Periods
//Storyboard Layer 0 (Background)
//Storyboard Layer 1 (Fail)
//Storyboard Layer 2 (Pass)
//Storyboard Layer 3 (Foreground)
//Storyboard Sound Samples

[TimingPoints]
3404,857.142857142857,4,2,99,40,1,0
6819,857.142857142857,4,2,2,40,1,0
60843,857.142857142857,4,2,2,40,1,0
61700,857.142857142857,4,2,1,20,1,0
78833,-100,4,2,1,10,0,0

[Colours]
Combo1 : 71,16,65
Combo2 : 61,92,86
Combo3 : 44,71,107
SliderBorder : 0,0,0
SliderTrackOverride : 80,80,80

[HitObjects]
256,192,3404,12,6,5975,0:0:0:0:
120,288,6819,6,0,B|131:248|131:248|128:204,2,80,2|0|8,0:0|0:0|0:0,0:0:0:0:
208,344,8104,1,8,0:0:0:0:
292,282,8533,2,0,L|345:294,2,40,0|0|0,0:0|0:0|0:0,0:0:0:0:
317,180,9390,2,0,P|324:134|322:97,1,80,8|0,0:0|0:0,0:0:0:0:
276,72,10033,1,8,0:0:0:0:
225,61,10247,6,0,L|129:64,2,80,2|0|8,0:0|0:0|0:0,0:0:0:0:
322,100,11533,1,0,0:0:0:0:
333,203,11961,1,0,0:0:0:0:
346,253,12176,2,0,L|335:296,1,40
237,326,12819,2,0,P|196:318|148:325,1,80,8|0,0:0|0:0,0:0:0:0:
77,255,13676,6,0,P|95:203|69:103,1,160,2|8,0:0|0:0,0:0:0:0:
166,57,14961,2,0,L|209:66,1,40,0|8,0:0|0:0,0:0:0:0:
235,107,15390,2,0,P|285:125|328:124,1,80,0|0,0:0|0:0,0:0:0:0:
401,178,16247,2,0,P|440:182|471:194,2,60,8|8|8,0:0|0:0|0:0,0:0:0:0:
354,201,17104,6,0,P|359:249|351:288,2,80,2|0|8,0:0|0:0|0:0,0:0:0:0:
274,133,18390,1,0,0:0:0:0:
183,184,18819,2,0,P|167:265|210:325,1,160,0|8,0:0|0:0,0:0:0:0:
270,240,20104,1,0,0:0:0:0:
342,314,20533,6,0,L|422:319,1,80,2|0,0:0|0:0,0:0:0:0:
455,220,21390,1,8,0:0:0:0:
369,161,21819,1,0,0:0:0:0:
396,60,22247,2,0,P|442:69|480:61,2,80,0|0|8,0:0|0:0|0:0,0:0:0:0:
293,75,23533,2,0,L|249:80,1,40,0|8,0:0|0:0,0:0:0:0:
208,106,23961,6,0,P|218:154|189:263,1,160,2|8,0:0|0:0,0:0:0:0:
102,313,25247,1,0,0:0:0:0:
49,223,25676,1,0,0:0:0:0:
27,175,25890,2,0,L|35:136,1,40
129,91,26533,2,0,L|112:186,1,80,8|0,0:0|0:0,0:0:0:0:
183,248,27390,6,0,L|192:288,2,40,2|0|0,0:0|0:0|0:0,0:0:0:0:
251,168,28247,2,0,P|300:179|344:168,1,80,8|0,0:0|0:0,0:0:0:0:
379,161,28890,2,0,P|428:150|472:156,1,80,8|0,0:0|0:0,0:0:0:0:
503,177,29533,1,0,0:0:0:0:
442,261,29961,2,0,P|454:289|459:330,2,60,8|8|8,0:0|0:0|0:0,0:0:0:0:
395,237,30818,6,0,P|345:258|239:242,1,160,2|8,0:0|0:0,0:0:0:0:
187,156,32104,2,0,P|167:155|143:151,1,40,0|8,0:0|0:0,0:0:0:0:
96,142,32533,2,0,P|64:202|100:288,1,160,0|8,0:0|0:0,0:0:0:0:
175,346,33819,1,0,0:0:0:0:
265,295,34247,6,0,B|308:297|308:297|358:281,2,80,2|0|8,0:0|0:0|0:0,0:0:0:0:
175,241,35533,1,0,0:0:0:0:
137,205,35747,1,8,0:0:0:0:
102,164,35961,2,0,P|97:124|103:84,1,80,0|0,0:0|0:0,0:0:0:0:
198,43,36819,2,0,P|204:83|199:124,1,80,8|0,0:0|0:0,0:0:0:0:
262,205,37676,6,0,L|341:208,2,80,2|0|8,0:0|0:0|0:0,0:0:0:0:
171,256,38961,2,0,L|128:259,1,40,0|8,0:0|0:0,0:0:0:0:
80,246,39390,2,0,B|62:200|89:168|108:143|86:78,1,160,0|8,0:0|0:0,0:0:0:0:
185,48,40676,1,0,0:0:0:0:
276,96,41104,6,0,P|329:114|424:72,1,160,2|8,0:0|0:0,0:0:0:0:
479,161,42390,2,0,P|484:189|483:215,1,40,0|8,0:0|0:0,0:0:0:0:
448,239,42818,2,0,P|405:233|362:238,1,80,0|0,0:0|0:0,0:0:0:0:
278,288,43676,2,0,P|235:294|202:292,2,60,8|8|8,0:0|0:0|0:0,0:0:0:0:
326,308,44533,5,2,0:0:0:0:
489,178,45390,1,8,0:0:0:0:
410,109,45818,2,0,L|362:116,1,40,0|8,0:0|0:0,0:0:0:0:
320,100,46247,2,0,P|268:86|225:88,1,80
143,120,47104,1,8,0:0:0:0:
111,161,47318,2,0,P|108:187|108:213,1,40,8|0,0:0|0:0,0:0:0:0:
211,192,47961,6,0,P|220:233|216:277,1,80,2|0,0:0|0:0,0:0:0:0:
135,334,48818,1,8,0:0:0:0:
53,274,49247,1,0,0:0:0:0:
36,171,49676,2,0,P|32:148|37:124,2,40,0|0|0,0:0|0:0|0:0,0:0:0:0:
130,215,50533,1,8,0:0:0:0:
225,173,50961,2,0,L|272:180,1,40,8|8,0:0|0:0,0:0:0:0:
311,156,51390,6,0,P|388:138|470:184,1,160,2|8,0:0|0:0,0:0:0:0:
378,238,52676,1,0,0:0:0:0:
276,259,53104,1,0,0:0:0:0:
228,279,53318,2,0,L|173:270,1,40
98,220,53961,1,8,0:0:0:0:
163,138,54390,2,0,P|167:116|168:88,1,40,0|8,0:0|0:0,0:0:0:0:
130,62,54818,6,0,P|87:69|37:63,2,80,2|0|8,0:0|0:0|0:0,0:0:0:0:
228,26,56104,1,0,0:0:0:0:
328,60,56533,2,0,P|367:66|407:64,1,80
459,153,57390,2,0,P|483:136|501:106,2,60,8|8|0,0:0|0:0|0:0,0:0:0:0:
417,184,58247,6,0,P|376:184|325:166,1,80,2|0,0:0|0:0,0:0:0:0:
393,85,59104,2,0,P|426:61|462:44,2,80,8|0|0,0:0|0:0|0:0,0:0:0:0:
295,121,60390,1,0,0:0:0:0:
190,155,60843,2,0,B|160:144|160:144|119:137,2,60,8|8|8,0:0|0:0|0:0,0:0:0:0:
203,205,61700,6,0,P|310:258|315:107,1,320,2|0,0:0|0:0,0:0:0:0:
320,109,64271,1,0,0:0:0:0:
113,82,65128,6,0,P|81:59|40:51,1,80,2|0,0:0|0:0,0:0:0:0:
35,154,65985,1,0,0:0:0:0:
35,258,66414,1,0,0:0:0:0:
108,331,66842,2,0,P|186:316|263:332,1,160
452,244,68557,6,0,P|468:197|450:84,2,160,2|0|0,0:0|0:0|0:0,0:0:0:0:
249,200,71128,2,0,P|199:194|158:194,1,80,0|0,0:0|0:0,0:0:0:0:
82,251,71985,6,0,B|49:197|76:140|76:140|55:111|54:54|111:14|190:31|182:84,1,320,2|0,0:0|0:0,0:0:0:0:
349,194,74557,1,0,0:0:0:0:
178,312,75414,6,0,P|123:301|95:210,2,160,2|0|0,0:0|0:0|0:0,0:0:0:0:
349,194,77985,1,0,0:0:0:0:
166,95,78842,6,0,P|126:97|78:86,2,80,2|0|0,0:0|0:0|0:0,0:0:0:0:
256,43,80128,1,0,0:0:0:0:
348,90,80557,2,0,P|368:165|332:253,1,160,0|0,0:0|0:0,0:0:0:0:
150,322,82271,5,2,0:0:0:0:
255,142,83128,1,0,0:0:0:0:
362,322,83985,1,0,0:0:0:0:
362,322,84842,2,0,P|401:306|429:280,1,80,0|0,0:0|0:0,0:0:0:0:
347,214,85700,5,2,0:0:0:0:
