osu file format v14

[General]
AudioFilename: Lemures Prelude_EastNewSound.mp3
AudioLeadIn: 0
PreviewTime: 58547
Countdown: 0
SampleSet: Normal
StackLeniency: 0.7
Mode: 0
LetterboxInBreaks: 1
WidescreenStoryboard: 0

[Editor]
DistanceSpacing: 0.6
BeatDivisor: 4
GridSize: 4
TimelineZoom: 2

[Metadata]
Title:Lemures Prelude
TitleUnicode:Lemures Prelude
Artist:murasaki hotaru
ArtistUnicode:紫咲ほたる
Creator:ICboom
Version:Yakumo
Source:
Tags:Touhou
BeatmapID:791340
BeatmapSetID:359935

[Difficulty]
HPDrainRate:6
CircleSize:4
OverallDifficulty:7
ApproachRate:9
SliderMultiplier:1.7
SliderTickRate:1

[Events]
//Background and Video events
0,0,"908fa0ec08fa513d1c92aebe3d6d55fbb2fbd992.jpg",0,0
//Break Periods
2,96566,104493
//Storyboard Layer 0 (Background)
//Storyboard Layer 1 (Fail)
//Storyboard Layer 2 (Pass)
//Storyboard Layer 3 (Foreground)
//Storyboard Sound Samples

[TimingPoints]
366,363.636363636364,4,1,0,100,1,0
24002,-90.9090909090909,4,1,0,100,0,0
32002,-133.333333333333,4,1,0,100,0,0
32911,-90.9090909090909,4,1,0,100,0,0
35275,-133.333333333333,4,1,0,100,0,0
52729,-200,4,1,0,100,0,0
58547,-76.9230769230769,4,1,0,100,0,1
60729,-50,4,1,0,100,0,1
60911,-76.9230769230769,4,1,0,100,0,1
62184,-50,4,1,0,100,0,1
62729,-76.9230769230769,4,1,0,100,0,1
63456,-66.6666666666667,4,1,0,100,0,0
64366,-50,4,1,0,100,0,0
64729,-50,4,1,0,100,0,1
64866,-76.9230769230769,4,1,0,100,0,1
66547,-50,4,1,0,100,0,1
66820,-76.9230769230769,4,1,0,100,0,1
68002,-50,4,1,0,100,0,1
68366,-76.9230769230769,4,1,0,100,0,1
69275,-66.6666666666667,4,1,0,100,0,0
70184,-66.6666666666667,4,1,0,100,0,0
71275,-100,4,1,0,100,0,0
71820,-76.9230769230769,4,1,0,100,0,1
72366,-50,4,1,0,100,0,1
72729,-76.9230769230769,4,1,0,100,0,1
75093,-66.6666666666667,4,1,0,100,0,0
76366,-76.9230769230769,4,1,0,100,0,1
78184,-50,4,1,0,100,0,1
78547,-76.9230769230769,4,1,0,100,0,1
81820,-76.9230769230769,4,1,0,100,0,0
87638,-100,4,1,0,100,0,0
96366,-133.333333333333,4,1,0,100,0,0
105093,-100,4,1,0,100,0,0
107456,-133.333333333333,4,1,0,100,0,0
109275,-100,4,1,0,100,0,0
116366,-200,4,1,0,100,0,0
116729,-83.3333333333333,4,1,0,100,0,0
140002,-71.4285714285714,4,1,0,100,0,1
142184,-50,4,1,0,100,0,1
142366,-71.4285714285714,4,1,0,100,0,1
144911,-66.6666666666667,4,1,0,100,0,0
145820,-50,4,1,0,100,0,0
146184,-71.4285714285714,4,1,0,100,0,1
148002,-50,4,1,0,100,0,1
148275,-71.4285714285714,4,1,0,100,0,1
149456,-50,4,1,0,100,0,1
150184,-71.4285714285714,4,1,0,100,0,1
150729,-66.6666666666667,4,1,0,100,0,0
151638,-50,4,1,0,100,0,0
152184,-133.333333333333,4,1,0,100,0,0
153093,-71.4285714285714,4,1,0,100,0,1
153911,-50,4,1,0,100,0,1
154366,-71.4285714285714,4,1,0,100,0,1
155366,-50,4,1,0,100,0,1
155638,-71.4285714285714,4,1,0,100,0,1
156547,-66.6666666666667,4,1,0,100,0,0
157456,-50,4,1,0,100,0,0
157638,-71.4285714285714,4,1,0,100,0,1
159729,-50,4,1,0,100,0,1
160184,-71.4285714285714,4,1,0,100,0,1
161184,-50,4,1,0,100,0,1
161820,-71.4285714285714,4,1,0,100,0,1
162366,-66.6666666666667,4,1,0,100,0,1
163275,-100,4,1,0,100,0,0

[Colours]
Combo1 : 255,128,255
Combo2 : 255,255,255
Combo3 : 0,0,0
Combo4 : 255,0,128

[HitObjects]
152,96,366,5,0,0:0:0:0:
220,156,547,2,0,L|288:216,1,85
352,272,911,1,0,0:0:0:0:
416,332,1093,1,0,0:0:0:0:
352,272,1275,2,0,L|276:208,1,85
220,156,1638,1,0,0:0:0:0:
140,212,1820,5,0,0:0:0:0:
220,156,2002,2,0,L|292:96,1,85
356,44,2366,1,0,0:0:0:0:
285,101,2547,2,0,L|212:164,1,85
140,212,2911,1,0,0:0:0:0:
56,272,3093,1,0,0:0:0:0:
140,300,3275,5,0,0:0:0:0:
140,212,3456,2,0,L|140:124,1,85
140,44,3820,1,0,0:0:0:0:
52,144,4002,1,0,0:0:0:0:
220,140,4184,1,0,0:0:0:0:
140,300,4366,1,0,0:0:0:0:
140,212,4547,1,0,0:0:0:0:
224,244,4729,5,0,0:0:0:0:
304,276,4911,2,0,L|388:316,1,85
456,348,5275,1,0,0:0:0:0:
456,256,5456,2,0,L|456:160,1,85
456,88,5820,1,0,0:0:0:0:
456,171,6002,1,0,0:0:0:0:
456,256,6184,5,0,0:0:0:0:
376,208,6366,2,0,L|304:156,1,85
236,100,6729,1,0,0:0:0:0:
307,158,6911,2,0,L|391:218,1,85
456,171,7275,1,0,0:0:0:0:
456,88,7456,1,0,0:0:0:0:
388,40,7638,5,0,0:0:0:0:
315,69,7820,2,0,L|231:101,1,85
140,136,8184,1,0,0:0:0:0:
235,99,8366,1,0,0:0:0:0:
220,192,8547,1,0,0:0:0:0:
140,136,8729,1,0,0:0:0:0:
220,192,8911,1,0,0:0:0:0:
304,240,9093,6,0,L|392:296,1,85
232,296,9456,2,0,L|176:384,1,85
148,248,9820,2,0,L|60:192,1,85
220,192,10184,2,0,L|272:108,1,85
375,285,10547,6,0,L|291:232,1,85
186,367,10911,2,0,L|239:283,1,85
76,202,11275,2,0,L|160:255,1,85
265,120,11638,2,0,L|212:204,1,85
219,191,12002,6,0,P|160:140|84:120,1,127.5
96,124,12366,1,0,0:0:0:0:
184,40,12547,1,0,0:0:0:0:
312,48,12729,1,0,0:0:0:0:
264,120,12911,6,0,L|344:192,1,85
404,244,13275,1,0,0:0:0:0:
344,336,13456,2,0,P|316:300|304:260,1,85
304,262,13820,6,0,P|268:328|208:344,1,127.5
221,344,14184,1,0,0:0:0:0:
344,336,14366,1,0,0:0:0:0:
404,244,14547,1,0,0:0:0:0:
392,136,14729,1,0,0:0:0:0:
456,40,14911,6,0,P|392:36|320:64,1,127.5
316,68,15275,1,0,0:0:0:0:
248,144,15456,1,0,0:0:0:0:
208,48,15638,1,0,0:0:0:0:
292,236,15820,1,0,0:0:0:0:
80,204,16002,1,0,0:0:0:0:
128,124,16184,2,0,P|160:168|176:224,1,85
188,288,16547,1,0,0:0:0:0:
292,236,16729,1,0,0:0:0:0:
248,144,16911,1,0,0:0:0:0:
140,68,17093,6,0,P|184:124|224:216,1,170
248,144,17638,6,0,P|232:200|232:232,1,85
292,236,18002,1,0,0:0:0:0:
448,320,18184,5,0,0:0:0:0:
352,324,18366,2,0,L|248:324,1,85
180,324,18729,1,0,0:0:0:0:
88,324,18911,1,0,0:0:0:0:
180,324,19093,2,0,P|184:260|176:216,1,85
181,239,19456,2,0,P|176:160|188:88,1,127.5
182,112,19820,1,0,0:0:0:0:
80,128,20002,2,0,B|88:184|88:184|76:216,1,85
280,104,20366,2,0,B|272:48|272:48|284:16,1,85
312,192,20729,2,0,P|344:276|376:312,1,127.5
367,304,21093,5,0,0:0:0:0:
420,200,21275,1,0,0:0:0:0:
240,288,21456,1,0,0:0:0:0:
420,200,21638,1,0,0:0:0:0:
228,160,21820,1,0,0:0:0:0:
180,76,22002,2,0,P|140:120|136:184,1,85
228,160,22366,2,0,P|176:240|124:264,1,127.5
150,255,22729,1,0,0:0:0:0:
128,360,22911,5,0,0:0:0:0:
24,276,23093,1,0,0:0:0:0:
96,160,23275,1,0,0:0:0:0:
312,44,23456,6,0,L|312:144,1,85
436,144,24002,5,0,0:0:0:0:
439,181,24092,1,0,0:0:0:0:
439,218,24183,1,0,0:0:0:0:
412,312,24366,1,0,0:0:0:0:
308,280,24547,1,0,0:0:0:0:
208,248,24729,1,0,0:0:0:0:
319,187,24911,6,0,P|316:246|303:291,1,93.5000028533936
208,248,25275,1,0,0:0:0:0:
136,188,25456,2,0,P|116:244|116:288,1,93.5000028533936
180,344,25820,1,0,0:0:0:0:
208,248,26002,1,0,0:0:0:0:
244,148,26184,1,0,0:0:0:0:
280,48,26366,1,0,0:0:0:0:
144,36,26547,6,0,P|84:92|48:164,1,140.25000428009
52,172,26911,1,0,0:0:0:0:
56,200,27002,1,0,0:0:0:0:
68,228,27093,1,0,0:0:0:0:
36,332,27275,1,0,0:0:0:0:
148,296,27456,1,0,0:0:0:0:
148,184,27638,1,0,0:0:0:0:
244,248,27820,6,0,L|272:348,1,93.5000028533936
352,348,28184,1,0,0:0:0:0:
312,160,28366,2,0,L|340:260,1,93.5000028533936
420,260,28730,1,0,0:0:0:0:
484,172,28911,1,0,0:0:0:0:
352,348,29093,1,0,0:0:0:0:
204,344,29275,6,0,L|188:300,1,46.7500014266968
204,344,29456,2,0,P|148:308|96:244,1,140.25000428009
88,232,29820,1,0,0:0:0:0:
76,204,29911,1,0,0:0:0:0:
72,168,30002,1,0,0:0:0:0:
80,52,30184,1,0,0:0:0:0:
176,112,30366,1,0,0:0:0:0:
256,36,30547,1,0,0:0:0:0:
237,180,30729,6,0,P|211:140|169:108,1,93.5000028533936
176,112,31093,1,0,0:0:0:0:
188,260,31275,1,0,0:0:0:0:
236,180,31456,2,0,P|272:244|280:288,1,93.5000028533936
276,262,31820,1,0,0:0:0:0:
232,344,32002,6,0,L|368:344,1,127.500004863739
424,264,32547,1,0,0:0:0:0:
428,232,32637,1,0,0:0:0:0:
425,200,32728,1,0,0:0:0:0:
392,104,32911,6,0,P|316:120|244:104,1,140.25000428009
255,108,33275,2,0,P|184:92|92:112,1,140.25000428009
118,101,33638,2,0,P|128:160|88:264,1,140.25000428009
107,236,34002,1,0,0:0:0:0:
28,312,34184,1,0,0:0:0:0:
212,268,34366,1,0,0:0:0:0:
136,340,34547,1,0,0:0:0:0:
316,344,34729,6,0,P|320:292|312:248,2,93.5000028533936
436,144,35275,6,0,P|428:240|444:344,1,191.250007295609
76,240,36729,6,0,P|84:144|68:40,1,191.250007295609
256,64,37820,5,0,0:0:0:0:
176,144,38184,2,0,P|256:192|336:144,1,191.250007295609
400,192,39093,5,0,0:0:0:0:
400,256,39275,1,0,0:0:0:0:
340,292,39456,1,0,0:0:0:0:
460,292,39820,1,0,0:0:0:0:
400,352,40184,1,0,0:0:0:0:
400,352,40366,1,0,0:0:0:0:
160,344,41093,6,0,P|76:312|80:212,1,191.250007295609
352,40,42547,6,0,P|436:72|432:172,1,191.250007295609
184,40,44002,6,0,P|172:96|216:168,1,127.500004863739
201,156,44547,1,0,0:0:0:0:
308,224,44911,1,0,0:0:0:0:
188,284,45275,1,0,0:0:0:0:
324,96,45638,1,0,0:0:0:0:
392,244,46002,2,0,P|368:288|336:304,1,63.7500024318696
357,295,46547,5,0,0:0:0:0:
184,344,46911,5,0,0:0:0:0:
180,312,47001,1,0,0:0:0:0:
180,280,47092,1,0,0:0:0:0:
181,248,47183,1,0,0:0:0:0:
185,216,47274,1,0,0:0:0:0:
236,112,47456,1,0,0:0:0:0:
96,148,47638,1,0,0:0:0:0:
84,280,47820,1,0,0:0:0:0:
404,56,48366,6,0,P|408:104|400:136,1,63.7500024318696
324,164,48729,1,0,0:0:0:0:
472,236,48911,1,0,0:0:0:0:
364,268,49093,1,0,0:0:0:0:
364,268,49275,1,0,0:0:0:0:
144,320,49820,5,0,0:0:0:0:
80,216,50002,1,0,0:0:0:0:
248,112,50184,1,0,0:0:0:0:
112,84,50366,1,0,0:0:0:0:
112,84,50547,2,0,P|152:160|192:192,1,127.500004863739
272,196,51093,1,0,0:0:0:0:
228,280,51275,5,0,0:0:0:0:
396,224,51456,1,0,0:0:0:0:
292,332,51638,1,0,0:0:0:0:
420,304,51820,1,0,0:0:0:0:
384,376,52002,1,0,0:0:0:0:
384,376,52184,1,0,0:0:0:0:
148,352,52366,5,0,0:0:0:0:
141,320,52456,1,0,0:0:0:0:
139,289,52547,1,0,0:0:0:0:
143,257,52638,1,0,0:0:0:0:
151,226,52729,5,0,0:0:0:0:
360,157,53093,1,0,0:0:0:0:
173,119,53456,1,0,0:0:0:0:
338,264,53820,1,0,0:0:0:0:
278,84,54184,1,0,0:0:0:0:
233,299,54548,1,0,0:0:0:0:
360,157,54911,1,0,0:0:0:0:
151,226,55275,1,0,0:0:0:0:
173,119,55638,5,0,0:0:0:0:
278,84,55820,1,0,0:0:0:0:
360,157,56002,1,0,0:0:0:0:
338,264,56184,1,0,0:0:0:0:
233,299,56365,1,0,0:0:0:0:
151,226,56547,1,0,0:0:0:0:
173,119,56729,1,0,0:0:0:0:
278,84,56911,1,0,0:0:0:0:
357,156,57093,5,0,0:0:0:0:
363,211,57184,1,0,0:0:0:0:
343,263,57275,1,0,0:0:0:0:
300,298,57366,1,0,0:0:0:0:
247,311,57457,1,0,0:0:0:0:
193,296,57548,1,0,0:0:0:0:
153,259,57638,1,0,0:0:0:0:
134,207,57729,1,0,0:0:0:0:
142,152,57820,1,0,0:0:0:0:
174,107,57911,1,0,0:0:0:0:
223,83,58002,1,0,0:0:0:0:
278,84,58093,1,0,0:0:0:0:
327,110,58184,6,0,P|356:156|360:184,1,63.75
424,304,58547,6,0,P|452:232|456:208,1,82.8749962062838
440,124,58729,2,0,L|428:172,1,27.6249987354279
424,304,58911,2,0,P|364:328|332:328,1,82.8749962062838
340,232,59093,2,0,L|292:228,1,27.6249987354279
228,328,59275,2,0,L|180:324,1,27.6249987354279
136,56,59456,5,0,0:0:0:0:
160,80,59547,1,0,0:0:0:0:
180,112,59638,1,0,0:0:0:0:
264,208,59820,2,0,L|320:172,1,55.2499974708558
436,60,60002,5,0,0:0:0:0:
432,196,60184,2,0,L|396:220,1,27.6249987354279
268,284,60366,1,0,0:0:0:0:
264,208,60547,1,0,0:0:0:0:
100,256,60729,6,0,B|68:256|68:256|32:300,1,85
176,308,60911,2,0,L|220:280,1,27.6249987354279
200,348,61002,2,0,L|156:376,1,27.6249987354279
256,352,61093,2,0,L|300:324,1,27.6249987354279
432,196,61275,6,0,L|476:168,1,27.6249987354279
404,304,61456,6,0,P|360:248|344:216,1,82.8749962062838
352,208,61638,2,0,L|352:168,1,27.6249987354279
432,28,61820,2,0,L|412:64,1,27.6249987354279
248,24,62002,2,0,L|264:56,1,27.6249987354279
120,88,62184,6,0,B|52:40|52:40|52:220|52:220|120:168,1,340
56,212,62729,1,0,0:0:0:0:
56,164,62820,1,0,0:0:0:0:
56,120,62911,1,0,0:0:0:0:
256,48,63093,6,0,L|208:56,1,27.6249987354279
328,168,63275,5,0,0:0:0:0:
328,168,63366,1,0,0:0:0:0:
336,88,63456,2,0,B|348:108|372:108|372:108|356:156|384:228,1,159.375006079674
436,180,63729,6,0,B|428:220|444:248|444:248|388:284|332:260,1,159.375006079674
308,228,64002,6,0,B|308:284|236:316|236:316|312:312|348:332,1,223.125008511544
368,344,64366,6,0,P|232:376|228:252,1,297.5
228,172,64729,2,0,L|224:256,1,85
336,88,64911,6,0,L|336:140,1,27.6249987354279
436,180,65093,2,0,L|436:232,1,27.6249987354279
228,172,65275,1,0,0:0:0:0:
208,124,65366,1,0,0:0:0:0:
196,72,65456,1,0,0:0:0:0:
80,196,65638,2,0,P|76:248|80:264,1,55.2499974708558
76,80,65820,5,0,0:0:0:0:
80,196,66002,2,0,L|80:244,1,27.6249987354279
84,348,66184,1,0,0:0:0:0:
176,272,66366,1,0,0:0:0:0:
272,196,66547,2,0,B|340:136|340:136|348:216,1,170
348,272,66820,2,0,L|332:316,1,27.6249987354279
396,280,66911,2,0,L|408:240,1,27.6249987354279
456,224,67002,6,0,L|432:264,1,27.6249987354279
432,192,67093,2,0,L|456:156,1,27.6249987354279
432,192,67184,2,0,P|420:156|352:72,1,138.12499367714
359,77,67456,2,0,L|328:60,1,27.6249987354279
184,112,67638,2,0,L|152:94,1,27.6249987354279
176,272,67820,2,0,L|144:254,1,27.6249987354279
348,312,68002,2,0,B|416:336|416:336|372:244,1,170
360,76,68366,5,0,0:0:0:0:
328,104,68456,1,0,0:0:0:0:
304,144,68547,1,0,0:0:0:0:
260,296,68729,2,0,L|248:228,1,55.2499974708558
184,112,68911,2,0,L|192:160,1,27.6249987354279
176,272,69093,5,0,0:0:0:0:
176,272,69184,1,0,0:0:0:0:
156,320,69275,2,0,B|120:276|120:276|160:208|144:176,1,159.375006079674
88,184,69547,6,0,P|128:120|200:156,1,159.375006079674
220,208,69820,6,0,B|248:236|288:224|288:224|304:256|340:276|340:276|304:312|336:356,1,223.125008511544
256,296,70184,6,0,P|312:232|464:272,1,255.000009727478
461,268,70729,1,0,0:0:0:0:
461,268,70911,2,0,L|464:228,1,31.8750012159348
468,160,71093,1,0,0:0:0:0:
476,56,71275,6,0,B|412:52|388:116|388:116|320:112,1,170
188,8,71820,6,0,L|192:44,1,27.6249987354279
212,184,72002,1,0,0:0:0:0:
104,112,72184,1,0,0:0:0:0:
128,296,72366,2,0,B|132:336|132:336|256:284,1,170
376,240,72729,1,0,0:0:0:0:
212,184,72911,2,0,L|256:164,1,27.6249987354279
444,96,73093,5,0,0:0:0:0:
376,240,73275,2,0,L|352:280,1,27.6249987354279
256,348,73456,2,0,L|276:320,1,27.6249987354279
248,188,73638,2,0,L|224:228,1,27.6249987354279
128,296,73819,2,0,L|148:268,1,27.6249987354279
128,296,73911,2,0,P|128:260|140:224,1,55.2499974708558
164,52,74184,5,0,0:0:0:0:
200,32,74275,1,0,0:0:0:0:
244,36,74366,1,0,0:0:0:0:
336,60,74547,2,0,L|316:136,1,55.2499974708558
256,348,74729,6,0,L|268:304,1,27.6249987354279
376,240,74911,1,0,0:0:0:0:
376,240,75002,1,0,0:0:0:0:
392,168,75093,6,0,B|404:212|404:212|428:232|428:232|428:268|428:268|400:296|400:296|404:328,1,159.375006079674
396,144,75366,6,0,B|440:248|440:248|400:300,1,159.375006079674
400,112,75638,6,0,B|448:156|448:156|456:260|456:260|408:316,1,223.125008511544
448,268,76002,6,0,P|404:312|264:248,1,223.125008511544
269,263,76366,6,0,L|256:216,1,27.6249987354279
152,224,76547,2,0,L|138:176,1,27.6249987354279
20,196,76729,2,0,L|6:148,1,27.6249987354279
104,84,76911,5,0,0:0:0:0:
144,56,77002,1,0,0:0:0:0:
200,60,77093,1,0,0:0:0:0:
360,72,77275,2,0,L|312:120,1,55.2499974708558
216,192,77456,1,0,0:0:0:0:
448,196,77638,6,0,L|396:196,1,27.6249987354279
268,264,77820,1,0,0:0:0:0:
152,224,78002,1,0,0:0:0:0:
240,348,78184,2,0,B|308:348|308:348|384:280,1,170
448,196,78547,1,0,0:0:0:0:
360,72,78729,2,0,L|384:104,1,27.6249987354279
448,196,78911,1,0,0:0:0:0:
296,200,79093,6,0,L|260:200,1,27.6249987354279
184,120,79275,2,0,L|220:120,1,27.6249987354279
112,32,79456,2,0,L|76:32,1,27.6249987354279
40,168,79638,2,0,L|76:168,1,27.6249987354279
68,168,79729,2,0,P|64:216|76:240,1,55.2499974708558
108,344,80002,5,0,0:0:0:0:
152,336,80093,1,0,0:0:0:0:
196,332,80184,1,0,0:0:0:0:
340,316,80366,2,0,L|384:260,1,55.2499974708558
464,152,80547,2,0,L|444:184,1,27.6249987354279
374,272,80729,5,0,0:0:0:0:
374,272,80820,1,0,0:0:0:0:
296,224,80911,2,0,P|312:172|300:68,1,138.12499367714
228,148,81184,6,0,B|168:128|168:128|76:152,1,138.12499367714
176,208,81456,6,0,B|180:248|164:284|164:284|288:320,1,193.374991147995
274,316,81820,5,0,0:0:0:0:
374,272,82366,1,0,0:0:0:0:
244,172,83274,5,0,0:0:0:0:
144,216,83820,1,0,0:0:0:0:
260,52,84729,5,0,0:0:0:0:
360,8,85275,1,0,0:0:0:0:
80,124,86184,5,0,0:0:0:0:
236,268,86729,1,0,0:0:0:0:
128,80,87638,5,0,0:0:0:0:
232,72,87820,1,0,0:0:0:0:
184,168,88002,1,0,0:0:0:0:
92,220,88184,1,0,0:0:0:0:
128,254,88274,1,0,0:0:0:0:
177,269,88365,1,0,0:0:0:0:
226,261,88456,1,0,0:0:0:0:
268,232,88547,2,0,P|304:212|448:272,1,212.5
432,312,89093,5,0,0:0:0:0:
376,200,89275,1,0,0:0:0:0:
288,300,89456,1,0,0:0:0:0:
448,124,89638,1,0,0:0:0:0:
413,99,89728,1,0,0:0:0:0:
372,90,89819,1,0,0:0:0:0:
331,98,89910,1,0,0:0:0:0:
296,122,90002,2,0,P|256:140|180:104,1,127.5
183,109,90366,5,0,0:0:0:0:
150,83,90456,1,0,0:0:0:0:
110,83,90547,1,0,0:0:0:0:
144,224,90729,1,0,0:0:0:0:
44,280,90911,1,0,0:0:0:0:
64,248,91002,1,0,0:0:0:0:
60,208,91093,1,0,0:0:0:0:
28,104,91275,1,0,0:0:0:0:
144,108,91456,1,0,0:0:0:0:
184,108,91547,1,0,0:0:0:0:
220,88,91638,2,0,P|284:68|352:96,1,127.5
372,112,92002,5,0,0:0:0:0:
448,224,92184,1,0,0:0:0:0:
408,32,92366,1,0,0:0:0:0:
340,196,92547,1,0,0:0:0:0:
323,235,92637,1,0,0:0:0:0:
306,274,92728,1,0,0:0:0:0:
288,316,92820,1,0,0:0:0:0:
272,360,92911,2,0,B|232:360|232:360|196:280|156:376|128:272|224:352|236:272|224:256|224:256|192:232|172:256,1,255
256,192,93638,12,0,96366,0:0:0:0:
116,160,105093,5,0,0:0:0:0:
112,124,105184,2,0,L|148:76,1,42.5
256,40,105366,2,0,L|312:44,1,42.5
252,148,105638,1,0,0:0:0:0:
388,160,105820,1,0,0:0:0:0:
388,160,106002,1,0,0:0:0:0:
388,160,106093,2,0,L|400:240,1,42.5
394,202,106547,5,0,0:0:0:0:
376,240,106638,2,0,L|332:268,1,42.5
240,312,106911,1,0,0:0:0:0:
112,256,107093,1,0,0:0:0:0:
160,128,107275,1,0,0:0:0:0:
456,108,107456,6,0,P|392:76|304:144,1,191.250007295609
388,160,108184,1,0,0:0:0:0:
272,32,108366,1,0,0:0:0:0:
251,57,108456,1,0,0:0:0:0:
239,86,108547,1,0,0:0:0:0:
160,128,108729,1,0,0:0:0:0:
212,196,108911,5,0,0:0:0:0:
104,52,109093,1,0,0:0:0:0:
64,184,109275,2,0,B|64:272|64:272|92:308,1,127.5
116,304,109638,2,0,B|144:268|144:268|252:268,1,127.5
252,268,110002,1,0,0:0:0:0:
300,336,110184,2,0,B|352:280|352:280|296:184,1,170
468,4,110911,5,0,0:0:0:0:
420,124,111275,1,0,0:0:0:0:
360,8,111638,1,0,0:0:0:0:
312,128,112002,1,0,0:0:0:0:
44,4,112366,5,0,0:0:0:0:
92,124,112730,1,0,0:0:0:0:
152,8,113093,1,0,0:0:0:0:
200,128,113457,1,0,0:0:0:0:
100,240,113820,5,0,0:0:0:0:
136,320,114002,1,0,0:0:0:0:
208,272,114184,1,0,0:0:0:0:
272,324,114366,1,0,0:0:0:0:
348,296,114547,1,0,0:0:0:0:
360,212,114729,1,0,0:0:0:0:
432,244,114911,1,0,0:0:0:0:
448,320,115093,1,0,0:0:0:0:
336,368,115275,5,0,0:0:0:0:
298,347,115365,1,0,0:0:0:0:
266,319,115456,1,0,0:0:0:0:
240,286,115547,1,0,0:0:0:0:
222,247,115638,1,0,0:0:0:0:
231,206,115728,1,0,0:0:0:0:
229,164,115819,1,0,0:0:0:0:
218,123,115910,1,0,0:0:0:0:
197,86,116002,1,0,0:0:0:0:
157,71,116092,1,0,0:0:0:0:
116,76,116183,1,0,0:0:0:0:
80,99,116274,1,0,0:0:0:0:
68,139,116366,6,0,P|80:176|112:196,1,63.75
98,191,116729,6,0,P|104:260|76:324,1,101.999996887207
32,368,117093,1,0,0:0:0:0:
176,332,117275,2,0,L|312:296,1,101.999996887207
308,296,117547,1,0,0:0:0:0:
340,288,117638,1,0,0:0:0:0:
452,328,117820,6,0,P|456:256|404:192,1,152.999995330811
408,194,118184,2,0,P|368:152|356:80,1,101.999996887207
456,104,118547,1,0,0:0:0:0:
408,192,118729,2,0,P|340:208|264:196,1,101.999996887207
280,200,119002,1,0,0:0:0:0:
256,188,119093,1,0,0:0:0:0:
368,60,119275,6,0,P|300:60|220:120,1,152.999995330811
256,188,119638,2,0,P|188:184|152:136,1,101.999996887207
230,105,120002,1,0,0:0:0:0:
172,52,120184,2,0,B|120:68|120:68|96:156,1,101.999996887207
104,140,120456,1,0,0:0:0:0:
100,168,120547,1,0,0:0:0:0:
20,296,120729,6,0,P|60:352|148:304,1,152.999995330811
96,264,121093,2,0,P|160:252|196:284,1,101.999996887207
133,334,121456,1,0,0:0:0:0:
236,340,121638,1,0,0:0:0:0:
332,308,121820,5,0,0:0:0:0:
349,260,121910,1,0,0:0:0:0:
356,209,122001,1,0,0:0:0:0:
352,158,122092,1,0,0:0:0:0:
338,110,122183,1,0,0:0:0:0:
96,52,122547,6,0,P|88:116|92:172,1,101.999996887207
96,264,122911,1,0,0:0:0:0:
180,168,123093,2,0,P|188:252|184:312,1,101.999996887207
176,300,123366,1,0,0:0:0:0:
156,328,123457,1,0,0:0:0:0:
264,316,123638,6,0,P|276:252|268:144,1,152.999995330811
272,164,124002,2,0,P|268:104|280:32,1,101.999996887207
372,108,124366,1,0,0:0:0:0:
364,204,124547,2,0,P|360:268|384:336,1,101.999996887207
384,328,124820,1,0,0:0:0:0:
408,348,124911,1,0,0:0:0:0:
304,360,125093,6,0,P|232:328|132:328,1,152.999995330811
158,323,125456,2,0,P|132:272|124:216,1,101.999996887207
40,348,125820,1,0,0:0:0:0:
24,236,126002,2,0,P|44:172|84:128,1,101.999996887207
88,128,126275,1,0,0:0:0:0:
120,120,126366,1,0,0:0:0:0:
176,24,126547,6,0,P|200:108|200:196,1,152.999995330811
202,173,126911,1,0,0:0:0:0:
288,76,127093,1,0,0:0:0:0:
280,268,127275,1,0,0:0:0:0:
308,240,127366,1,0,0:0:0:0:
320,204,127456,1,0,0:0:0:0:
288,76,127638,1,0,0:0:0:0:
408,124,127820,1,0,0:0:0:0:
408,124,128002,6,0,P|436:172|440:324,1,203.999993774414
352,356,128547,6,0,P|288:344|232:364,1,101.999996887207
168,380,128911,1,0,0:0:0:0:
72,328,129093,1,0,0:0:0:0:
58,278,129183,1,0,0:0:0:0:
54,228,129274,1,0,0:0:0:0:
59,177,129365,1,0,0:0:0:0:
74,128,129456,1,0,0:0:0:0:
160,224,129638,1,0,0:0:0:0:
408,100,129820,6,0,P|348:92|272:112,1,101.999996887207
307,98,130184,1,0,0:0:0:0:
392,208,130366,1,0,0:0:0:0:
397,258,130456,1,0,0:0:0:0:
383,306,130547,1,0,0:0:0:0:
349,344,130638,1,0,0:0:0:0:
304,366,130729,1,0,0:0:0:0:
280,252,130911,1,0,0:0:0:0:
160,224,131093,1,0,0:0:0:0:
160,32,131275,6,0,P|104:64|76:108,1,101.999996887207
82,93,131638,1,0,0:0:0:0:
184,140,131820,1,0,0:0:0:0:
232,155,131910,1,0,0:0:0:0:
283,160,132001,1,0,0:0:0:0:
333,154,132092,1,0,0:0:0:0:
381,137,132183,1,0,0:0:0:0:
280,56,132366,1,0,0:0:0:0:
388,256,132547,1,0,0:0:0:0:
200,256,132729,6,0,P|132:248|64:264,1,101.999996887207
99,252,133093,1,0,0:0:0:0:
144,356,133275,1,0,0:0:0:0:
194,363,133365,1,0,0:0:0:0:
245,362,133456,1,0,0:0:0:0:
295,353,133547,1,0,0:0:0:0:
343,336,133638,5,0,0:0:0:0:
432,160,133820,1,0,0:0:0:0:
244,56,134002,1,0,0:0:0:0:
316,160,134184,6,0,L|336:216,1,50.9999984436036
240,268,134366,2,0,L|220:212,1,50.9999984436036
136,160,134547,1,0,0:0:0:0:
36,80,134729,1,0,0:0:0:0:
20,128,134819,1,0,0:0:0:0:
15,179,134910,1,0,0:0:0:0:
19,229,135001,1,0,0:0:0:0:
33,278,135092,1,0,0:0:0:0:
33,278,135275,1,0,0:0:0:0:
136,160,135638,6,0,L|132:224,1,50.9999984436036
240,268,135820,2,0,L|244:204,1,50.9999984436036
376,240,136002,1,0,0:0:0:0:
480,152,136184,1,0,0:0:0:0:
432,134,136274,1,0,0:0:0:0:
382,125,136365,1,0,0:0:0:0:
331,125,136456,1,0,0:0:0:0:
281,134,136547,1,0,0:0:0:0:
281,134,136729,1,0,0:0:0:0:
312,296,137093,5,0,0:0:0:0:
322,319,137183,1,0,0:0:0:0:
333,342,137274,1,0,0:0:0:0:
200,88,137456,5,0,0:0:0:0:
189,64,137546,1,0,0:0:0:0:
178,41,137637,1,0,0:0:0:0:
204,240,137820,5,0,0:0:0:0:
178,284,137910,1,0,0:0:0:0:
152,328,138001,1,0,0:0:0:0:
308,144,138184,5,0,0:0:0:0:
333,99,138274,1,0,0:0:0:0:
359,55,138365,1,0,0:0:0:0:
364,224,138547,5,0,0:0:0:0:
417,262,138637,1,0,0:0:0:0:
471,301,138728,1,0,0:0:0:0:
148,160,138911,5,0,0:0:0:0:
94,121,139001,1,0,0:0:0:0:
40,82,139092,1,0,0:0:0:0:
64,328,139275,5,0,0:0:0:0:
108,248,139365,1,0,0:0:0:0:
198,255,139456,1,0,0:0:0:0:
336,332,139638,6,0,P|380:284|352:204,1,152.999995330811
355,206,140002,5,0,0:0:0:0:
308,48,140184,2,0,L|320:92,1,29.7499990921021
355,206,140366,2,0,P|292:216|260:208,1,89.2499972763062
267,210,140547,2,0,L|236:180,1,29.7499990921021
40,112,140729,2,0,L|72:144,1,29.7499990921021
168,44,140911,5,0,0:0:0:0:
185,100,141001,1,0,0:0:0:0:
185,159,141092,1,0,0:0:0:0:
104,340,141275,1,0,0:0:0:0:
168,264,141456,5,0,0:0:0:0:
64,196,141638,2,0,L|36:176,1,29.7499990921021
267,210,141820,1,0,0:0:0:0:
356,208,142002,1,0,0:0:0:0:
168,264,142184,6,0,B|236:300|236:300|296:300,1,127.5
312,296,142366,2,0,L|336:268,1,29.7499990921021
364,300,142456,2,0,L|388:272,1,29.7499990921021
432,336,142547,2,0,L|452:312,1,29.7499990921021
256,48,142729,6,0,L|224:84,1,42.5
428,88,142911,6,0,P|372:100|324:120,1,89.2499972763062
312,128,143093,2,0,L|276:152,1,29.7499990921021
256,48,143275,2,0,L|240:88,1,29.7499990921021
168,16,143456,2,0,L|172:60,1,29.7499990921021
52,144,143638,2,0,L|92:168,1,29.7499990921021
52,144,143729,2,0,P|96:144|148:164,1,89.2499972763062
84,240,143911,5,0,0:0:0:0:
143,259,144001,1,0,0:0:0:0:
206,248,144092,1,0,0:0:0:0:
176,348,144184,6,0,P|228:336|280:308,1,89.2499972763062
260,320,144366,2,0,P|296:280|340:248,1,89.2499972763062
323,258,144547,6,0,L|368:248,1,29.7499990921021
496,220,144729,1,0,0:0:0:0:
496,220,144820,1,0,0:0:0:0:
416,108,144911,6,0,B|392:96|392:96|376:84|368:56|368:56|320:64|276:36,1,159.375006079674
404,140,145184,6,0,B|364:156|304:136|304:136|240:156,1,159.375006079674
424,176,145456,6,0,B|424:232|380:220|380:220|344:220|328:240|328:240|308:288|236:272,1,223.125008511544
240,200,145820,6,0,B|108:216|120:348|296:360,1,297.5
224,361,146184,2,0,L|304:357,1,59.4999981842042
72,332,146366,2,0,L|48:288,1,29.7499990921021
56,164,146547,2,0,L|68:128,1,29.7499990921021
164,56,146729,5,0,0:0:0:0:
220,39,146819,1,0,0:0:0:0:
278,49,146910,1,0,0:0:0:0:
384,120,147093,6,0,P|408:160|404:216,1,89.2499972763062
408,201,147275,5,0,0:0:0:0:
356,312,147456,2,0,L|340:340,1,29.7499990921021
200,192,147638,1,0,0:0:0:0:
272,252,147820,1,0,0:0:0:0:
56,164,148002,6,0,B|48:224|48:224|88:264|88:264|148:264,1,170
84,336,148275,6,0,L|68:368,1,29.7499990921021
112,336,148366,2,0,L|96:368,1,29.7499990921021
172,332,148456,6,0,L|185:305,1,29.7499990921021
200,332,148547,2,0,L|213:305,1,29.7499990921021
200,332,148638,6,0,L|264:176,1,148.74999546051
256,194,148911,6,0,L|220:160,1,29.7499990921021
272,76,149093,2,0,L|235:41,1,29.7499990921021
396,148,149275,2,0,L|359:113,1,29.7499990921021
396,264,149456,6,0,B|420:344|420:344|316:300,1,170
232,264,149820,1,0,0:0:0:0:
188,244,149911,1,0,0:0:0:0:
160,204,150002,1,0,0:0:0:0:
120,64,150184,1,0,0:0:0:0:
40,188,150366,6,0,L|20:220,1,29.7499990921021
156,128,150547,1,0,0:0:0:0:
188,120,150638,1,0,0:0:0:0:
304,116,150729,6,0,B|292:88|304:64|304:64|248:24|308:-4|360:4,1,159.375006079674
304,116,151002,6,0,B|356:140|356:172|356:172|380:168|380:168|392:200|440:224,1,159.375006079674
304,116,151275,6,0,B|284:168|284:168|240:156|240:156|236:204|228:200|168:192|140:240,1,223.125008511544
232,284,151638,6,0,B|200:324|200:324|184:300|184:300|176:324|176:324|152:312|152:312|124:308|124:308|76:308|48:244|80:204,1,297.5
79,205,152002,1,0,0:0:0:0:
124,136,152184,5,0,0:0:0:0:
124,136,152366,2,0,L|160:124,1,31.8750012159348
152,128,152547,1,0,0:0:0:0:
220,44,152729,2,0,P|152:36|108:44,1,111.562504255772
110,43,153093,5,0,0:0:0:0:
332,36,153275,6,0,L|364:32,1,29.7499990921021
452,184,153456,1,0,0:0:0:0:
276,176,153638,1,0,0:0:0:0:
384,320,153820,2,0,L|408:348,1,29.7499990921021
384,320,153911,6,0,P|316:328|248:304,1,127.5
260,311,154093,1,0,0:0:0:0:
260,311,154184,1,0,0:0:0:0:
52,208,154366,2,0,L|88:232,1,29.7499990921021
104,320,154547,6,0,P|140:292|168:236,1,89.2499972763062
162,255,154729,6,0,L|180:200,1,29.7499990921021
324,252,154911,2,0,L|308:212,1,29.7499990921021
452,156,155093,2,0,L|420:136,1,29.7499990921021
248,40,155275,2,0,L|264:80,1,29.7499990921021
248,40,155366,6,0,P|172:60|104:128,1,170
227,158,155638,5,0,0:0:0:0:
203,212,155728,1,0,0:0:0:0:
161,254,155819,1,0,0:0:0:0:
324,252,156002,6,0,P|344:188|344:144,1,89.2499972763062
345,166,156184,2,0,L|328:128,1,29.7499990921021
392,312,156366,1,0,0:0:0:0:
392,312,156456,1,0,0:0:0:0:
300,344,156547,6,0,P|248:320|184:220,1,159.375006079674
69,141,156820,6,0,P|145:181|193:249,1,159.375006079674
128,320,157093,6,0,P|162:261|308:164,1,223.125008511544
324,252,157456,6,0,B|384:200|384:200|376:116,1,127.5
379,152,157638,6,0,P|348:96|304:68,1,89.2499972763062
329,80,157820,2,0,L|288:60,1,29.7499990921021
68,140,158002,2,0,L|96:116,1,29.7499990921021
288,164,158184,2,0,L|246:143,1,29.7499990921021
152,200,158366,6,0,L|124:224,1,29.7499990921021
132,252,158456,2,0,L|164:228,1,29.7499990921021
128,320,158547,2,0,L|160:296,1,29.7499990921021
43,224,158729,2,0,P|55:164|79:124,1,89.2499972763062
68,140,158911,5,0,0:0:0:0:
208,56,159093,2,0,L|248:40,1,29.7499990921021
288,164,159275,1,0,0:0:0:0:
329,80,159456,1,0,0:0:0:0:
432,236,159638,2,0,L|400:192,1,29.7499990921021
432,236,159729,6,0,B|408:296|408:296|344:296|344:296|272:240,1,212.5
277,244,160002,1,0,0:0:0:0:
268,344,160184,6,0,L|232:316,1,29.7499990921021
104,324,160366,6,0,P|100:280|108:224,1,89.2499972763062
105,235,160547,2,0,L|128:200,1,29.7499990921021
80,112,160729,2,0,L|40:108,1,29.7499990921021
196,8,160911,2,0,L|200:40,1,29.7499990921021
329,80,161093,2,0,L|349:44,1,29.7499990921021
329,80,161184,6,0,P|376:120|392:160,1,85
284,196,161456,5,0,0:0:0:0:
310,229,161546,1,0,0:0:0:0:
342,257,161637,1,0,0:0:0:0:
284,336,161820,6,0,P|236:344|176:328,1,89.2499972763062
196,336,162002,2,0,L|212:288,1,29.7499990921021
116,296,162184,5,0,0:0:0:0:
116,296,162275,1,0,0:0:0:0:
116,296,162366,6,0,L|160:136,1,159.375006079674
158,142,162638,6,0,L|260:284,1,159.375006079674
251,271,162911,6,0,P|288:192|224:64,1,223.125008511544
238,73,163275,5,0,0:0:0:0:
408,112,163820,5,0,0:0:0:0:
238,73,164729,5,0,0:0:0:0:
80,104,165275,1,0,0:0:0:0:
368,296,166184,5,0,0:0:0:0:
200,332,166729,5,0,0:0:0:0:
368,296,167638,5,0,0:0:0:0:
464,192,168002,2,0,L|464:96,1,85
224,164,169093,5,0,0:0:0:0:
76,60,169638,5,0,0:0:0:0:
80,184,170547,5,0,0:0:0:0:
132,296,171093,1,0,0:0:0:0:
284,224,172002,5,0,0:0:0:0:
404,68,172547,5,0,0:0:0:0:
400,232,173456,5,0,0:0:0:0:
240,128,173820,1,0,0:0:0:0:
240,128,174002,1,0,0:0:0:0:
