osu file format v14

[General]
AudioFilename: Realize Maze.mp3
AudioLeadIn: 3000
PreviewTime: 55849
Countdown: 0
SampleSet: Soft
StackLeniency: 0.7
Mode: 3
LetterboxInBreaks: 0
SpecialStyle: 0
WidescreenStoryboard: 0

[Editor]
DistanceSpacing: 0.8
BeatDivisor: 12
GridSize: 8
TimelineZoom: 1.2

[Metadata]
Title:Realize Maze
TitleUnicode:Realize Maze
Artist:movies (moimoixXceonxDai.)
ArtistUnicode:movies (moimoi×Xceon×Dai.)
Creator:-LASU-
Version:HD
Source:pop'n music ラピストリア
Tags:Lapistoria Morinaga Mayumi RuberusuScarlet AILK
BeatmapID:639577
BeatmapSetID:282849

[Difficulty]
HPDrainRate:8
CircleSize:4
OverallDifficulty:8
ApproachRate:5
SliderMultiplier:1.4
SliderTickRate:1

[Events]
//Background and Video events
0,0,"bg.jpg",0,0
//Break Periods
//Storyboard Layer 0 (Background)
//Storyboard Layer 1 (Fail)
//Storyboard Layer 2 (Pass)
//Storyboard Layer 3 (Foreground)
//Storyboard Sound Samples

[TimingPoints]
1890,402.684563758389,4,2,1,40,1,0
13165,-100,4,2,1,60,0,0
16386,-100,4,2,1,60,0,1
29272,-100,4,2,1,30,0,0
42158,-100,4,2,1,40,0,0
56655,-100,4,2,1,60,0,1
69541,-100,4,2,1,30,0,0
75983,-100,4,2,1,40,0,0
92494,-100,4,2,1,60,0,1
117863,-100,4,2,1,40,0,0
122695,-100,4,2,1,15,0,0
124306,-100,4,2,1,10,0,0

[HitObjects]
192,192,1084,5,2,0:0:0:0:
448,192,1084,1,0,0:0:0:0:
320,192,1487,1,0,0:0:0:0:
64,192,1487,1,2,0:0:0:0:
64,192,1890,1,2,0:0:0:0:
448,192,1890,1,0,0:0:0:0:
192,192,2494,1,0,0:0:0:0:
192,192,2695,1,0,0:0:0:0:
448,192,2896,1,0,0:0:0:0:
64,192,2997,1,0,0:0:0:0:
320,192,3299,1,0,0:0:0:0:
192,192,3500,1,2,0:0:0:0:
320,192,4104,1,0,0:0:0:0:
320,192,4306,1,0,0:0:0:0:
64,192,4507,1,0,0:0:0:0:
448,192,4608,1,0,0:0:0:0:
192,192,4910,1,0,0:0:0:0:
320,192,5111,1,2,0:0:0:0:
448,192,5514,1,0,0:0:0:0:
320,192,5715,1,0,0:0:0:0:
192,192,6118,1,0,0:0:0:0:
64,192,6520,1,0,0:0:0:0:
64,192,7124,1,0,0:0:0:0:
320,192,7124,1,0,0:0:0:0:
192,192,7326,1,0,0:0:0:0:
448,192,7326,1,0,0:0:0:0:
192,192,7728,1,0,0:0:0:0:
448,192,7728,1,0,0:0:0:0:
320,192,7930,1,0,0:0:0:0:
64,192,7930,1,0,0:0:0:0:
192,192,8131,1,0,0:0:0:0:
448,192,8131,1,0,0:0:0:0:
448,192,8332,1,0,0:0:0:0:
64,192,8332,1,4,0:0:0:0:
320,192,8332,1,8,0:0:0:0:
64,192,8735,1,8,0:0:0:0:
320,192,8936,1,0,0:0:0:0:
64,192,9138,1,8,0:0:0:0:
192,192,9339,1,0,0:0:0:0:
320,192,9440,1,0,0:0:0:0:
64,192,9541,1,8,0:0:0:0:
192,192,9742,1,0,0:0:0:0:
448,192,9943,1,0,0:0:0:0:
64,192,9943,1,8,0:0:0:0:
448,192,10346,1,8,0:0:0:0:
192,192,10547,1,0,0:0:0:0:
448,192,10749,1,8,0:0:0:0:
320,192,10950,1,0,0:0:0:0:
192,192,11051,1,0,0:0:0:0:
448,192,11151,1,8,0:0:0:0:
320,192,11353,1,0,0:0:0:0:
192,192,11554,1,8,0:0:0:0:
448,192,11554,1,0,0:0:0:0:
320,192,11856,1,0,0:0:0:0:
64,192,11957,1,0,0:0:0:0:
448,192,12158,1,0,0:0:0:0:
192,192,12359,1,0,0:0:0:0:
448,192,12661,1,0,0:0:0:0:
64,192,12762,1,0,0:0:0:0:
448,192,12963,1,0,0:0:0:0:
320,192,13165,1,8,0:0:0:0:
64,192,13165,1,4,0:0:0:0:
192,192,13366,1,8,0:0:0:0:
448,192,13567,1,8,0:0:0:0:
192,192,13769,1,8,0:0:0:0:
320,192,13869,1,8,0:0:0:0:
192,192,13970,1,12,0:0:0:0:
64,192,14071,1,8,0:0:0:0:
192,192,14171,1,8,0:0:0:0:
320,192,14272,1,8,0:0:0:0:
64,192,14373,1,12,0:0:0:0:
448,192,14473,1,8,0:0:0:0:
64,192,14574,1,8,0:0:0:0:
448,192,14675,1,8,0:0:0:0:
192,192,14775,1,4,0:0:0:0:
320,192,14775,1,0,0:0:0:0:
192,192,14977,1,0,0:0:0:0:
64,192,14977,1,0,0:0:0:0:
320,192,15178,1,0,0:0:0:0:
448,192,15178,1,0,0:0:0:0:
192,192,15379,1,0,0:0:0:0:
64,192,15379,1,0,0:0:0:0:
320,192,15581,1,0,0:0:0:0:
192,192,15782,1,0,0:0:0:0:
64,192,15782,1,0,0:0:0:0:
448,192,15983,1,0,0:0:0:0:
64,192,15983,1,0,0:0:0:0:
320,192,15983,1,0,0:0:0:0:
64,192,16386,1,4,0:0:0:0:
448,192,16386,1,0,0:0:0:0:
320,192,16386,1,8,0:0:0:0:
192,192,16487,1,0,0:0:0:0:
320,192,16587,1,0,0:0:0:0:
64,192,16688,1,0,0:0:0:0:
320,192,16789,1,8,0:0:0:0:
192,192,16889,1,0,0:0:0:0:
448,192,16990,1,0,0:0:0:0:
64,192,17091,1,0,0:0:0:0:
448,192,17192,1,8,0:0:0:0:
192,192,17292,1,0,0:0:0:0:
64,192,17393,1,0,0:0:0:0:
320,192,17494,1,0,0:0:0:0:
192,192,17594,1,8,0:0:0:0:
448,192,17695,1,0,0:0:0:0:
320,192,17796,1,0,0:0:0:0:
448,192,17896,1,0,0:0:0:0:
320,192,17997,1,8,0:0:0:0:
64,192,18098,1,0,0:0:0:0:
320,192,18198,1,0,0:0:0:0:
448,192,18299,1,0,0:0:0:0:
192,192,18400,1,8,0:0:0:0:
64,192,18500,1,0,0:0:0:0:
320,192,18601,1,0,0:0:0:0:
192,192,18702,1,0,0:0:0:0:
320,192,18802,1,8,0:0:0:0:
448,192,18903,1,0,0:0:0:0:
320,192,19004,1,0,0:0:0:0:
192,192,19104,1,0,0:0:0:0:
320,192,19205,1,8,0:0:0:0:
64,192,19306,1,0,0:0:0:0:
192,192,19406,1,0,0:0:0:0:
448,192,19507,1,0,0:0:0:0:
320,192,19608,1,8,0:0:0:0:
192,192,19708,1,0,0:0:0:0:
448,192,19809,1,0,0:0:0:0:
64,192,19910,1,0,0:0:0:0:
320,192,20010,1,8,0:0:0:0:
192,192,20111,1,0,0:0:0:0:
448,192,20212,1,0,0:0:0:0:
64,192,20312,1,0,0:0:0:0:
320,192,20413,1,8,0:0:0:0:
192,192,20514,1,0,0:0:0:0:
320,192,20614,1,0,0:0:0:0:
64,192,20715,1,0,0:0:0:0:
448,192,20816,1,8,0:0:0:0:
64,192,20916,1,0,0:0:0:0:
192,192,21017,1,0,0:0:0:0:
448,192,21118,1,0,0:0:0:0:
320,192,21218,1,8,0:0:0:0:
64,192,21319,1,0,0:0:0:0:
448,192,21420,1,0,0:0:0:0:
192,192,21520,1,0,0:0:0:0:
448,192,21621,1,10,0:0:0:0:
64,192,21722,1,0,0:0:0:0:
320,192,21822,1,2,0:0:0:0:
192,192,21923,1,0,0:0:0:0:
448,192,22024,1,8,0:0:0:0:
64,192,22124,1,0,0:0:0:0:
192,192,22225,1,2,0:0:0:0:
448,192,22326,1,0,0:0:0:0:
64,192,22426,1,10,0:0:0:0:
448,192,22527,1,0,0:0:0:0:
192,192,22628,1,10,0:0:0:0:
448,192,22728,1,0,0:0:0:0:
320,192,22829,1,10,0:0:0:0:
64,192,22829,1,4,0:0:0:0:
448,192,22930,1,0,0:0:0:0:
64,192,23030,1,0,0:0:0:0:
192,192,23131,1,0,0:0:0:0:
448,192,23232,1,8,0:0:0:0:
320,192,23332,1,0,0:0:0:0:
192,192,23433,1,0,0:0:0:0:
320,192,23534,1,0,0:0:0:0:
64,192,23634,1,8,0:0:0:0:
448,192,23735,1,0,0:0:0:0:
320,192,23836,1,0,0:0:0:0:
64,192,23936,1,0,0:0:0:0:
192,192,24037,1,8,0:0:0:0:
64,192,24138,1,0,0:0:0:0:
320,192,24238,1,0,0:0:0:0:
192,192,24339,1,0,0:0:0:0:
448,192,24440,1,8,0:0:0:0:
64,192,24440,1,4,0:0:0:0:
320,192,24541,1,0,0:0:0:0:
448,192,24641,1,0,0:0:0:0:
192,192,24742,1,0,0:0:0:0:
448,192,24843,1,8,0:0:0:0:
192,192,24943,5,0,0:0:0:0:
320,192,25044,1,0,0:0:0:0:
64,192,25145,1,0,0:0:0:0:
320,192,25245,1,8,0:0:0:0:
64,192,25346,1,0,0:0:0:0:
192,192,25447,1,0,0:0:0:0:
64,192,25547,1,0,0:0:0:0:
320,192,25648,1,8,0:0:0:0:
192,192,25749,1,0,0:0:0:0:
448,192,25849,1,0,0:0:0:0:
64,192,25950,1,0,0:0:0:0:
192,192,26051,1,4,0:0:0:0:
320,192,26051,1,10,0:0:0:0:
320,192,26353,1,10,0:0:0:0:
64,192,26353,1,4,0:0:0:0:
192,192,26655,1,4,0:0:0:0:
448,192,26655,1,10,0:0:0:0:
192,192,26856,1,10,0:0:0:0:
64,192,26856,1,4,0:0:0:0:
192,192,27158,1,4,0:0:0:0:
320,192,27158,1,10,0:0:0:0:
192,192,27460,1,4,0:0:0:0:
448,192,27460,1,10,0:0:0:0:
64,192,27661,1,4,0:0:0:0:
320,192,27661,1,2,0:0:0:0:
448,192,27661,1,8,0:0:0:0:
448,192,28064,1,0,0:0:0:0:
64,192,28064,1,8,0:0:0:0:
64,192,28467,1,8,0:0:0:0:
192,192,28567,1,8,0:0:0:0:
320,192,28668,1,8,0:0:0:0:
448,192,28769,1,8,0:0:0:0:
64,192,28869,1,8,0:0:0:0:
192,192,29071,1,8,0:0:0:0:
320,192,29171,1,8,0:0:0:0:
448,192,29272,1,0,0:0:0:0:
64,192,29272,1,8,0:0:0:0:
64,192,29473,1,0,0:0:0:0:
320,192,29675,1,8,0:0:0:0:
448,192,29675,1,0,0:0:0:0:
192,192,29876,1,0,0:0:0:0:
320,192,30077,1,8,0:0:0:0:
448,192,30077,1,0,0:0:0:0:
64,192,30279,1,0,0:0:0:0:
320,192,30480,1,8,0:0:0:0:
448,192,30480,1,0,0:0:0:0:
192,192,30681,1,0,0:0:0:0:
192,192,30883,1,0,0:0:0:0:
64,192,30883,1,8,0:0:0:0:
448,192,31084,1,0,0:0:0:0:
192,192,31285,1,0,0:0:0:0:
64,192,31285,1,8,0:0:0:0:
320,192,31487,1,0,0:0:0:0:
192,192,31688,1,0,0:0:0:0:
64,192,31688,1,8,0:0:0:0:
448,192,31889,1,0,0:0:0:0:
192,192,32091,1,0,0:0:0:0:
64,192,32091,1,8,0:0:0:0:
320,192,32292,1,0,0:0:0:0:
320,192,32494,1,8,0:0:0:0:
448,192,32494,1,0,0:0:0:0:
64,192,32695,1,0,0:0:0:0:
320,192,32896,1,8,0:0:0:0:
448,192,32896,1,0,0:0:0:0:
192,192,33098,1,0,0:0:0:0:
320,192,33299,1,8,0:0:0:0:
448,192,33299,1,0,0:0:0:0:
64,192,33500,1,0,0:0:0:0:
320,192,33702,1,8,0:0:0:0:
448,192,33702,1,0,0:0:0:0:
192,192,33903,1,0,0:0:0:0:
192,192,34104,1,8,0:0:0:0:
320,192,34104,1,0,0:0:0:0:
448,192,34306,1,0,0:0:0:0:
192,192,34507,1,8,0:0:0:0:
320,192,34507,1,0,0:0:0:0:
64,192,34708,1,0,0:0:0:0:
192,192,34910,1,8,0:0:0:0:
320,192,34910,1,0,0:0:0:0:
448,192,35111,1,0,0:0:0:0:
64,192,35312,1,8,0:0:0:0:
320,192,35312,1,0,0:0:0:0:
320,192,35514,1,0,0:0:0:0:
64,192,35514,1,8,0:0:0:0:
192,192,35715,1,4,0:0:0:0:
448,192,35715,1,8,0:0:0:0:
448,192,35916,1,2,0:0:0:0:
320,192,36118,1,0,0:0:0:0:
192,192,36118,1,8,0:0:0:0:
448,192,36319,1,0,0:0:0:0:
64,192,36520,1,2,0:0:0:0:
320,192,36520,1,8,0:0:0:0:
448,192,36722,1,0,0:0:0:0:
192,192,36923,1,8,0:0:0:0:
320,192,36923,1,0,0:0:0:0:
448,192,37124,1,2,0:0:0:0:
64,192,37326,1,8,0:0:0:0:
320,192,37326,1,0,0:0:0:0:
448,192,37527,1,2,0:0:0:0:
192,192,37728,1,8,0:0:0:0:
320,192,37728,1,0,0:0:0:0:
64,192,37930,1,0,0:0:0:0:
192,192,38131,5,2,0:0:0:0:
448,192,38131,1,8,0:0:0:0:
64,192,38332,1,0,0:0:0:0:
320,192,38534,1,8,0:0:0:0:
448,192,38534,1,0,0:0:0:0:
192,192,38735,1,2,0:0:0:0:
64,192,38936,5,2,0:0:0:0:
448,192,38936,1,0,0:0:0:0:
320,192,38936,1,0,0:0:0:0:
192,192,39238,1,0,0:0:0:0:
64,192,39238,1,2,0:0:0:0:
448,192,39238,1,0,0:0:0:0:
192,192,39541,1,0,0:0:0:0:
64,192,39541,1,2,0:0:0:0:
448,192,39541,1,0,0:0:0:0:
320,192,39742,1,8,0:0:0:0:
448,192,40145,1,0,0:0:0:0:
192,192,40145,1,2,0:0:0:0:
64,192,40346,1,2,0:0:0:0:
320,192,40346,1,0,0:0:0:0:
64,192,40547,1,2,0:0:0:0:
192,192,40547,1,8,0:0:0:0:
448,192,40547,1,0,0:0:0:0:
192,192,40849,1,2,0:0:0:0:
320,192,40849,1,8,0:0:0:0:
192,192,41151,1,2,0:0:0:0:
320,192,41151,1,8,0:0:0:0:
64,192,41353,1,8,0:0:0:0:
320,192,41554,1,8,0:0:0:0:
448,192,41755,1,8,0:0:0:0:
192,192,41856,1,8,0:0:0:0:
448,192,41957,1,8,0:0:0:0:
192,192,42057,1,8,0:0:0:0:
64,192,42158,1,4,0:0:0:0:
320,192,42158,1,8,0:0:0:0:
448,192,42158,1,0,0:0:0:0:
64,192,42561,1,8,0:0:0:0:
64,192,42963,1,8,0:0:0:0:
448,192,42963,1,0,0:0:0:0:
192,192,43165,1,0,0:0:0:0:
448,192,43265,1,0,0:0:0:0:
64,192,43366,1,8,0:0:0:0:
320,192,43366,1,0,0:0:0:0:
448,192,43567,1,0,0:0:0:0:
320,192,43668,1,0,0:0:0:0:
64,192,43769,1,8,0:0:0:0:
192,192,43769,1,0,0:0:0:0:
448,192,44171,1,8,0:0:0:0:
448,192,44574,1,0,0:0:0:0:
192,192,44574,1,8,0:0:0:0:
320,192,44675,1,0,0:0:0:0:
64,192,44775,1,0,0:0:0:0:
448,192,44876,1,0,0:0:0:0:
320,192,44977,1,0,0:0:0:0:
64,192,44977,1,8,0:0:0:0:
192,192,45077,1,0,0:0:0:0:
448,192,45178,1,0,0:0:0:0:
320,192,45279,1,0,0:0:0:0:
448,192,45379,1,0,0:0:0:0:
64,192,45379,1,2,0:0:0:0:
192,192,45379,1,8,0:0:0:0:
320,192,45581,1,0,0:0:0:0:
448,192,45581,1,0,0:0:0:0:
192,192,45782,1,8,0:0:0:0:
64,192,45782,1,4,0:0:0:0:
320,192,45782,1,0,0:0:0:0:
320,192,45983,1,0,0:0:0:0:
448,192,45983,1,0,0:0:0:0:
64,192,46185,1,2,0:0:0:0:
192,192,46185,1,8,0:0:0:0:
448,192,46185,1,0,0:0:0:0:
320,192,46386,1,0,0:0:0:0:
192,192,46386,1,0,0:0:0:0:
448,192,46587,1,0,0:0:0:0:
320,192,46587,1,8,0:0:0:0:
64,192,46587,1,4,0:0:0:0:
192,192,46789,1,0,0:0:0:0:
320,192,46789,1,0,0:0:0:0:
448,192,46990,1,0,0:0:0:0:
64,192,46990,1,2,0:0:0:0:
192,192,46990,1,8,0:0:0:0:
320,192,47192,1,0,0:0:0:0:
448,192,47393,1,0,0:0:0:0:
192,192,47393,1,8,0:0:0:0:
448,192,47796,1,0,0:0:0:0:
64,192,47796,1,8,0:0:0:0:
192,192,47896,1,8,0:0:0:0:
320,192,47997,1,8,0:0:0:0:
448,192,47997,1,0,0:0:0:0:
64,192,48098,1,8,0:0:0:0:
192,192,48198,1,8,0:0:0:0:
320,192,48198,1,0,0:0:0:0:
448,192,48299,1,0,0:0:0:0:
64,192,48400,1,8,0:0:0:0:
192,192,48500,1,8,0:0:0:0:
64,192,48601,1,4,0:0:0:0:
320,192,48601,1,8,0:0:0:0:
448,192,48601,1,0,0:0:0:0:
192,192,48802,1,0,0:0:0:0:
64,192,49004,1,8,0:0:0:0:
320,192,49004,1,0,0:0:0:0:
192,192,49205,1,0,0:0:0:0:
192,192,49406,1,0,0:0:0:0:
64,192,49406,1,8,0:0:0:0:
448,192,49507,1,0,0:0:0:0:
192,192,49608,1,0,0:0:0:0:
320,192,49708,1,0,0:0:0:0:
64,192,49809,1,8,0:0:0:0:
448,192,49809,1,0,0:0:0:0:
448,192,50010,1,0,0:0:0:0:
320,192,50111,1,0,0:0:0:0:
64,192,50212,1,8,0:0:0:0:
192,192,50212,1,0,0:0:0:0:
448,192,50413,1,0,0:0:0:0:
64,192,50614,1,8,0:0:0:0:
320,192,50614,1,0,0:0:0:0:
192,192,50816,1,0,0:0:0:0:
64,192,51017,1,8,0:0:0:0:
192,192,51017,1,0,0:0:0:0:
320,192,51118,1,0,0:0:0:0:
192,192,51218,1,0,0:0:0:0:
320,192,51319,1,0,0:0:0:0:
64,192,51420,1,8,0:0:0:0:
448,192,51420,1,0,0:0:0:0:
192,192,51520,1,0,0:0:0:0:
320,192,51621,1,0,0:0:0:0:
448,192,51621,1,0,0:0:0:0:
192,192,51722,1,0,0:0:0:0:
64,192,51822,1,4,0:0:0:0:
320,192,51822,1,2,0:0:0:0:
448,192,51822,1,8,0:0:0:0:
448,192,52124,1,8,0:0:0:0:
320,192,52124,1,2,0:0:0:0:
64,192,52124,1,4,0:0:0:0:
192,192,52426,1,4,0:0:0:0:
448,192,52426,1,10,0:0:0:0:
64,192,52628,1,4,0:0:0:0:
448,192,52628,1,8,0:0:0:0:
320,192,52628,1,2,0:0:0:0:
320,192,52930,1,8,0:0:0:0:
192,192,52930,1,2,0:0:0:0:
64,192,52930,1,4,0:0:0:0:
448,192,53232,1,10,0:0:0:0:
192,192,53232,1,4,0:0:0:0:
64,192,53433,5,4,0:0:0:0:
192,192,53433,1,2,0:0:0:0:
448,192,53433,1,8,0:0:0:0:
64,192,53836,1,0,0:0:0:0:
192,192,54037,1,8,0:0:0:0:
448,192,54037,1,0,0:0:0:0:
64,192,54238,1,0,0:0:0:0:
192,192,54440,1,8,0:0:0:0:
448,192,54440,1,0,0:0:0:0:
64,192,54641,1,8,0:0:0:0:
448,192,54843,1,0,0:0:0:0:
192,192,54843,1,8,0:0:0:0:
448,192,55044,128,2,55849:0:0:0:0:
64,192,55044,1,4,0:0:0:0:
320,192,55044,1,8,0:0:0:0:
64,192,56655,1,4,0:0:0:0:
448,192,56655,1,0,0:0:0:0:
192,192,56655,1,8,0:0:0:0:
320,192,56755,1,0,0:0:0:0:
64,192,56856,1,0,0:0:0:0:
192,192,56957,1,0,0:0:0:0:
448,192,57057,1,8,0:0:0:0:
64,192,57158,1,0,0:0:0:0:
192,192,57259,1,0,0:0:0:0:
320,192,57359,1,0,0:0:0:0:
192,192,57460,1,0,0:0:0:0:
64,192,57460,1,8,0:0:0:0:
448,192,57561,1,0,0:0:0:0:
192,192,57661,1,0,0:0:0:0:
320,192,57762,1,0,0:0:0:0:
64,192,57863,1,8,0:0:0:0:
448,192,57963,1,0,0:0:0:0:
192,192,58064,1,0,0:0:0:0:
320,192,58165,1,0,0:0:0:0:
64,192,58265,1,8,0:0:0:0:
448,192,58265,1,0,0:0:0:0:
192,192,58467,1,0,0:0:0:0:
448,192,58567,1,0,0:0:0:0:
320,192,58668,1,8,0:0:0:0:
192,192,58869,1,0,0:0:0:0:
320,192,58970,1,0,0:0:0:0:
448,192,59071,1,0,0:0:0:0:
64,192,59071,1,8,0:0:0:0:
320,192,59171,1,0,0:0:0:0:
192,192,59272,1,0,0:0:0:0:
448,192,59373,1,0,0:0:0:0:
192,192,59473,1,8,0:0:0:0:
320,192,59574,1,0,0:0:0:0:
64,192,59675,1,0,0:0:0:0:
448,192,59775,1,0,0:0:0:0:
320,192,59876,1,0,0:0:0:0:
64,192,59876,1,8,0:0:0:0:
448,192,59977,1,0,0:0:0:0:
192,192,60077,1,0,0:0:0:0:
448,192,60178,1,0,0:0:0:0:
320,192,60279,1,8,0:0:0:0:
64,192,60379,1,0,0:0:0:0:
448,192,60480,1,0,0:0:0:0:
320,192,60581,1,0,0:0:0:0:
192,192,60681,1,8,0:0:0:0:
448,192,60681,1,0,0:0:0:0:
320,192,60782,1,0,0:0:0:0:
64,192,60883,1,0,0:0:0:0:
448,192,60983,1,0,0:0:0:0:
192,192,61084,1,8,0:0:0:0:
64,192,61285,1,0,0:0:0:0:
192,192,61386,1,0,0:0:0:0:
448,192,61487,1,0,0:0:0:0:
320,192,61487,1,8,0:0:0:0:
448,192,61889,1,0,0:0:0:0:
320,192,61889,1,8,0:0:0:0:
192,192,61889,1,2,0:0:0:0:
448,192,62091,1,0,0:0:0:0:
64,192,62091,1,2,0:0:0:0:
192,192,62091,1,0,0:0:0:0:
192,192,62494,1,2,0:0:0:0:
448,192,62494,1,0,0:0:0:0:
320,192,62494,1,0,0:0:0:0:
64,192,62695,1,2,0:0:0:0:
192,192,62695,1,8,0:0:0:0:
448,192,62695,1,0,0:0:0:0:
320,192,62896,1,0,0:0:0:0:
64,192,62896,1,2,0:0:0:0:
192,192,62896,1,8,0:0:0:0:
448,192,63098,1,0,0:0:0:0:
320,192,63098,1,8,0:0:0:0:
64,192,63098,1,4,0:0:0:0:
192,192,63198,1,0,0:0:0:0:
448,192,63299,1,0,0:0:0:0:
64,192,63400,1,0,0:0:0:0:
320,192,63500,1,8,0:0:0:0:
192,192,63702,1,0,0:0:0:0:
64,192,63802,1,0,0:0:0:0:
192,192,63903,1,8,0:0:0:0:
448,192,63903,1,0,0:0:0:0:
320,192,64004,1,0,0:0:0:0:
64,192,64104,1,0,0:0:0:0:
192,192,64205,1,0,0:0:0:0:
448,192,64306,1,8,0:0:0:0:
320,192,64406,1,0,0:0:0:0:
192,192,64507,1,0,0:0:0:0:
448,192,64608,1,0,0:0:0:0:
192,192,64708,1,4,0:0:0:0:
320,192,64708,1,8,0:0:0:0:
64,192,64809,1,0,0:0:0:0:
448,192,64910,1,0,0:0:0:0:
192,192,65010,1,0,0:0:0:0:
64,192,65111,1,8,0:0:0:0:
192,192,65212,1,0,0:0:0:0:
320,192,65312,1,0,0:0:0:0:
448,192,65413,1,0,0:0:0:0:
320,192,65514,1,0,0:0:0:0:
64,192,65514,1,8,0:0:0:0:
192,192,65614,1,0,0:0:0:0:
448,192,65715,1,0,0:0:0:0:
192,192,65816,1,0,0:0:0:0:
64,192,65916,1,8,0:0:0:0:
320,192,66017,1,0,0:0:0:0:
192,192,66118,1,0,0:0:0:0:
320,192,66218,1,0,0:0:0:0:
192,192,66319,1,2,0:0:0:0:
448,192,66319,1,8,0:0:0:0:
64,192,66319,1,4,0:0:0:0:
448,192,66621,1,8,0:0:0:0:
64,192,66621,1,4,0:0:0:0:
320,192,66621,1,2,0:0:0:0:
448,192,66923,1,8,0:0:0:0:
320,192,66923,1,2,0:0:0:0:
192,192,66923,1,4,0:0:0:0:
448,192,67124,1,8,0:0:0:0:
320,192,67124,1,2,0:0:0:0:
64,192,67124,1,4,0:0:0:0:
64,192,67426,1,4,0:0:0:0:
192,192,67426,1,2,0:0:0:0:
448,192,67426,1,8,0:0:0:0:
192,192,67728,1,4,0:0:0:0:
448,192,67728,1,8,0:0:0:0:
320,192,67728,1,2,0:0:0:0:
320,192,67930,1,2,0:0:0:0:
64,192,67930,1,4,0:0:0:0:
448,192,67930,1,8,0:0:0:0:
64,192,68332,1,8,0:0:0:0:
320,192,68332,1,0,0:0:0:0:
64,192,68735,1,8,0:0:0:0:
192,192,68735,1,0,0:0:0:0:
320,192,68836,1,8,0:0:0:0:
448,192,68936,1,8,0:0:0:0:
192,192,69037,1,8,0:0:0:0:
64,192,69138,1,8,0:0:0:0:
320,192,69339,1,8,0:0:0:0:
192,192,69440,1,8,0:0:0:0:
448,192,69541,1,2,0:0:0:0:
64,192,69541,1,4,0:0:0:0:
192,192,70145,1,2,0:0:0:0:
448,192,70145,1,0,0:0:0:0:
192,192,70346,1,2,0:0:0:0:
448,192,70346,1,0,0:0:0:0:
320,192,70547,1,0,0:0:0:0:
64,192,70547,1,2,0:0:0:0:
192,192,70648,1,2,0:0:0:0:
448,192,70648,1,0,0:0:0:0:
448,192,70950,1,0,0:0:0:0:
320,192,70950,1,2,0:0:0:0:
192,192,71151,1,2,0:0:0:0:
448,192,71151,1,0,0:0:0:0:
192,192,71755,1,2,0:0:0:0:
448,192,71755,1,0,0:0:0:0:
192,192,71957,1,2,0:0:0:0:
448,192,71957,1,0,0:0:0:0:
64,192,72158,1,2,0:0:0:0:
320,192,72158,1,0,0:0:0:0:
192,192,72259,1,2,0:0:0:0:
448,192,72259,1,0,0:0:0:0:
320,192,72561,1,2,0:0:0:0:
448,192,72561,1,0,0:0:0:0:
64,192,72762,1,2,0:0:0:0:
192,192,72762,1,0,0:0:0:0:
448,192,72762,1,0,0:0:0:0:
320,192,73064,1,2,0:0:0:0:
448,192,73064,1,0,0:0:0:0:
448,192,73366,1,0,0:0:0:0:
192,192,73366,1,2,0:0:0:0:
448,192,73567,1,0,0:0:0:0:
64,192,73567,1,2,0:0:0:0:
192,192,73869,1,2,0:0:0:0:
320,192,73869,1,0,0:0:0:0:
192,192,74171,1,2,0:0:0:0:
320,192,74171,1,0,0:0:0:0:
64,192,74373,1,4,0:0:0:0:
448,192,74373,1,0,0:0:0:0:
320,192,74373,1,8,0:0:0:0:
64,192,74775,1,8,0:0:0:0:
192,192,74775,1,0,0:0:0:0:
64,192,75178,1,8,0:0:0:0:
448,192,75178,1,0,0:0:0:0:
320,192,75279,1,8,0:0:0:0:
448,192,75379,1,8,0:0:0:0:
64,192,75480,1,8,0:0:0:0:
448,192,75581,1,0,0:0:0:0:
192,192,75581,1,8,0:0:0:0:
320,192,75782,1,8,0:0:0:0:
192,192,75883,1,8,0:0:0:0:
448,192,75983,1,0,0:0:0:0:
320,192,75983,1,8,0:0:0:0:
64,192,75983,1,4,0:0:0:0:
192,192,76386,1,0,0:0:0:0:
320,192,76789,1,0,0:0:0:0:
64,192,76889,1,0,0:0:0:0:
448,192,76990,1,0,0:0:0:0:
192,192,77091,1,0,0:0:0:0:
448,192,77192,1,0,0:0:0:0:
320,192,77292,1,0,0:0:0:0:
64,192,77393,1,0,0:0:0:0:
192,192,77494,1,0,0:0:0:0:
64,192,77594,1,4,0:0:0:0:
320,192,77594,1,8,0:0:0:0:
448,192,77594,1,0,0:0:0:0:
192,192,77997,1,0,0:0:0:0:
320,192,78400,1,0,0:0:0:0:
64,192,78500,1,0,0:0:0:0:
448,192,78601,1,0,0:0:0:0:
320,192,78702,1,0,0:0:0:0:
64,192,78802,1,0,0:0:0:0:
448,192,78802,1,0,0:0:0:0:
192,192,78903,1,0,0:0:0:0:
448,192,79004,1,0,0:0:0:0:
320,192,79104,1,0,0:0:0:0:
448,192,79205,1,0,0:0:0:0:
64,192,79205,1,2,0:0:0:0:
192,192,79406,1,0,0:0:0:0:
64,192,79406,1,0,0:0:0:0:
192,192,79608,1,4,0:0:0:0:
448,192,79608,1,0,0:0:0:0:
320,192,79608,1,8,0:0:0:0:
320,192,79809,1,0,0:0:0:0:
448,192,79809,1,0,0:0:0:0:
192,192,80010,1,2,0:0:0:0:
320,192,80010,1,0,0:0:0:0:
64,192,80212,1,0,0:0:0:0:
192,192,80212,1,0,0:0:0:0:
192,192,80413,1,4,0:0:0:0:
320,192,80413,1,8,0:0:0:0:
448,192,80413,1,0,0:0:0:0:
320,192,80614,1,0,0:0:0:0:
448,192,80614,1,0,0:0:0:0:
64,192,80816,1,4,0:0:0:0:
192,192,80816,1,2,0:0:0:0:
448,192,80816,1,8,0:0:0:0:
320,192,81621,1,0,0:0:0:0:
448,192,81621,1,0,0:0:0:0:
64,192,81621,1,8,0:0:0:0:
192,192,81722,1,8,0:0:0:0:
320,192,81822,1,8,0:0:0:0:
64,192,81923,1,8,0:0:0:0:
320,192,82024,1,0,0:0:0:0:
448,192,82024,1,0,0:0:0:0:
192,192,82024,1,8,0:0:0:0:
64,192,82225,1,8,0:0:0:0:
192,192,82326,1,8,0:0:0:0:
320,192,82426,1,8,0:0:0:0:
448,192,82426,1,0,0:0:0:0:
64,192,82426,1,4,0:0:0:0:
64,192,82829,1,8,0:0:0:0:
192,192,82829,1,0,0:0:0:0:
64,192,83232,1,8,0:0:0:0:
320,192,83232,1,0,0:0:0:0:
448,192,83332,1,0,0:0:0:0:
192,192,83433,1,0,0:0:0:0:
320,192,83534,1,0,0:0:0:0:
448,192,83634,1,0,0:0:0:0:
64,192,83634,1,8,0:0:0:0:
192,192,83735,1,0,0:0:0:0:
448,192,83836,1,0,0:0:0:0:
320,192,83936,1,0,0:0:0:0:
448,192,84037,1,8,0:0:0:0:
64,192,84037,1,4,0:0:0:0:
192,192,84440,1,8,0:0:0:0:
320,192,84843,1,0,0:0:0:0:
64,192,84843,1,8,0:0:0:0:
448,192,84943,1,0,0:0:0:0:
192,192,85044,1,0,0:0:0:0:
320,192,85145,1,0,0:0:0:0:
448,192,85245,1,0,0:0:0:0:
64,192,85245,1,8,0:0:0:0:
192,192,85346,1,0,0:0:0:0:
320,192,85447,1,0,0:0:0:0:
448,192,85547,1,0,0:0:0:0:
320,192,85648,1,8,0:0:0:0:
64,192,85648,1,4,0:0:0:0:
192,192,85648,1,2,0:0:0:0:
448,192,85950,1,8,0:0:0:0:
320,192,85950,1,2,0:0:0:0:
64,192,85950,1,4,0:0:0:0:
64,192,86252,1,4,0:0:0:0:
192,192,86252,1,2,0:0:0:0:
320,192,86252,1,8,0:0:0:0:
64,192,86453,1,4,0:0:0:0:
192,192,86453,1,2,0:0:0:0:
448,192,86453,1,8,0:0:0:0:
64,192,86755,1,4,0:0:0:0:
320,192,86755,1,2,0:0:0:0:
448,192,86755,1,8,0:0:0:0:
64,192,87057,1,4,0:0:0:0:
192,192,87057,1,2,0:0:0:0:
320,192,87057,1,8,0:0:0:0:
192,192,87259,1,8,0:0:0:0:
64,192,87259,1,4,0:0:0:0:
448,192,87259,128,2,88869:0:0:0:0:
64,192,88869,5,2,0:0:0:0:
192,192,88970,1,0,0:0:0:0:
320,192,89071,1,0,0:0:0:0:
448,192,89171,1,0,0:0:0:0:
320,192,89272,1,0,0:0:0:0:
64,192,89373,1,0,0:0:0:0:
192,192,89473,1,0,0:0:0:0:
64,192,89574,1,0,0:0:0:0:
192,192,89675,1,2,0:0:0:0:
320,192,89775,1,0,0:0:0:0:
192,192,89876,1,0,0:0:0:0:
448,192,89977,1,0,0:0:0:0:
320,192,90077,1,2,0:0:0:0:
192,192,90178,1,0,0:0:0:0:
320,192,90279,1,0,0:0:0:0:
192,192,90379,1,0,0:0:0:0:
64,192,90480,1,8,0:0:0:0:
192,192,90883,1,0,0:0:0:0:
448,192,90883,1,0,0:0:0:0:
320,192,91285,1,2,0:0:0:0:
64,192,91688,1,2,0:0:0:0:
448,192,91688,1,0,0:0:0:0:
192,192,91688,1,0,0:0:0:0:
320,192,92091,1,8,0:0:0:0:
64,192,92494,1,4,0:0:0:0:
320,192,92494,1,8,0:0:0:0:
448,192,92494,1,0,0:0:0:0:
192,192,92594,1,0,0:0:0:0:
448,192,92695,1,0,0:0:0:0:
64,192,92796,1,0,0:0:0:0:
320,192,92896,1,8,0:0:0:0:
192,192,92997,1,0,0:0:0:0:
448,192,93098,1,0,0:0:0:0:
64,192,93198,1,0,0:0:0:0:
192,192,93299,1,8,0:0:0:0:
320,192,93299,1,0,0:0:0:0:
448,192,93400,1,0,0:0:0:0:
64,192,93500,1,0,0:0:0:0:
448,192,93601,1,0,0:0:0:0:
320,192,93702,1,8,0:0:0:0:
448,192,93802,1,0,0:0:0:0:
192,192,93903,1,0,0:0:0:0:
64,192,94004,1,0,0:0:0:0:
320,192,94104,1,8,0:0:0:0:
448,192,94104,1,0,0:0:0:0:
320,192,94306,1,0,0:0:0:0:
192,192,94406,1,0,0:0:0:0:
448,192,94507,1,8,0:0:0:0:
320,192,94608,1,0,0:0:0:0:
64,192,94708,1,0,0:0:0:0:
192,192,94809,1,0,0:0:0:0:
320,192,94910,1,8,0:0:0:0:
448,192,94910,1,0,0:0:0:0:
192,192,95010,1,0,0:0:0:0:
448,192,95111,1,0,0:0:0:0:
320,192,95212,1,0,0:0:0:0:
448,192,95312,1,8,0:0:0:0:
64,192,95413,1,0,0:0:0:0:
448,192,95514,1,0,0:0:0:0:
192,192,95614,1,0,0:0:0:0:
320,192,95715,1,8,0:0:0:0:
448,192,95715,1,0,0:0:0:0:
64,192,95816,1,0,0:0:0:0:
320,192,95916,1,0,0:0:0:0:
192,192,96017,1,0,0:0:0:0:
448,192,96118,1,8,0:0:0:0:
64,192,96218,1,0,0:0:0:0:
320,192,96319,1,0,0:0:0:0:
192,192,96420,1,0,0:0:0:0:
448,192,96520,1,0,0:0:0:0:
320,192,96520,1,8,0:0:0:0:
64,192,96621,1,0,0:0:0:0:
320,192,96722,1,0,0:0:0:0:
192,192,96822,1,0,0:0:0:0:
64,192,96923,1,8,0:0:0:0:
64,192,97326,1,2,0:0:0:0:
320,192,97326,1,0,0:0:0:0:
448,192,97326,1,0,0:0:0:0:
448,192,97527,1,0,0:0:0:0:
320,192,97527,1,0,0:0:0:0:
192,192,97527,1,2,0:0:0:0:
64,192,97728,1,8,0:0:0:0:
320,192,97930,1,2,0:0:0:0:
448,192,97930,1,0,0:0:0:0:
64,192,98131,1,2,0:0:0:0:
192,192,98131,1,8,0:0:0:0:
320,192,98131,1,0,0:0:0:0:
192,192,98332,1,2,0:0:0:0:
320,192,98332,1,0,0:0:0:0:
64,192,98534,1,4,0:0:0:0:
192,192,98534,1,2,0:0:0:0:
448,192,98534,1,8,0:0:0:0:
320,192,98634,1,0,0:0:0:0:
64,192,98735,1,0,0:0:0:0:
192,192,98836,1,0,0:0:0:0:
320,192,98936,1,8,0:0:0:0:
448,192,99037,1,0,0:0:0:0:
192,192,99138,1,0,0:0:0:0:
320,192,99238,1,0,0:0:0:0:
64,192,99339,1,8,0:0:0:0:
448,192,99339,1,0,0:0:0:0:
320,192,99440,1,0,0:0:0:0:
192,192,99541,1,0,0:0:0:0:
320,192,99641,1,0,0:0:0:0:
192,192,99742,1,0,0:0:0:0:
448,192,99843,1,0,0:0:0:0:
320,192,99943,1,0,0:0:0:0:
448,192,100044,1,0,0:0:0:0:
192,192,100145,1,0,0:0:0:0:
64,192,100145,1,8,0:0:0:0:
192,192,100346,1,0,0:0:0:0:
320,192,100447,1,0,0:0:0:0:
64,192,100547,1,8,0:0:0:0:
448,192,100648,1,0,0:0:0:0:
192,192,100749,1,0,0:0:0:0:
448,192,100849,1,0,0:0:0:0:
64,192,100950,1,0,0:0:0:0:
192,192,100950,1,0,0:0:0:0:
448,192,101051,1,0,0:0:0:0:
320,192,101151,1,0,0:0:0:0:
448,192,101252,1,0,0:0:0:0:
64,192,101353,1,8,0:0:0:0:
192,192,101554,1,0,0:0:0:0:
320,192,101655,1,0,0:0:0:0:
64,192,101755,1,4,0:0:0:0:
448,192,101755,1,10,0:0:0:0:
64,192,102057,1,4,0:0:0:0:
192,192,102057,1,2,0:0:0:0:
448,192,102057,1,8,0:0:0:0:
448,192,102359,1,8,0:0:0:0:
320,192,102359,1,2,0:0:0:0:
192,192,102359,1,4,0:0:0:0:
64,192,102561,1,4,0:0:0:0:
320,192,102561,1,2,0:0:0:0:
448,192,102561,1,8,0:0:0:0:
320,192,102863,1,8,0:0:0:0:
64,192,102863,1,4,0:0:0:0:
192,192,102863,1,2,0:0:0:0:
192,192,103165,1,4,0:0:0:0:
320,192,103165,1,2,0:0:0:0:
448,192,103165,1,8,0:0:0:0:
64,192,103366,1,4,0:0:0:0:
320,192,103366,1,2,0:0:0:0:
448,192,103366,1,8,0:0:0:0:
192,192,103567,1,0,0:0:0:0:
448,192,103567,1,0,0:0:0:0:
64,192,103769,1,4,0:0:0:0:
320,192,103769,1,8,0:0:0:0:
448,192,103769,1,0,0:0:0:0:
64,192,104171,1,8,0:0:0:0:
192,192,104171,1,0,0:0:0:0:
448,192,104171,1,0,0:0:0:0:
320,192,104272,1,8,0:0:0:0:
448,192,104373,1,8,0:0:0:0:
192,192,104473,1,8,0:0:0:0:
64,192,104574,1,8,0:0:0:0:
320,192,104574,1,0,0:0:0:0:
192,192,104775,1,8,0:0:0:0:
320,192,104876,1,8,0:0:0:0:
64,192,104977,1,4,0:0:0:0:
192,192,104977,1,8,0:0:0:0:
448,192,104977,1,0,0:0:0:0:
192,192,105178,1,0,0:0:0:0:
320,192,105178,1,0,0:0:0:0:
64,192,105379,1,4,0:0:0:0:
448,192,105379,1,0,0:0:0:0:
192,192,105379,1,8,0:0:0:0:
320,192,105480,1,0,0:0:0:0:
192,192,105581,1,0,0:0:0:0:
448,192,105681,1,0,0:0:0:0:
320,192,105782,1,0,0:0:0:0:
64,192,105782,1,8,0:0:0:0:
192,192,105883,1,0,0:0:0:0:
448,192,105983,1,0,0:0:0:0:
320,192,106084,1,0,0:0:0:0:
192,192,106185,1,8,0:0:0:0:
448,192,106185,1,0,0:0:0:0:
320,192,106285,1,0,0:0:0:0:
64,192,106386,1,0,0:0:0:0:
192,192,106587,1,8,0:0:0:0:
320,192,106587,1,0,0:0:0:0:
448,192,106688,1,0,0:0:0:0:
64,192,106789,1,0,0:0:0:0:
320,192,106889,1,0,0:0:0:0:
64,192,106990,1,8,0:0:0:0:
192,192,106990,1,0,0:0:0:0:
448,192,107091,1,0,0:0:0:0:
64,192,107192,1,0,0:0:0:0:
320,192,107393,1,0,0:0:0:0:
192,192,107393,1,8,0:0:0:0:
448,192,107494,1,0,0:0:0:0:
192,192,107594,1,0,0:0:0:0:
448,192,107695,1,0,0:0:0:0:
64,192,107796,1,8,0:0:0:0:
320,192,107796,1,0,0:0:0:0:
192,192,107896,1,0,0:0:0:0:
320,192,107997,1,0,0:0:0:0:
64,192,108098,1,0,0:0:0:0:
192,192,108198,1,2,0:0:0:0:
448,192,108198,1,8,0:0:0:0:
320,192,108299,1,0,0:0:0:0:
64,192,108400,1,2,0:0:0:0:
320,192,108500,1,0,0:0:0:0:
192,192,108601,1,2,0:0:0:0:
448,192,108601,1,8,0:0:0:0:
64,192,108601,1,4,0:0:0:0:
192,192,108802,1,2,0:0:0:0:
448,192,108802,1,0,0:0:0:0:
320,192,108802,1,0,0:0:0:0:
64,192,109205,1,2,0:0:0:0:
320,192,109205,1,0,0:0:0:0:
448,192,109205,1,0,0:0:0:0:
64,192,109608,1,2,0:0:0:0:
192,192,109608,1,0,0:0:0:0:
320,192,109608,1,0,0:0:0:0:
192,192,110212,1,2,0:0:0:0:
320,192,110212,1,8,0:0:0:0:
448,192,110212,1,0,0:0:0:0:
64,192,110413,1,2,0:0:0:0:
192,192,110413,1,0,0:0:0:0:
448,192,110413,1,0,0:0:0:0:
448,192,110816,1,0,0:0:0:0:
320,192,110816,1,0,0:0:0:0:
64,192,110816,1,8,0:0:0:0:
64,192,111017,1,4,0:0:0:0:
192,192,111017,1,8,0:0:0:0:
320,192,111017,1,0,0:0:0:0:
320,192,111218,1,0,0:0:0:0:
448,192,111218,1,0,0:0:0:0:
192,192,111218,1,8,0:0:0:0:
64,192,111420,1,4,0:0:0:0:
192,192,111420,1,8,0:0:0:0:
448,192,111420,1,0,0:0:0:0:
320,192,111520,1,0,0:0:0:0:
192,192,111621,1,0,0:0:0:0:
448,192,111822,1,8,0:0:0:0:
64,192,111822,1,4,0:0:0:0:
320,192,111923,1,0,0:0:0:0:
192,192,112024,1,0,0:0:0:0:
64,192,112225,1,8,0:0:0:0:
320,192,112225,1,0,0:0:0:0:
192,192,112326,1,0,0:0:0:0:
448,192,112426,1,0,0:0:0:0:
320,192,112527,1,0,0:0:0:0:
448,192,112628,1,0,0:0:0:0:
64,192,112628,1,8,0:0:0:0:
192,192,112728,1,0,0:0:0:0:
320,192,112829,1,0,0:0:0:0:
192,192,113030,1,8,0:0:0:0:
448,192,113030,1,0,0:0:0:0:
320,192,113131,1,0,0:0:0:0:
448,192,113232,1,0,0:0:0:0:
64,192,113433,1,4,0:0:0:0:
320,192,113433,1,8,0:0:0:0:
192,192,113534,1,0,0:0:0:0:
448,192,113634,1,0,0:0:0:0:
192,192,113836,1,8,0:0:0:0:
448,192,113836,1,0,0:0:0:0:
320,192,113936,1,0,0:0:0:0:
192,192,114037,1,0,0:0:0:0:
64,192,114238,1,8,0:0:0:0:
448,192,114238,1,0,0:0:0:0:
320,192,114339,1,0,0:0:0:0:
64,192,114440,1,0,0:0:0:0:
192,192,114541,1,0,0:0:0:0:
448,192,114641,5,8,0:0:0:0:
320,192,114641,1,2,0:0:0:0:
64,192,114641,1,4,0:0:0:0:
64,192,114943,1,4,0:0:0:0:
192,192,114943,1,2,0:0:0:0:
448,192,114943,1,8,0:0:0:0:
320,192,115245,1,2,0:0:0:0:
448,192,115245,1,8,0:0:0:0:
192,192,115245,1,4,0:0:0:0:
64,192,115447,1,4,0:0:0:0:
192,192,115447,1,2,0:0:0:0:
320,192,115447,1,8,0:0:0:0:
192,192,115749,1,4,0:0:0:0:
320,192,115749,1,2,0:0:0:0:
448,192,115749,1,8,0:0:0:0:
64,192,116051,1,4,0:0:0:0:
192,192,116051,1,2,0:0:0:0:
448,192,116051,1,8,0:0:0:0:
64,192,116252,1,4,0:0:0:0:
448,192,116252,1,8,0:0:0:0:
320,192,116252,1,2,0:0:0:0:
192,192,116655,1,8,0:0:0:0:
64,192,117057,1,8,0:0:0:0:
320,192,117158,1,8,0:0:0:0:
64,192,117259,1,8,0:0:0:0:
320,192,117359,1,8,0:0:0:0:
192,192,117460,1,8,0:0:0:0:
448,192,117460,1,0,0:0:0:0:
320,192,117661,1,8,0:0:0:0:
192,192,117762,1,8,0:0:0:0:
64,192,117863,1,4,0:0:0:0:
448,192,117863,1,8,0:0:0:0:
320,192,118064,1,0,0:0:0:0:
448,192,118265,1,0,0:0:0:0:
320,192,118467,1,2,0:0:0:0:
64,192,118668,1,0,0:0:0:0:
192,192,118869,1,0,0:0:0:0:
320,192,119071,1,0,0:0:0:0:
64,192,119272,1,0,0:0:0:0:
192,192,119473,1,4,0:0:0:0:
448,192,119473,1,8,0:0:0:0:
320,192,119675,1,0,0:0:0:0:
192,192,119876,1,0,0:0:0:0:
448,192,120077,1,0,0:0:0:0:
64,192,120279,1,0,0:0:0:0:
320,192,120480,1,0,0:0:0:0:
192,192,120681,1,0,0:0:0:0:
320,192,120883,1,0,0:0:0:0:
192,192,121084,1,0,0:0:0:25:soft-hitclap.wav
448,192,121084,1,0,0:0:0:0:
64,192,121084,1,2,0:0:0:0:
320,192,121386,1,0,0:0:0:25:soft-hitclap.wav
192,192,121386,1,2,0:0:0:0:
448,192,121688,1,0,0:0:0:25:soft-hitclap.wav
320,192,121688,1,2,0:0:0:0:
192,192,121889,1,2,0:0:0:0:
320,192,121889,1,0,0:0:0:25:soft-hitclap.wav
64,192,122192,1,2,0:0:0:0:
320,192,122192,1,0,0:0:0:25:soft-hitclap.wav
192,192,122494,1,2,0:0:0:0:
448,192,122494,1,0,0:0:0:25:soft-hitclap.wav
64,192,122695,1,2,0:0:0:0:
320,192,122695,128,4,125916:0:0:0:0:
192,192,122695,1,8,0:0:0:0:
192,192,122997,1,2,0:0:0:0:
448,192,123098,1,2,0:0:0:0:
192,192,123299,1,2,0:0:0:0:
64,192,123400,1,2,0:0:0:0:
192,192,123601,1,2,0:0:0:0:
448,192,123702,1,2,0:0:0:0:
64,192,123903,1,2,0:0:0:0:
192,192,124104,1,2,0:0:0:0:
448,192,124205,1,2,0:0:0:0:
64,192,124306,1,2,0:0:0:0:
192,192,124507,1,2,0:0:0:0:
64,192,124608,1,2,0:0:0:0:
448,192,124708,1,2,0:0:0:0:
192,192,124910,1,2,0:0:0:0:
64,192,125010,1,2,0:0:0:0:
448,192,125212,1,2,0:0:0:0:
192,192,125312,1,2,0:0:0:0:
64,192,125413,1,2,0:0:0:0:
192,192,125514,1,2,0:0:0:0:
448,192,125715,1,2,0:0:0:0:
192,192,125816,1,2,0:0:0:0:
64,192,125916,1,2,0:0:0:0:
