osu file format v9

[General]
AudioFilename: yurayura.mp3
AudioLeadIn: 0
PreviewTime: 68903
Countdown: 0
SampleSet: Normal
StackLeniency: 0.7
Mode: 0
LetterboxInBreaks: 1

[Editor]
DistanceSpacing: 1
BeatDivisor: 4
GridSize: 4

[Metadata]
Title:Yurayura
Artist:monochrome-coat
Creator:K o h a k u
Version:Lunatic
Source:Touhou
Tags:Saigyouji yuyuko

[Difficulty]
HPDrainRate:7
CircleSize:4
OverallDifficulty:7
ApproachRate:9
SliderMultiplier:2.4
SliderTickRate:0.5

[Events]
//Background and Video events
0,0,"Touhou123.jpg"
//Break Periods
2,29148,31048
2,111705,116155
//Storyboard Layer 0 (Background)
//Storyboard Layer 1 (Fail)
//Storyboard Layer 2 (Pass)
//Storyboard Layer 3 (Foreground)
//Storyboard Sound Samples
//Background Colour Transformations
3,100,163,162,255

[TimingPoints]
10048,300,4,1,0,70,1,0
47911,300,4,1,0,70,1,0
48480,300.751879699248,4,1,0,70,1,0
58076,-100,4,1,0,70,0,1
58151,-100,4,1,0,70,0,0
68905,300,4,1,0,70,1,1
86753,-100,4,1,0,70,0,0
92303,-133.333333333333,4,1,0,70,0,0
102503,-133.333333333333,4,1,0,70,0,1
102578,-133.333333333333,4,1,0,70,0,0
116753,-100,4,1,0,70,0,1
136103,-100,4,1,0,70,0,0

[Colours]
Combo1 : 36,84,164
Combo2 : 194,5,148
Combo3 : 240,185,239

[HitObjects]
132,272,10048,2,0,B|104:208|104:148,1,120,4|0
216,108,10348,2,0,B|280:112|368:92,1,120,0|0
368,212,10648,2,0,B|392:288|440:324|436:316,3,120
476,204,11248,6,0,B|492:120|472:64,1,120,4|0
368,36,11548,2,0,B|304:68|244:84,1,120
144,120,11848,2,0,B|128:48|24:32|24:32,3,120
36,168,12448,6,0,B|80:280,1,120,4|0
476,216,12748,2,0,B|432:104,1,120
192,324,13048,2,0,B|276:316|336:308,1,120,4|0
320,60,13348,2,0,B|236:68|176:76,1,120
228,192,13648,5,4
228,192,13723,1,0
228,192,13798,1,0
228,192,13873,1,0
228,192,13948,1,0
228,192,14023,1,0
228,192,14098,1,0
228,192,14173,1,0
228,192,14248,1,0
228,192,14323,1,0
228,192,14398,1,0
228,192,14473,1,0
228,192,14548,1,0
460,128,14848,5,4
376,40,14998,1,0
296,128,15148,1,0
204,48,15298,1,0
116,128,15448,1,0
44,224,15598,2,0,B|32:288|52:344|48:352,2,120
156,264,16048,5,4
248,332,16198,1,0
348,268,16348,1,0
248,200,16498,1,0
348,132,16648,1,0
252,60,16798,2,0,B|184:36|120:40|120:40,2,120
372,56,17248,6,0,B|428:168,1,120,4|0
260,240,17548,2,0,B|200:120,1,120
56,228,17848,2,0,B|108:336,1,120,4|0
288,320,18148,2,0,B|392:248,1,120
392,132,18448,5,4
372,108,18523,1,0
348,88,18598,1,0
320,76,18673,1,0
292,68,18748,1,0
264,68,18823,1,0
236,68,18898,1,0
208,76,18973,1,0
180,88,19048,1,0
156,104,19123,1,0
132,124,19198,1,0
116,148,19273,1,0
100,176,19348,1,0
264,316,19648,6,0,B|332:288|388:256,1,120,4|0
244,52,19948,2,0,B|176:80|120:112,1,120
252,300,20248,6,0,B|320:272|376:240,1,120,4|0
260,84,20548,2,0,B|192:112|136:144,1,120
340,132,20848,6,0,B|392:180|416:228,1,120,4|0
168,252,21148,2,0,B|116:204|92:156,1,120
384,116,21448,6,0,B|436:164|460:212,1,120,4|0
132,272,21748,2,0,B|80:224|56:176,1,120
40,264,22048,5,4
148,320,22198,1,0
268,320,22348,1,0
388,320,22498,1,0
488,252,22648,2,0,B|480:184|456:128,1,120,4|0
380,44,22948,1,0
380,44,23098,1,0
260,24,23248,5,4
260,56,23323,1,0
260,84,23398,1,0
260,112,23473,1,0
260,144,23548,1,0
260,172,23623,1,0
260,200,23698,1,0
260,228,23773,1,0
260,256,23848,1,0
208,288,23998,5,0
100,240,24148,1,0
188,156,24298,1,0
92,80,24448,5,4
196,20,24598,2,0,B|272:24|336:24,1,120
420,84,24898,1,0
452,200,25048,2,0,B|456:268|400:312,1,120
288,348,25348,1,0
168,328,25498,2,0,B|88:312|56:240,1,120
52,148,25798,5,0
172,156,25948,2,0,B|172:36,1,120
292,36,26248,1,0
408,52,26398,2,0,B|408:176,1,120
408,292,26698,1,0
292,268,26848,6,0,B|232:240|232:240,2,60,4|0|0
268,152,27148,2,0,B|204:116|204:116,2,60,4|0|4
72,176,27448,6,0,B|100:104|100:104,2,60,4|0|4
192,200,27748,2,0,B|212:132|212:132,2,60,4|0|4
252,304,28048,5,0
292,292,28123,1,0
308,252,28198,1,0
288,216,28273,1,0
248,200,28348,1,0
248,160,28423,1,0
212,136,28498,1,0
212,96,28573,1,0
236,60,28648,1,0
272,40,28723,1,0
312,48,28798,1,0
348,68,28873,1,0
352,108,28948,1,0
96,80,31648,5,4
96,80,31723,1,0
96,80,31798,1,0
96,80,31873,1,0
96,80,31948,1,0
96,80,32023,1,0
96,80,32098,1,0
96,80,32173,1,0
96,80,32248,1,0
384,252,32848,5,4
384,252,32923,1,0
384,252,32998,1,0
384,252,33073,1,0
384,252,33148,1,0
384,252,33223,1,0
384,252,33298,1,0
384,252,33373,1,0
384,252,33448,6,0,B|300:268|228:272,1,120,4|0
272,148,33748,2,0,B|368:56,1,120,4|0
244,24,34048,6,0,B|184:8|184:4,8,60,4|0|0|0|0|0|0|0|0
156,280,35248,6,0,B|236:304|232:296,8,60,4|0|0|0|0|0|0|0|0
48,148,36448,5,4
64,148,36523,1,0
80,148,36598,1,0
96,148,36673,1,0
112,148,36748,1,0
128,148,36823,1,0
144,148,36898,1,0
160,148,36973,1,0
176,148,37048,1,0
312,196,37648,5,4
312,180,37723,1,0
312,164,37798,1,0
312,148,37873,1,0
312,132,37948,1,0
312,116,38023,1,0
312,100,38098,1,0
312,84,38173,1,0
312,68,38248,6,0,B|268:24|200:16,1,120,4|0
200,316,38548,2,0,B|244:360|312:368,1,120,4|0
372,304,38848,5,4
384,292,38923,1,0
400,280,38998,1,0
416,272,39073,1,0
428,260,39148,1,0
436,244,39223,1,0
440,228,39298,6,0,B|440:100,1,120,0|0
320,96,39598,2,0,B|320:216,1,120,0|0
240,128,39898,1,0
164,32,40048,5,4
148,44,40123,1,0
136,60,40198,1,0
132,76,40273,1,0
132,92,40348,1,0
132,108,40423,1,0
132,124,40498,6,0,B|132:204|132:204|188:208,1,120
380,260,40798,2,0,B|380:180|380:180|324:176,1,120
340,56,41098,1,0
292,164,41248,5,4
276,176,41323,1,0
268,192,41398,1,0
264,208,41473,1,0
264,224,41548,1,0
264,240,41623,1,0
268,256,41698,6,0,B|220:304|152:316,1,120
92,220,41998,2,0,B|72:144|92:64,1,120
184,32,42298,1,0
184,152,42448,5,4
184,168,42523,1,0
184,184,42598,1,0
184,200,42673,1,0
184,216,42748,1,0
184,232,42823,1,0
184,248,42898,6,0,B|188:328|188:328|260:328,1,120
328,136,43198,2,0,B|324:56|324:56|252:56,1,120
404,56,43498,1,0
424,176,43648,5,4
424,192,43723,1,0
424,208,43798,1,0
424,224,43873,1,0
424,240,43948,1,0
424,256,44023,1,0
420,272,44098,6,0,B|408:308|368:328|272:320,1,120
260,216,44398,2,0,B|252:172|216:140|132:128,1,120
100,44,44698,1,0
220,44,44848,5,4
236,44,44923,1,0
252,44,44998,1,0
268,48,45073,1,0
284,56,45148,1,0
296,68,45223,1,0
308,80,45298,6,0,B|344:144|340:200,1,120
204,304,45598,2,0,B|168:240|172:184,1,120
248,96,45898,1,0
252,264,46048,5,4
188,164,46198,1,0
308,160,46348,1,4
252,264,46498,1,0
188,164,46648,1,4
308,160,46798,1,0
252,264,46948,1,4
188,164,47098,1,0
256,192,47248,12,0,48286
252,96,48480,6,0,B|408:96,1,120,2|0
384,216,48780,2,0,B|240:216,1,120
168,284,49081,2,0,B|44:288,1,120
40,168,49382,2,0,B|196:168,1,120
176,48,49683,6,0,B|308:48,1,120,2|0
408,88,49983,2,0,B|472:204,1,120
436,308,50284,2,0,B|304:280,1,120
200,288,50585,2,0,B|76:316,1,120
100,196,50886,5,2
172,100,51036,1,0
240,196,51186,1,0
320,104,51337,1,0
384,204,51487,1,2
320,104,51637,1,0
240,196,51788,1,0
168,100,51938,1,0
80,256,52089,6,0,B|136:304|132:292,8,60,2|0|0|0|0|0|0|0|0
196,224,52840,6,0,B|336:224,1,120
396,132,53141,1,0
308,48,53292,1,2
308,48,53367,1,0
308,48,53442,1,0
308,48,53517,1,0
308,48,53592,1,0
308,48,53667,1,0
308,48,53743,1,0
308,48,53818,1,0
308,48,53893,1,0
200,96,54043,6,0,B|132:132|132:132|120:180,1,120
216,252,54344,1,0
248,368,54495,1,2
248,368,54570,1,0
248,368,54645,1,0
248,368,54720,1,0
248,368,54795,1,0
248,368,54870,1,0
248,368,54946,1,0
248,368,55021,1,0
248,368,55096,1,0
240,256,55246,6,0,B|344:248|384:248,1,120,0|0
444,160,55547,2,0,B|392:80|260:60|192:64,1,240,2|0
116,96,55998,1,0
44,192,56149,1,0
164,196,56299,1,2
244,108,56449,2,0,B|244:-16,1,120,0|0
360,16,56750,1,2
384,32,56825,1,0
408,52,56901,1,0
424,76,56976,1,0
432,104,57051,1,0
420,132,57126,1,0
396,152,57201,1,0
368,164,57276,1,0
336,164,57352,1,0
312,144,57427,1,0
304,116,57502,1,0
432,132,57652,6,0,B|412:224|388:252,1,120,4|0
280,284,57953,1,0
168,244,58104,5,4
164,124,58254,1,0
284,124,58404,1,0
288,244,58555,1,0
224,144,58705,5,0
220,24,58855,1,0
340,28,59006,1,0
344,148,59156,1,0
460,120,59307,5,4
460,240,59457,1,0
376,324,59607,1,0
256,328,59758,1,0
152,272,59908,5,0
84,172,60058,1,0
152,72,60209,1,0
260,20,60359,1,0
324,52,60510,6,0,B|324:176,1,120,4|0
188,332,60810,2,0,B|188:208,1,120
456,8,61111,6,0,B|456:136,1,120,4|0
56,376,61412,2,0,B|56:248,1,120
72,136,61713,6,0,B|204:136,1,120,4|0
440,248,62013,2,0,B|308:248,1,120
112,36,62314,6,0,B|112:160,1,120
400,348,62615,2,0,B|400:224,1,120
388,108,62916,6,0,B|320:56|320:56|244:52,1,120
256,56,63141,1,0
228,56,63216,1,0
144,140,63367,1,0
152,260,63517,2,0,B|212:288|212:288|312:288,1,120
364,220,63818,2,0,B|304:188|304:188|244:188,1,120
132,184,64119,6,0,B|84:144|84:144|72:84,1,120
68,60,64344,1,0
64,32,64419,1,0
180,56,64570,2,0,B|224:124|224:124|256:144|256:144|288:128|288:128|344:52,1,240
416,88,65021,2,0,B|404:108|400:108|400:108|432:108|432:108|400:116|400:116|432:116|432:116|400:128|400:128|436:128|436:128|400:136|400:136|432:140|432:140|400:148|400:148|428:152|428:152|428:212|428:208,1,360
372,292,65622,5,0
268,232,65773,1,0
268,112,65923,1,0
160,20,66073,5,0
120,196,66224,1,0
252,316,66374,6,0,B|252:296|256:296|248:296|248:296|248:288|248:288|260:288|260:288|236:276|236:276|272:276|272:276|236:264|236:264|272:264|272:264|236:256|236:256|272:256|272:256|236:248|236:248|272:248|272:248|236:236|236:236|272:236|272:236|236:228|236:228|272:228|272:228|236:220|236:220|272:220|272:220|232:212|232:212|280:212|280:212|252:208|256:208|248:192|248:192|264:192|264:192|252:184|252:164,1,720
256,48,67427,5,0
256,48,67577,1,0
372,84,67728,2,0,B|428:112|428:112|472:164|472:156,1,120
140,84,68028,2,0,B|84:112|84:112|40:164|40:156,1,120
128,240,68329,2,0,B|88:300|88:300|88:352|88:352,2,120
244,272,68780,1,0
408,300,68905,6,0,B|476:276|476:276|488:208,1,120,0|0
480,108,69205,1,0
480,108,69355,2,0,B|416:48|416:48|344:32|344:32|300:28|300:28|248:32,1,240
36,100,69955,5,4
36,100,70105,2,0,B|36:192|36:192|84:232|84:232|168:232|168:232,1,240,0|0
224,124,70555,1,0
292,224,70705,1,0
356,124,70855,1,0
440,80,71155,6,0,B|372:48|372:48|312:40,1,120,4|0
440,304,71455,2,0,B|372:336|372:336|312:344,1,120
328,160,71755,2,0,B|284:116|284:116|224:104,1,120,4|0
328,224,72055,2,0,B|284:268|284:268|224:280,1,120
220,188,72355,5,4
192,188,72430,1,0
164,188,72505,1,0
132,188,72580,1,0
104,188,72655,1,0
76,188,72730,1,0
48,188,72805,6,0,B|48:112|48:112|92:72,1,120,4|0
184,20,73105,2,0,B|184:96|184:96|140:136,1,120,4|0
264,84,73405,1,0
264,84,73555,6,0,B|336:116|336:116|428:92|428:92,1,120,4|0
468,184,73855,2,0,B|416:224|416:224|324:216,1,120
244,244,74155,2,0,B|288:300|288:300|360:312,1,120
336,308,74455,1,0
236,372,74605,1,0
196,304,74755,6,0,B|112:288|112:288|76:224,1,120,4|0
96,136,75055,2,0,B|176:92|176:92|244:96,1,120
284,4,75355,1,0
312,120,75505,1,0
392,32,75655,1,0
456,132,75805,1,0
452,264,75955,6,0,B|348:276|348:276|288:256,1,120,4|0
312,92,76255,2,0,B|216:56|216:56|156:56,1,120
80,196,76555,2,0,B|164:244|164:244|220:240,1,120,4|0
432,188,76855,2,0,B|348:140|348:140|292:144,1,120
236,60,77155,5,4
208,60,77230,1,0
180,72,77305,1,0
156,92,77380,1,0
148,124,77455,1,0
156,152,77530,1,0
180,172,77605,1,0
204,188,77680,1,0
232,192,77755,1,0
260,192,77830,1,0
288,188,77905,1,0
316,200,77980,1,0
332,232,78055,2,0,B|280:272|280:272|220:272,1,120,0|0
144,316,78355,6,0,B|84:256|84:256|80:188,1,120,4|0
368,68,78655,2,0,B|428:128|428:128|432:196,1,120
140,232,78955,6,0,B|104:180|104:180|144:136,1,120,4|0
372,232,79255,2,0,B|408:180|408:180|368:136,1,120
200,120,79555,6,0,B|200:240,1,120,4|0
312,120,79855,2,0,B|312:240,1,120
104,240,80155,6,0,B|104:120,1,120,4|0
408,240,80455,2,0,B|408:120,1,120
352,12,80755,6,0,B|288:52|216:32,1,120,4|0
160,132,81055,2,0,B|224:172|296:152,1,120,4|0
208,260,81355,2,0,B|288:268|348:212|344:208,2,120,4|0|4
100,208,81805,1,0
60,100,81955,5,0
80,76,82030,1,0
108,60,82105,1,0
136,52,82180,1,0
164,48,82255,1,0
192,48,82330,1,0
220,48,82405,1,0
248,52,82480,1,0
276,64,82555,1,0
304,76,82630,1,0
324,96,82705,1,0
340,124,82780,1,0
352,152,82855,2,0,B|412:184|412:184|464:184,1,120
404,288,83155,6,0,B|344:272|344:272|304:232,1,120,4|0
228,136,83455,2,0,B|224:196|224:196|172:228,1,120
260,312,83755,1,0
140,308,83905,1,0
72,208,84055,1,0
132,104,84205,1,0
244,144,84355,6,0,B|300:184|300:184|364:184,1,120
440,104,84655,2,0,B|396:60|396:60|328:48,1,120
220,44,84955,1,0
100,40,85105,1,0
32,140,85255,1,2
264,296,85555,5,2
412,28,85855,5,2
36,136,86155,5,2
452,312,86455,5,2
256,192,86755,12,4,88105
256,192,88255,5,0
120,56,89305,5,4
120,56,89455,1,0
256,192,90505,5,4
256,192,90655,1,0
432,328,91705,5,4
432,328,91855,1,0
408,44,92305,5,0
380,44,92380,1,0
352,44,92455,1,0
324,44,92530,1,0
296,44,92605,1,0
268,44,92680,1,0
240,44,92755,1,0
212,44,92830,1,0
188,44,92905,6,2,B|104:52|76:136|80:224|112:288|144:320|196:324|220:284,1,359.999989271164,2|0
284,296,93655,1,0
372,296,93805,1,0
460,276,93955,1,0
476,188,94105,1,0
408,136,94405,6,0,B|372:100|372:100,2,44.9999986588955,0|0|0
336,192,94705,2,0,B|280:224|280:224,2,44.9999986588955,0|0|0
276,124,95005,2,0,B|224:76|224:76,2,44.9999986588955
144,96,95305,6,0,B|88:64|88:64,2,44.9999986588955
136,232,95605,2,0,B|80:284|80:284,2,44.9999986588955
272,236,95905,2,0,B|300:272|300:272,2,44.9999986588955
276,100,96205,2,0,B|316:64|316:64,2,44.9999986588955
412,108,96505,5,0
412,108,96655,1,0
412,108,96730,1,0
412,108,96805,1,0
416,196,96955,1,0
348,256,97105,2,0,B|316:288|316:288,2,44.9999986588955
348,256,97405,6,2,B|284:224|284:224|284:136|284:136|284:64|284:64|212:32|212:32|160:48,1,359.999989271164
68,200,98305,5,0
156,200,98455,1,0
244,200,98605,1,0
332,200,98755,1,0
376,120,98905,6,0,B|400:76|400:76,2,44.9999986588955
292,84,99205,2,0,B|268:32|268:32|136:32,1,179.999994635582
64,72,99655,5,0
64,72,99730,1,0
64,72,99805,1,0
84,160,99955,1,0
172,160,100105,6,0,B|172:96|160:68|160:64,2,89.9999973177911,4|0|0
264,160,100555,2,0,B|264:224|276:252|276:256,2,89.9999973177911,0|4|0
320,84,101005,5,0
320,84,101155,2,0,B|384:84|384:84|412:72,1,89.9999973177911,0|4
476,132,101455,2,0,B|492:188|492:188|468:236|468:236,2,89.9999973177911,0|4|0
472,44,101905,2,0,B|516:20|512:20,4,44.9999986588955,4|0|0|0|0
352,56,102505,5,2
332,48,102580,1,0
312,44,102655,1,0
292,40,102730,1,0
268,36,102805,1,2
244,36,102880,1,0
224,40,102955,1,0
204,48,103030,1,0
184,60,103105,1,2
168,76,103180,1,0
156,96,103255,1,0
144,116,103330,1,0
136,136,103405,1,2
136,160,103480,1,0
148,180,103555,1,0
164,196,103630,1,0
184,204,103705,5,2
208,204,103780,1,0
228,196,103855,1,0
248,184,103930,1,0
268,180,104005,1,2
296,184,104080,1,0
316,192,104155,1,0
332,208,104230,1,0
344,228,104305,1,2
348,252,104380,1,0
344,276,104455,1,0
328,292,104530,1,0
308,304,104605,1,2
288,316,104680,1,0
268,320,104755,1,0
244,320,104830,1,0
224,312,104905,6,0,B|184:288|184:288,5,44.9999986588955,2|0|0|0|2|0
164,280,105355,2,0,B|120:256,5,44.9999986588955,0|0|2|0|0|0
100,256,105805,2,0,B|40:248|44:248,3,44.9999986588955,2|0|0|0
44,228,106105,5,2
32,208,106180,1,0
36,184,106255,1,0
44,164,106330,1,0
60,148,106405,1,2
80,140,106480,1,0
100,132,106555,1,0
120,120,106630,1,0
136,104,106705,1,2
156,92,106780,1,0
172,76,106855,1,0
192,64,106930,1,0
212,52,107005,2,0,B|256:44|276:64|276:64,3,44.9999986588955,2|0|0|0
276,60,107305,5,2
292,76,107380,1,0
312,84,107455,1,0
332,92,107530,1,0
352,100,107605,1,2
372,112,107680,1,0
392,120,107755,1,0
412,112,107830,1,0
432,100,107905,2,0,B|488:72|488:72,3,44.9999986588955,2|0|0|0
488,96,108205,2,0,B|496:152|496:152,3,44.9999986588955,2|0|0|0
496,164,108505,5,2
492,188,108580,1,0
484,208,108655,1,0
472,228,108730,1,0
456,244,108805,1,2
436,256,108880,1,0
412,256,108955,1,0
392,248,109030,1,0
380,228,109105,2,0,B|352:164|352:164,3,44.9999986588955,2|0|0|0
352,168,109405,2,0,B|288:116|292:116,3,44.9999986588955,2|0|0|0
304,120,109705,5,2
296,100,109780,1,0
280,84,109855,1,0
260,72,109930,1,0
236,76,110005,1,2
216,88,110080,1,0
208,108,110155,1,0
204,132,110230,1,0
204,156,110305,1,2
208,180,110380,1,0
204,204,110455,2,0,B|204:272|200:264,5,44.9999986588955,0|0|2|0|0|0
212,272,110905,5,2
228,288,110980,1,0
248,296,111055,1,0
268,300,111130,1,0
292,304,111205,1,2
316,304,111280,1,0
340,300,111355,1,0
360,296,111430,1,0
380,288,111505,1,4
260,188,116755,6,0,B|260:260|256:252,4,60,4|0|0|0|0
260,188,117205,2,0,B|260:100|260:100|292:60,1,120
400,76,117505,1,0
400,76,117655,2,0,B|436:136|436:136|436:212,1,120
400,312,117955,6,0,B|468:288|468:288,4,60,4|0|0|0|0
400,312,118405,2,0,B|316:312|316:312|260:288,1,120
280,176,118705,1,0
160,176,118855,2,0,B|104:200|104:200|44:200,1,120
52,100,119155,6,0,B|120:60|120:60|176:60,1,120,4|0
52,284,119455,2,0,B|120:324|120:324|176:324,1,120
192,168,119755,6,0,B|236:116|236:116|296:112,1,120,4|0
192,216,120055,2,0,B|236:268|236:268|296:272,1,120
320,192,120355,5,2
348,192,120430,1,2
376,192,120505,1,2
408,192,120580,1,2
436,192,120655,1,2
464,192,120730,1,2
484,216,120805,6,0,B|488:280|488:280|424:308,1,120,4|0
316,300,121105,2,0,B|240:300|240:300|196:264,1,120,4|0
172,156,121405,1,0
124,44,121555,6,0,B|56:44|56:44,4,60,4|0|0|0|0
124,44,122005,2,0,B|204:52|204:52|264:48,1,120
364,60,122305,2,0,B|444:96|444:96|488:148,1,120
372,196,122605,1,0
416,280,122755,6,0,B|480:280|480:280,4,60,4|0|0|0|0
300,256,123205,2,0,B|196:280|196:280|152:276,1,120
188,160,123505,2,0,B|280:136|280:136|328:136,1,120
188,160,123805,1,0
72,268,123955,6,0,B|72:184|72:184|112:136,1,120,4|0
440,116,124255,2,0,B|440:200|440:200|400:248,1,120
312,40,124555,6,0,B|244:40|244:40|188:64,1,120,4|0
200,344,124855,2,0,B|268:344|268:344|324:320,1,120
256,192,125155,5,2
256,192,125230,1,2
256,192,125305,1,2
256,192,125380,1,2
256,192,125455,1,2
256,192,125530,1,2
256,192,125605,1,2
256,192,125680,1,2
256,192,125755,1,2
256,192,125830,1,2
256,192,125905,1,2
332,100,126355,5,4
396,200,126505,2,0,B|384:292|384:292|332:316,1,120
359,303,126805,1,0
240,308,126955,1,0
120,308,127105,1,0
60,204,127255,2,0,B|60:112|60:112|80:68,1,120
184,44,127555,6,0,B|280:44|280:44|304:72,1,120,4|0
295,62,127855,1,0
404,112,128005,1,0
404,232,128155,1,0
316,312,128305,2,0,B|224:312|224:312|172:288,1,120
124,208,128605,1,0
104,80,128755,6,0,B|164:140|164:140|212:136,1,120,4|0
408,80,129055,2,0,B|348:140|348:140|300:136,1,120
104,304,129355,2,0,B|164:244|164:244|212:248,1,120,4|0
408,304,129655,2,0,B|348:244|348:244|300:248,1,120
256,184,129955,5,2
256,184,130030,1,2
256,184,130105,1,2
256,184,130180,1,2
256,184,130255,1,2
256,184,130330,1,2
256,184,130405,1,2
256,184,130480,1,2
256,184,130555,1,2
256,184,130630,1,2
256,184,130705,1,2
376,184,131155,5,4
376,184,131305,2,0,B|376:272|376:272|332:292,1,120
136,200,131605,2,0,B|136:112|136:112|180:92,1,120
284,88,131905,1,0
404,88,132055,1,0
404,208,132205,1,0
284,212,132355,5,4
164,212,132505,1,0
164,332,132655,1,0
284,336,132805,5,0
284,212,132955,1,0
284,92,133105,1,0
180,32,133255,1,0
84,100,133405,1,0
52,216,133555,5,2
452,216,133855,5,2
256,16,134155,5,2
256,336,134455,5,2
256,192,134755,12,4,136105
