osu file format v9

[General]
AudioFilename: 123.mp3
AudioLeadIn: 500
PreviewTime: 92933
Countdown: 0
SampleSet: Normal
StackLeniency: 0.7
Mode: 0
LetterboxInBreaks: 1

[Editor]
DistanceSpacing: 0.9
BeatDivisor: 8
GridSize: 4

[Metadata]
Title:Koi no Recipe to Et Cetera
Artist:monoROSETTA
Creator:cRyo[iceeicee]
Version:Normal
Source:
Tags:c81 aabc271 void

[Difficulty]
HPDrainRate:3
CircleSize:3
OverallDifficulty:3
ApproachRate:4
SliderMultiplier:1.2
SliderTickRate:1

[Events]
//Background and Video events
0,0,"BG.jpg"
//Break Periods
2,58501,64040
2,107913,113452
//Storyboard Layer 0 (Background)
//Storyboard Layer 1 (Fail)
//Storyboard Layer 2 (Pass)
//Storyboard Layer 3 (Foreground)
//Storyboard Sound Samples
//Background Colour Transformations
3,100,163,162,255

[TimingPoints]
1831,441.176470588235,4,1,1,45,1,0
8228,-100,4,1,1,5,0,0
8393,-100,4,1,1,45,0,0
15286,-100,4,1,1,5,0,0
15452,-100,4,1,1,45,0,0
15838,-100,4,2,1,65,0,0
17382,-100,4,1,1,45,0,0
17823,-100,4,2,1,65,0,0
19147,-100,4,1,1,45,0,0
19588,-100,4,2,1,65,0,0
20250,-100,4,1,1,45,0,0
20470,-100,4,2,1,65,0,0
20911,-100,4,1,1,45,0,0
21353,-100,4,2,1,65,0,0
22014,-100,4,1,1,45,0,0
22235,-100,4,2,1,65,0,0
24441,-100,4,1,1,45,0,0
24882,-100,4,2,1,65,0,0
26205,-100,4,1,1,45,0,0
26592,-100,4,2,1,65,0,0
28080,-100,4,1,1,45,0,0
28522,-100,4,2,1,65,0,0
29955,-100,4,1,1,45,0,0
43632,-100,4,2,1,55,0,0
44183,-100,4,1,1,45,0,1
44239,-100,4,1,1,45,0,0
50194,-100,4,1,1,5,0,0
50470,-100,4,1,1,45,0,0
55875,-100,4,1,1,5,0,0
56040,-100,4,1,1,45,0,0
57639,-100,4,2,1,55,0,0
57970,-100,4,1,1,45,0,0
64919,-100,4,2,1,65,0,0
67014,-100,4,1,1,45,0,0
67345,-100,4,2,1,65,0,0
68558,-100,4,1,1,45,0,0
69000,-100,4,2,1,65,0,0
69661,-100,4,1,1,45,0,0
69992,-100,4,2,1,65,0,0
70323,-100,4,1,1,45,0,0
70764,-100,4,2,1,65,0,0
71426,-100,4,1,1,45,0,0
71647,-100,4,2,1,65,0,0
73963,-100,4,1,1,45,0,0
74404,-100,4,2,1,65,0,0
75617,-100,4,1,1,45,0,0
76003,-100,4,2,1,65,0,0
77492,-100,4,1,1,45,0,0
77933,-100,4,2,1,65,0,0
79367,-100,4,1,1,45,0,0
93023,-100,4,2,1,55,0,0
93595,-100,4,1,1,45,0,1
93650,-100,4,1,1,45,0,0
99606,-100,4,1,1,5,0,0
99882,-100,4,1,1,45,0,0
105286,-100,4,1,1,5,0,0
105452,-100,4,1,1,45,0,0
106941,-100,4,2,1,55,0,0
107492,-100,4,1,1,45,0,0
121720,-100,4,1,2,45,0,0
122161,-100,4,2,1,55,0,0
122382,-100,4,1,2,45,0,0
123981,-100,4,2,1,55,0,0
124147,-100,4,1,2,45,0,0
125691,-100,4,2,1,55,0,0
125911,-100,4,1,2,45,0,0
129220,-100,4,2,0,55,0,0
129441,-100,4,1,2,45,0,0
130875,-100,4,2,1,55,0,0
131316,-100,4,1,1,45,0,0
135286,-100,4,2,1,55,0,0
135948,-100,4,1,1,45,0,1
136003,-100,4,1,1,45,0,0
138816,-100,4,1,1,5,0,0
138981,-100,4,1,1,45,0,0
142014,-100,4,1,1,5,0,0
142235,-100,4,1,1,45,0,0
147639,-100,4,1,1,5,0,0
147805,-100,4,1,1,45,0,0
150066,-100,4,1,2,45,0,1
150121,-100,4,1,2,45,0,0
156463,-100,4,1,2,5,0,0
156628,-100,4,1,2,45,0,0
165286,-100,4,1,2,5,0,0
165452,-100,4,1,2,45,0,0
167603,-100,4,2,1,10,0,0
170360,-100,4,2,1,55,0,0
171022,-100,4,1,1,45,0,0
172180,-100,4,1,1,5,0,0
172511,-100,4,1,1,45,0,0
173944,-100,4,1,1,5,0,0
174275,-100,4,1,1,45,0,0
175764,-100,4,1,1,5,0,0
176040,-100,4,1,1,45,0,0
177639,-100,4,1,1,5,0,0
177805,-100,4,1,1,45,0,0
179294,-100,4,1,1,5,0,0
179569,-100,4,1,1,45,0,0
181003,-100,4,1,1,5,0,0
181334,-100,4,1,1,45,0,0
182823,-100,4,1,1,5,0,0
183099,-100,4,1,1,45,0,0
184698,-100,4,1,1,5,0,0
184864,-100,4,1,1,45,0,0
185470,-100,4,2,1,10,0,0

[Colours]
Combo1 : 174,0,0
Combo2 : 255,100,255
Combo3 : 81,39,205

[HitObjects]
256,80,1831,2,0,B|205:122|144:109,1,120,6|8
80,160,2603,2,0,B|68:240|124:324,1,150,2|8
216,336,3595,6,0,B|262:294|328:305,1,120,2|8
392,256,4367,2,0,B|444:200|432:92,1,150,2|8
344,56,5360,6,0,B|282:43|232:85,1,120,2|8
200,160,6132,2,0,B|136:208|40:184,1,150,2|8
28,292,7125,5,2
128,336,7566,1,2
196,292,7897,2,0,B|236:220|324:244,1,150,2|2
340,136,8889,6,0,B|277:148|227:107,1,120,6|8
156,68,9661,2,0,B|84:96|44:192,1,150,2|8
68,280,10654,6,0,B|114:321|179:308,1,120,2|8
240,252,11426,2,0,B|316:232|408:284,1,150,2|8
460,196,12419,5,2
408,100,12860,1,8
328,112,13191,2,0,B|276:84|228:120|172:76,1,150,2|8
88,136,14183,6,0,B|56:191|87:250,1,120,2|2
168,264,14955,2,0,B|211:189|156:108,1,150,2|2
256,64,15948,6,0,B|308:48|324:80|376:64,1,120,6|8
332,164,16830,2,0,B|383:148|399:180|450:164,1,120,2|8
488,268,17713,5,0
400,328,18154,1,8
310,271,18595,2,0,B|254:303|196:272,2,120,2|8|0
256,176,19919,6,0,B|200:144|141:176,1,120,8|0
196,272,20801,2,0,B|137:303|81:271,1,120,8|0
142,176,21683,6,0,B|174:120|142:60,1,120,8|0
52,120,22566,1,2
142,176,23007,6,0,B|194:160|210:192|262:176,1,120,4|8
256,284,23889,2,0,B|308:268|324:300|376:284,1,120,2|8
480,296,24772,5,0
452,192,25213,2,0,B|436:140|468:124|452:72,2,120,8|2|8
372,264,26536,6,0,B|313:295|257:263,1,120,0|8
168,204,27419,1,2
112,112,27860,1,4
196,48,28301,6,0,B|254:16|310:48,1,120,0|8
364,140,29183,1,2
364,140,29625,1,4
256,128,30066,6,0,B|272:180|240:196|256:248,1,120,6|8
340,312,30948,2,8,B|384:312|444:340,2,90,0|8|8
336,260,31830,6,0,B|320:209|352:193|336:141,1,120,2|8
396,52,32713,2,8,B|436:36|488:36,2,90,0|8|8
340,52,33595,6,0,B|289:67|273:35|221:51,1,120,2|8
124,96,34478,2,8,B|76:104|28:80,2,90,0|8|8
140,148,35360,6,0,B|195:179|254:148,1,120,2|2
348,92,36242,2,0,B|392:88|456:116,2,90,2|8|8
348,148,37125,6,0,B|363:198|331:214|347:266,1,120,6|8
256,324,38007,2,8,B|212:340|168:324,2,90,0|8|8
256,268,38889,6,0,B|240:216|272:200|256:149,1,120,2|8
212,52,39772,2,8,B|256:35|300:51,2,90,0|2|8
164,84,40654,5,6
204,184,41095,1,2
308,184,41536,1,2
348,84,41978,1,2
256,32,42419,6,0,B|256:108,2,60,2|0|2
164,84,43301,1,2
68,36,43742,1,4
56,144,44183,6,0,B|71:194|39:210|55:262,1,120,6|8
108,324,44955,2,0,B|168:372|272:348,1,150,2|2
356,320,45948,5,2
456,276,46389,2,0,B|440:176,1,90,2|2
408,112,47051,2,0,B|340:68,1,60,0|2
256,40,47713,5,2
152,68,48154,2,0,B|152:116|128:164,1,90,2|2
68,204,48816,2,0,B|84:280,1,60,0|2
168,328,49478,6,0,B|239:296|279:356|343:329,2,180,2|0|2
144,224,51242,6,0,B|208:238|254:193,1,120,6|8
296,124,52014,2,0,B|372:112|440:172,1,150,2|2
480,264,53007,5,2
400,336,53448,2,0,B|356:348|312:340,1,90,2|2
232,312,54110,2,0,B|184:272,1,60,0|2
120,188,54772,6,0,B|96:132|112:60,1,120,2|2
184,40,55544,2,0,B|256:24|332:56,1,150,2|2
408,132,56536,5,2
360,228,56978,1,2
256,192,57419,2,0,B|132:192,1,120,2|2
28,192,58301,5,4
196,140,65360,6,0,B|248:124|264:156|316:140,1,120,4|8
315,244,66242,2,0,B|265:259|249:227|197:243,1,120,2|8
100,284,67125,5,0
44,192,67566,1,8
100,100,68007,2,0,B|152:84|168:116|220:100,2,120,2|8|0
44,192,69330,6,0,B|12:247|43:306,1,120,8|0
152,320,70213,1,8
256,284,70654,1,0
360,320,71095,6,0,B|391:261|359:205,1,120,8|0
256,176,71978,1,8
316,84,72419,6,0,B|257:53|201:85,1,120,4|8
256,176,73301,2,0,B|315:207|371:175,1,120,2|8
408,276,74183,5,0
312,324,74625,2,0,B|256:355|197:324,2,120,8|2|8
256,232,75948,5,0
256,124,76389,1,8
164,64,76830,2,0,B|133:123|165:179,1,120,2|4
204,280,77713,5,0
308,280,78154,1,8
347,178,78595,2,0,B|379:123|348:64,1,120,2|4
256,124,79478,6,0,B|272:176|240:192|256:244,1,120,6|8
308,336,80360,2,8,B|344:360|420:364,2,90,0|8|8
256,316,81242,5,2
152,288,81683,1,8
100,192,82125,2,8,B|64:200|44:184|8:192,2,90,0|8|8
156,192,83007,6,0,B|208:176|224:208|276:192,1,120,2|8
352,120,83889,2,8,B|392:100|439:99,2,90,0|8|8
352,176,84772,5,2
340,284,85213,1,2
256,352,85654,2,0,B|220:360|200:344|164:352,2,90,2|8|8
256,296,86536,6,0,B|240:244|272:228|256:176,1,120,6|8
172,108,87419,2,8,B|132:84|64:84,2,90,0|8|8
196,156,88301,6,0,B|248:140|264:172|316:156,1,120,2|8
392,232,89183,2,8,B|424:224|448:240|492:232,2,90,0|2|8
352,268,90066,5,6
256,316,90507,1,2
160,268,90948,1,2
256,220,91389,1,2
256,112,91830,6,0,B|256:48,2,60,2|0|2
360,140,92713,1,2
404,240,93154,1,6
316,304,93595,6,0,B|265:319|249:287|197:303,1,120,6|8
120,280,94367,2,0,B|76:240|100:192|56:136,1,150,2|2
124,56,95360,6,0,B|176:24|243:41,1,120,2|2
308,84,96132,2,0,B|348:108|420:104,1,90,2|0
448,100,96683,1,2
440,208,97125,6,0,B|400:256|320:268,1,120,2|2
256,284,97897,1,2
176,272,98228,2,0,B|100:228,1,60,0|2
168,144,98889,6,0,B|239:112|279:172|343:145,2,180,2|0|2
72,196,100654,6,0,B|39:251|71:310,1,120,6|8
152,328,101426,2,0,B|204:328|240:364|312:352,1,150,2|2
400,312,102419,5,2
468,228,102860,2,0,B|448:128,1,90,2|2
376,108,103522,2,0,B|364:48,1,60,0|2
256,48,104183,6,0,B|271:98|239:114|255:166,1,120,2|2
228,240,104955,2,0,B|172:268|108:248|108:248|68:276,1,150,2|2
40,164,105948,5,2
92,68,106389,1,2
196,44,106830,2,0,B|247:28|263:60|314:45,1,120,2|2
256,136,107713,5,4
212,44,114772,6,0,B|227:94|195:110|211:162,1,120,6|8
300,221,115654,2,0,B|316:272|284:288|300:340,1,120,2|8
192,332,116536,5,2
124,248,116978,1,8
124,136,117419,1,2
192,52,117860,1,8
256,136,118301,6,0,B|306:120|322:152|374:136,1,120,2|8
316,228,119183,2,0,B|265:243|249:211|197:227,1,120,2|8
120,152,120066,5,2
204,84,120507,1,8
308,84,120948,1,2
392,152,121389,1,8
420,256,121830,6,0,B|375:283|351:257|305:286,1,120,4|2
256,192,122713,2,8,B|220:200|204:184|164:192,2,90,0|8|8
256,136,123595,6,0,B|302:107|325:133|370:105,1,120,4|2
396,212,124478,2,8,B|440:216|484:244,2,90,0|8|8
360,252,125360,5,4
256,280,125801,1,2
152,252,126242,2,8,B|112:264|108:280|68:296,2,90,0|8|8
180,208,127125,5,4
156,104,127566,1,4
256,60,128007,2,0,B|292:52|312:68|368:60,2,90,2|8|8
256,116,128889,5,4
256,224,129330,1,2
256,332,129772,2,8,B|220:340|204:324|160:332,2,90,0|8|8
312,332,130654,5,4
408,284,131095,1,2
464,192,131536,2,8,B|476:160|464:136|476:104,2,90,0|2|8
440,240,132419,5,6
352,304,132860,1,2
256,252,133301,1,2
284,148,133742,1,2
392,140,134183,6,0,B|408:116|440:100,2,60,2|0|2
464,220,135066,1,2
424,320,135507,1,4
316,324,135948,6,0,B|264:339|248:307|197:323,1,120,6|8
120,296,136720,2,0,B|80:244|104:208|60:144,1,150,2|2
112,56,137713,6,0,B|168:80|236:48,1,120,2|2
308,40,138485,2,0,B|384:52|428:136,1,150,2|2
432,236,139478,5,2
368,320,139919,1,2
288,308,140250,2,0,B|212:280|128:324,1,150,2|2
40,280,141242,6,0,B|72:208|12:168|39:104,2,180,2|0|2
140,324,143007,6,0,B|192:352|256:340,1,120,6|8
336,320,143779,2,0,B|408:287|431:193,1,150,2|2
412,100,144772,5,2
316,48,145213,2,0,B|226:44,1,90,2|2
148,72,145875,2,0,B|72:68,1,60,0|2
28,160,146536,6,0,B|12:224|64:292,1,120,2|2
104,336,147308,2,0,B|160:308|192:360|260:328,1,150,2|2
356,316,148301,5,2
392,216,148742,1,2
304,152,149183,1,2
256,124,149404,2,0,B|256:48,2,60,0|2|0
208,152,150066,6,0,B|156:167|140:135|89:151,1,120,6|8
24,200,150838,2,0,B|16:248|40:296,1,90,2|0
72,336,151389,2,0,B|104:344|140:336,1,60,2|0
184,320,151830,5,6
284,276,152272,2,0,B|328:268|373:282,1,90,0|2
452,276,152933,2,0,B|444:216,1,60,0|2
460,108,153595,6,0,B|488:44,2,60,6|0|2
392,148,154367,2,0,B|336:172|304:112|242:136,1,150,2|2
168,60,155360,6,0,B|108:40|40:52,1,120,6|0
24,128,156132,2,0,B|20:192|76:200|68:292,1,150,2|2
156,332,157125,6,0,B|216:344|272:308,1,120,6|8
332,256,157897,2,0,B|368:232|417:226,1,90,2|0
448,184,158448,2,0,B|468:120,1,60,2|0
480,76,158889,5,6
376,44,159330,2,0,B|332:40|280:52,1,90,0|2
216,88,159992,2,0,B|136:96,1,60,0|2
68,156,160654,5,6
144,236,161095,2,0,B|116:272|77:296,2,90,2|2|0
176,192,161978,1,2
284,192,162419,6,0,B|334:207|350:175|402:191,2,120,6|2|6
100,80,164183,6,0,B|69:139|101:194,1,120,6|8
172,232,164955,2,0,B|228:244|256:204|321:217,1,150,2|2
416,164,165948,6,0,B|370:117|305:133,1,120,6|2
208,84,166830,2,0,B|143:99|98:53,1,120,6|2
256,192,167713,12,2,170360
56,88,171242,6,0,B|121:72|166:117,1,120,6|8
172,200,172014,2,0,B|243:246|315:222,1,150,2|8
392,300,173007,6,0,B|375:238|420:189,1,120,2|8
392,112,173779,2,0,B|316:136|236:92,1,150,2|8
144,64,174772,5,2
92,156,175213,1,8
132,228,175544,2,0,B|193:281|286:247,1,150,2|8
364,192,176536,6,0,B|415:176|431:208|482:192,1,120,2|2
500,264,177308,2,0,B|472:340|380:344,1,150,2|2
316,276,178301,6,0,B|264:260|248:292|197:276,1,120,6|8
120,260,179073,2,0,B|68:196|84:92,1,150,2|8
164,48,180066,6,0,B|214:63|230:31|282:47,1,120,2|8
360,72,180838,2,0,B|408:128|416:228,1,150,2|8
340,288,181830,6,0,B|376:352,2,60,2|0|8
268,252,182603,2,0,B|188:232|112:280,1,150,2|8
16,252,183595,6,0,B|-4:192|15:134,1,120,2|2
80,84,184367,2,0,B|149:41|221:85,1,150,2|2
256,192,185360,5,6
256,192,185580,12,0,187125
