osu file format v9

[General]
AudioFilename: 123.mp3
AudioLeadIn: 500
PreviewTime: 92933
Countdown: 0
SampleSet: Normal
StackLeniency: 0.7
Mode: 0
LetterboxInBreaks: 1

[Editor]
Bookmarks: 44419
DistanceSpacing: 1
BeatDivisor: 4
GridSize: 4

[Metadata]
Title:Koi no Recipe to Et Cetera
Artist:monoROSETTA
Creator:cRyo[iceeicee]
Version:Insane
Source:
Tags:c81 aabc271 void

[Difficulty]
HPDrainRate:7
CircleSize:4
OverallDifficulty:7
ApproachRate:8
SliderMultiplier:1.9
SliderTickRate:1

[Events]
//Background and Video events
0,0,"BG.jpg"
//Break Periods
2,58501,64610
//Storyboard Layer 0 (Background)
//Storyboard Layer 1 (Fail)
//Storyboard Layer 2 (Pass)
//Storyboard Layer 3 (Foreground)
//Storyboard Sound Samples
//Background Colour Transformations
3,100,163,162,255

[TimingPoints]
1831,441.176470588235,4,1,1,45,1,0
15838,-100,4,2,1,65,0,0
19147,-100,4,1,1,45,0,0
19588,-100,4,2,1,65,0,0
20250,-100,4,1,1,45,0,0
20470,-100,4,2,1,65,0,0
20911,-100,4,1,1,45,0,0
21353,-100,4,2,1,65,0,0
22345,-100,4,1,1,45,0,0
22445,-100,4,2,1,65,0,0
22786,-100,4,1,1,45,0,0
22886,-100,4,2,1,65,0,0
26205,-100,4,1,1,45,0,0
26592,-100,4,2,1,65,0,0
27970,-100,4,1,1,45,0,0
28191,-100,4,2,1,65,0,0
29955,-100,4,1,1,45,0,0
35250,-100,4,1,1,35,0,0
35470,-100,4,1,1,45,0,0
35691,-100,4,1,1,35,0,0
35911,-100,4,1,1,45,0,0
36132,-100,4,1,1,35,0,0
36353,-100,4,1,1,45,0,0
43411,-100,4,2,1,75,0,0
43632,-100,4,2,1,55,0,0
43853,-100,4,2,1,75,0,0
44183,-100,4,1,1,45,0,1
44239,-100,4,1,1,45,0,0
57529,-100,4,2,1,55,0,0
58191,-100,4,1,1,45,0,0
64919,-100,4,2,1,65,0,0
68558,-100,4,1,1,45,0,0
69000,-100,4,2,1,65,0,0
69772,-100,4,1,1,45,0,0
69872,-100,4,2,1,65,0,0
70323,-100,4,1,1,45,0,0
70709,-100,4,2,1,65,0,0
71757,-100,4,1,1,45,0,0
71857,-100,4,2,1,65,0,0
72088,-100,4,1,1,45,0,0
72308,-100,4,2,1,65,0,0
75617,-100,4,1,1,45,0,0
76003,-100,4,2,1,65,0,0
77382,-100,4,1,1,45,0,0
77603,-100,4,2,1,65,0,0
78044,-100,4,1,1,45,0,0
78264,-100,4,2,1,65,0,0
79367,-100,4,1,1,45,0,0
79588,-100,4,2,1,55,0,0
79808,-100,4,1,1,45,0,0
80029,-100,4,2,1,55,0,0
80250,-100,4,1,1,45,0,0
81353,-100,4,2,1,55,0,0
81573,-100,4,1,1,45,0,0
81794,-100,4,2,1,55,0,0
82014,-100,4,1,1,45,0,0
83117,-100,4,2,1,55,0,0
83338,-100,4,1,1,45,0,0
83558,-100,4,2,1,55,0,0
83779,-100,4,1,1,45,0,0
84661,-100,4,1,1,35,0,0
84882,-100,4,2,1,55,0,0
85103,-100,4,1,1,35,0,0
85323,-100,4,2,1,55,0,0
85544,-100,4,1,1,35,0,0
85764,-100,4,1,1,45,0,0
86647,-100,4,2,1,55,0,0
86866,-100,4,1,1,45,0,0
87088,-100,4,2,1,55,0,0
87308,-100,4,1,1,45,0,0
88411,-100,4,2,1,55,0,0
88632,-100,4,1,1,45,0,0
88853,-100,4,2,1,55,0,0
89073,-100,4,1,1,45,0,0
92823,-100,4,2,1,75,0,0
93023,-100,4,2,1,55,0,0
93264,-100,4,2,1,75,0,0
93595,-100,4,1,1,45,0,1
93650,-100,4,1,1,45,0,0
106941,-100,4,2,1,55,0,0
107492,-100,4,1,1,45,0,0
111187,-100,4,1,2,45,0,0
112952,-100,4,2,1,55,0,0
113117,-100,4,1,2,45,0,0
113338,-100,4,2,1,55,0,0
113503,-100,4,1,2,45,0,0
116150,-100,4,1,2,5,0,0
116261,-100,4,1,2,45,0,0
118467,-100,4,2,1,55,0,0
118632,-100,4,1,2,45,0,0
118853,-100,4,2,1,55,0,0
119073,-100,4,1,2,45,0,0
119680,-100,4,1,2,5,0,0
119790,-100,4,1,2,45,0,0
122161,-100,4,2,1,55,0,0
122382,-100,4,1,2,45,0,0
123981,-100,4,2,1,55,0,0
124147,-100,4,1,2,45,0,0
125691,-100,4,2,1,55,0,0
125911,-100,4,1,2,45,0,0
127014,-100,4,1,2,45,0,0
129220,-100,4,2,1,55,0,0
129441,-100,4,1,2,45,0,0
132419,-100,4,1,1,45,0,0
135176,-100,4,2,1,75,0,0
135397,-100,4,2,1,55,0,0
135617,-100,4,2,1,75,0,0
135948,-100,4,1,1,45,0,1
136003,-100,4,1,1,45,0,0
150066,-66.6666666666667,4,1,2,45,0,1
150121,-66.6666666666667,4,1,2,45,0,0
163411,-66.6666666666667,4,2,1,55,0,0
163963,-66.6666666666667,4,1,2,45,0,0
166279,-80,4,1,1,45,0,0
166720,-100,4,1,2,45,0,0
167161,-133.333333333333,4,1,2,45,0,0
167823,-133.333333333333,4,2,1,10,0,0
169478,-133.333333333333,4,1,1,30,0,0
169798,-100,4,2,1,55,0,0
171009,-100,4,1,1,45,0,0
185470,-100,4,2,1,10,0,0

[Colours]
Combo1 : 174,0,0
Combo2 : 255,100,255
Combo3 : 81,39,205

[HitObjects]
88,232,1830,2,0,B|148:331|250:275,1,190,6|8
368,200,2492,1,0
368,200,2603,2,0,B|408:168|472:176,2,95,8|8|8
352,216,3154,1,0
256,112,3375,1,8
120,72,3595,6,0,B|112:120|112:192,1,95,2|0
200,312,4036,2,0,B|208:264|208:192,1,95,8|0
216,148,4367,2,0,B|264:132|340:132,1,95,8|8
432,208,4808,1,8
432,208,4919,2,0,B|384:224|304:224,1,95,0|8
296,312,5360,5,2
152,304,5581,1,8
64,192,5801,1,2
136,72,6022,1,8
136,72,6132,2,0,B|144:112|168:128|176:184,1,95,0|8
296,312,6573,1,8
296,312,6683,2,0,B|288:272|264:256|256:200,1,95,0|8
408,144,7125,6,0,B|344:180|344:180|312:116|224:132,1,190,2|2
64,192,7897,1,10
160,296,8117,1,2
160,296,8228,1,8
296,312,8448,1,2
296,312,8558,1,0
296,312,8669,1,0
296,312,8779,1,0
296,312,8889,6,0,B|344:296|376:224,1,95,6|0
448,112,9331,2,0,B|400:128|368:200,1,95,8|0
316,200,9661,2,0,B|212:200,1,95,8|8
96,128,10103,1,8
96,128,10213,2,0,B|192:128,1,95,0|8
280,88,10654,5,2
416,120,10875,1,8
408,264,11095,2,0,B|360:328|312:240|256:336,1,142.5,2|8
136,288,11647,1,8
120,144,11867,1,8
120,144,11978,2,0,B|112:192|144:208|128:256,1,95,0|8
216,280,12419,5,2
352,304,12639,1,8
432,184,12860,1,2
328,80,13081,1,8
328,80,13191,1,0
192,136,13411,1,8
216,280,13632,1,8
216,280,13742,2,0,B|168:304|112:296,1,95,0|8
252,206,14183,6,0,B|306:151|378:231|432:184,1,190,2|2
328,80,14956,1,2
400,136,15176,1,8
400,136,15286,2,0,B|360:160|312:168,1,95,0|2
88,104,15948,6,0,B|96:152|72:240,1,95,8|0
152,320,16389,2,0,B|144:272|168:184,1,95,8|0
232,104,16831,1,0
232,104,16941,2,0,B|264:72|336:56,2,95,2|4|0
328,160,17603,5,2
328,160,17713,2,0,B|304:176|264:192,2,47.5,0|0|2
440,152,18154,1,8
440,152,18264,1,0
440,152,18375,1,2
392,256,18595,2,0,B|352:288|304:296,1,95,2|0
272,264,18926,1,0
224,248,19036,2,0,B|176:272|144:312,1,95,8|0
56,288,19478,1,0
64,96,19698,5,2
176,80,19919,2,0,B|224:40,2,47.5,8|0|0
104,168,20360,1,0
216,144,20580,1,2
216,144,20691,1,0
216,144,20801,2,0,B|264:136|312:64,1,95,8|0
432,64,21242,6,0,B|476:112,1,47.5
400,132,21463,2,0,B|444:180,1,47.5,2|0
480,220,21683,2,0,B|496:268|480:296|480:296|420:324,1,142.5,8|2
256,280,22235,1,2
256,260,22345,1,0
256,240,22455,1,0
256,220,22566,2,0,B|256:120,1,95,8|0
104,48,23007,6,0,B|88:152,1,95,4|0
128,336,23448,2,0,B|144:232,1,95,8|0
256,152,23889,1,2
256,152,24000,2,0,B|296:128|360:136,2,95,0|4|0
432,32,24661,5,2
432,32,24772,2,0,B|392:64|328:64,1,95,2|0
256,152,25213,2,0,B|224:192|224:248,1,95,8|0
240,288,25544,1,0
208,328,25654,2,0,B|168:352|104:352,1,95,2|0
80,328,25985,1,0
64,280,26095,2,0,B|48:184,1,95,8|0
120,64,26536,5,0
120,64,26647,2,0,B|135:157,1,95,2|2
168,192,26978,1,8
256,80,27198,1,2
392,128,27419,1,2
408,168,27529,1,2
416,216,27639,1,2
408,264,27750,1,0
376,296,27860,2,0,B|272:296,1,95,4|0
136,232,28301,5,2
136,232,28411,1,2
136,232,28522,2,0,B|256:232,1,95,2|8
336,192,28963,1,2
256,72,29183,6,0,B|200:104,1,47.5,2|0
256,152,29404,2,0,B|200:184,1,47.5,2|0
256,232,29625,2,0,B|176:280,1,95,4|0
76,93,30066,6,2,B|130:38|202:118|256:72,1,190,4|0
344,96,30728,1,0
428,140,30948,2,0,B|460:236,1,95,0|8
408,296,31279,2,0,B|377:205,1,95,0|0
360,160,31610,1,8
300,60,31830,6,2,B|246:115|174:35|120:82,1,190,0|0
60,156,32492,1,0
128,220,32713,2,0,B|128:268|152:340,1,95,0|8
164,356,33044,1,0
280,272,33264,1,0
280,272,33375,1,8
424,232,33595,6,2,B|424:155|317:160|312:89,1,190,0|0
408,80,34257,1,0
424,232,34478,2,0,B|384:268|336:268,1,95,0|8
300,232,34808,2,2,B|244:224|228:280|164:288,1,142.5,0|8
52,232,35360,5,2
252,88,35580,1,8
176,320,35801,1,2
100,88,36022,1,8
300,232,36242,1,2
176,188,36463,1,8
176,188,36573,1,0
252,88,36794,1,0
252,88,36904,1,8
372,64,37125,6,2,B|376:134|484:129|483:206,1,190,4|0
440,292,37786,1,0
356,336,38007,1,0
200,300,38228,1,8
200,300,38338,1,0
100,176,38558,1,0
100,176,38669,1,8
224,72,38889,6,2,B|277:118|349:38|403:93,1,190,0|0
472,160,39551,1,0
456,256,39772,2,0,B|424:272|396:240|336:256,1,95,8|0
312,240,40103,2,0,B|272:232|272:232|240:288|168:272,1,142.5,2|8
186,173,40654,5,6
274,122,40875,1,0
325,210,41095,1,2
237,261,41316,1,0
180,72,41536,5,2
376,116,41757,1,0
332,312,41978,1,2
136,268,42198,1,0
256,192,42419,5,2
256,192,42529,1,0
256,192,42639,1,2
256,192,42750,1,0
256,192,42860,2,0,B|292:210|321:194|363:222,2,95,2|0|2
84,116,43522,5,2
84,192,43742,1,4
84,268,43963,1,2
432,268,44183,6,0,B|464:200|388:164|436:68,1,190,6|8
304,48,44845,1,0
304,48,44956,2,0,B|272:88|200:112,1,95,2|0
212,148,45286,1,8
96,192,45507,2,0,B|96:312,1,95,2|8
208,340,45948,5,2
348,308,46169,1,8
416,184,46389,1,2
312,80,46610,1,8
312,80,46720,2,0,B|192:80,1,95,2|0
176,108,47051,2,0,B|81:108,2,95,8|2|8
296,192,47713,5,2
168,252,47933,1,8
176,108,48154,1,2
312,80,48375,1,8
312,80,48485,2,0,B|360:80|416:40,1,95,2|0
448,56,48816,1,8
480,192,49036,2,0,B|456:232|448:320,1,95,2|8
320,336,49478,6,0,B|246:349|230:266|125:288,1,190,2|8
64,192,50139,1,2
64,192,50250,2,0,B|184:192,1,95,0|0
208,192,50581,1,2
328,272,50801,1,2
472,192,51022,1,2
352,48,51242,6,0,B|240:72,1,95,6|8
208,192,51683,2,0,B|300:172,1,95,6|8
348,164,52014,1,2
472,192,52235,1,0
472,192,52345,2,0,B|464:232|496:248|488:312,2,95,8|2|8
384,80,53007,5,2
240,56,53228,1,8
280,192,53448,1,2
136,168,53669,1,8
136,168,53779,2,0,B|136:208|160:224|152:280,1,95,2|0
208,308,54110,2,0,B|168:340|104:324,2,95,8|2|8
352,296,54772,5,2
440,184,54992,1,8
352,72,55213,2,0,B|304:72|258:89,1,95,2|8
224,120,55544,1,2
128,224,55764,1,0
128,224,55875,2,0,B|83:241|35:241,2,95,8|2|8
256,248,56536,5,2
376,192,56757,1,8
256,248,56978,1,2
312,96,57198,1,8
256,248,57419,1,2
136,192,57639,2,0,B|104:212|68:200|68:200|80:176|64:156,1,95,2|0
200,96,58301,5,4
120,80,65360,5,4
400,136,65801,1,8
168,296,66242,1,2
168,296,66353,2,0,B|128:320|64:312,2,95,0|4|0
256,232,67014,5,2
256,232,67125,2,0,B|296:208|360:216,1,95,0|0
408,120,67566,1,8
408,120,67676,1,0
408,120,67786,1,0
312,56,68007,2,0,B|288:168,1,95,2|0
280,192,68338,1,0
256,232,68448,2,0,B|216:256|152:248,1,95,2|0
88,192,68889,1,0
216,72,69110,5,2
312,56,69331,1,8
312,56,69441,1,0
312,56,69551,2,0,B|352:80|416:80,1,95,2|0
432,112,69882,1,0
456,152,69992,2,0,B|480:192|480:256,2,95,2|4|0
284,208,70654,5,0
216,276,70875,1,0
216,276,70985,1,0
216,276,71095,2,0,B|172:300|120:296,1,95,2|0
76,288,71426,1,8
32,196,71647,2,0,B|32:172|12:136,2,47.5,2|0|0
32,196,71978,2,0,B|80:216|136:188,1,95,2|0
192,64,72419,6,0,B|192:112|208:176,1,95,4|0
320,319,72860,2,0,B|320:272|308:225,1,95,8|0
344,120,73301,1,2
344,120,73411,2,0,B|390:108|438:108,2,95,2|4|0
256,192,74073,5,2
256,192,74183,2,0,B|240:240|192:280,1,95,2|0
160,256,74514,1,0
128,216,74625,2,0,B|80:224|36:242,1,95,8|0
37,242,74956,1,0
37,242,75066,1,2
128,128,75286,1,2
128,128,75397,1,0
128,128,75507,2,0,B|176:128|219:154,1,95,2|0
256,48,75948,5,0
256,48,76058,2,0,B|328:120,1,95,2|0
368,96,76389,2,0,B|408:208,1,95,8|0
304,264,76830,1,2
280,264,76941,1,2
256,272,77051,1,2
232,272,77161,1,0
208,272,77272,2,0,B|184:288|144:272|112:296,1,95,4|0
56,192,77713,5,2
56,192,77823,1,2
56,192,77933,1,2
104,88,78154,1,0
216,64,78375,2,0,B|248:176,1,95,2|0
280,184,78705,2,0,B|344:168,2,47.5,2|0|2
269,228,79036,2,8,B|296:320,1,95,4|0
128,104,79478,6,0,B|112:152|112:216,1,95,4|2
184,320,79919,2,0,B|200:272|200:208,1,95,0|2
208,128,80360,1,0
344,40,80580,1,0
344,40,80691,1,8
448,160,80911,1,0
448,160,81022,1,8
320,256,81242,6,0,B|272:280|232:328,1,95,0|2
104,328,81683,2,0,B|152:304|192:256,1,95,0|2
144,184,82125,1,0
256,72,82345,1,0
256,72,82455,2,0,B|304:72|368:104,1,95,8|0
376,136,82786,1,8
384,296,83007,6,0,B|280:312,1,95,0|2
128,280,83448,2,0,B|232:264,1,95,0|2
304,216,83889,1,0
208,88,84110,1,0
208,88,84220,2,0,B|160:80|128:144|64:128,1,142.5,8|8
75,254,84772,5,2
200,320,84992,1,2
256,192,85213,1,2
131,126,85433,1,2
256,192,85654,5,2
312,64,85875,1,8
312,64,85985,1,0
256,192,86205,1,0
256,192,86316,1,8
176,136,86536,6,0,B|160:168|176:200|144:256,1,95,4|2
336,248,86978,2,0,B|352:216|336:184|368:128,1,95,0|2
412,80,87419,1,0
473,230,87639,1,8
473,230,87750,2,0,B|430:265|394:217|336:248,1,142.5,0|8
256,104,88301,6,0,B|224:144|228:196,1,95,0|2
106,307,88742,2,0,B|139:272|143:221,1,95,0|2
143,221,89183,1,8
272,320,89404,1,0
272,320,89514,2,0,B|312:292|376:332|428:276,1,142.5,8|0
459,211,90066,5,6
424,123,90286,1,0
350,68,90507,1,2
256,48,90728,1,0
53,170,90948,5,2
87,259,91169,1,0
162,313,91389,1,2
256,334,91610,1,0
256,192,91830,5,2
256,192,91941,1,0
256,192,92051,1,2
256,192,92161,1,0
256,192,92272,2,0,B|230:158|201:161|179:127,2,95,2|0|2
428,268,92933,5,2
428,192,93154,1,4
428,116,93375,1,2
82,82,93595,6,0,B|124:164|48:200|80:268,1,190,6|8
208,324,94257,1,0
208,324,94367,1,2
336,256,94588,1,0
336,256,94698,2,0,B|384:256|448:292,2,95,8|2|8
180,192,95360,5,2
74,233,95580,1,8
92,120,95801,1,2
148,272,96022,1,8
148,272,96132,2,0,B|188:300|248:288,1,95,2|0
276,260,96463,2,0,B|326:249|366:277,2,95,8|2|8
164,176,97125,5,2
72,152,97345,1,8
136,84,97566,2,0,B|168:88|192:60|260:56,1,95,2|8
276,68,97897,1,2
408,124,98117,1,0
408,124,98228,1,8
320,236,98448,2,0,B|328:284|368:356,1,95,2|8
439,213,98889,6,0,B|431:166|408:124,1,95,2|8
276,68,99330,2,0,B|228:76|164:48,1,95,2|8
136,40,99661,2,0,B|80:144,1,95,2|0
88,168,99992,5,10
240,192,100213,1,2
168,324,100433,1,10
428,249,100654,6,0,B|434:177|350:171|360:76,1,190,6|2
236,88,101316,1,8
236,88,101426,2,0,B|184:96|136:64,1,95,2|0
100,56,101757,1,8
64,168,101978,2,0,B|64:208|80:224|80:272,1,95,2|8
144,336,102419,5,2
288,328,102639,1,8
400,240,102860,1,2
392,96,103080,1,8
392,96,103191,2,0,B|344:88|296:104,1,95,2|0
256,128,103522,1,10
120,96,103742,2,0,B|168:88|216:104,1,95,2|8
256,240,104183,5,2
120,192,104404,1,8
256,240,104625,2,0,B|248:288|200:352,1,95,2|8
168,328,104955,1,2
120,192,105176,1,0
120,192,105286,1,8
256,144,105507,2,0,B|264:96|312:32,1,95,2|8
344,192,105948,5,2
364,284,106169,1,8
168,192,106389,1,2
148,100,106610,1,8
364,100,106830,1,2
256,192,107051,2,0,B|245:228|237:238|237:238|248:246|264:282|264:282,1,95,2|0
120,112,107713,6,0,B|88:144|64:208,1,95,4|8
96,336,108154,2,0,B|127:304|145:255,1,95,0|8
216,192,108595,1,0
336,264,108816,1,8
336,264,108926,1,0
448,176,109147,1,0
448,176,109257,1,8
384,48,109478,6,2,B|288:72,1,95,2|0
128,144,109919,2,2,B|224:120,1,95,2|0
304,160,110360,1,8
376,280,110580,1,0
376,280,110691,2,0,B|352:312|320:304|296:336,1,95,8|0
256,352,111022,1,8
136,320,111242,5,4
88,208,111463,1,0
168,112,111683,2,0,B|200:144|232:232,1,95,4|0
344,272,112125,2,0,B|312:240|280:152,1,95,8|8
292,144,112455,1,0
372,48,112676,1,0
372,48,112786,1,8
464,192,113007,5,2
440,284,113228,1,0
344,272,113448,2,0,B|296:288|248:336,1,95,2|0
168,328,113889,1,8
72,224,114110,1,8
72,224,114220,1,0
104,88,114441,1,0
104,88,114551,1,8
240,48,114772,6,0,B|256:160,1,95,6|8
344,176,115213,2,0,B|360:288,1,95,2|8
480,352,115654,2,0,B|466:257,1,95,6|8
424,248,115985,2,2,B|400:96,1,142.5,0|10
240,48,116536,5,6
200,168,116757,1,8
88,112,116978,1,2
72,232,117198,1,8
184,288,117419,1,6
200,168,117639,1,8
200,168,117750,2,2,B|256:184|288:136|352:152,1,142.5,0|10
184,288,118301,6,0,B|208:336|272:376,1,95,6|2
376,296,118742,2,0,B|352:248|288:208,1,95,2|2
200,168,119183,1,6
192,144,119294,1,0
184,120,119404,1,0
176,96,119514,2,2,B|120:80|88:128|24:112,1,142.5,0|10
128,256,120066,6,0,B|168:284|224:276,1,95,6|8
384,224,120507,2,0,B|344:196|288:204,1,95,2|8
132,112,120948,2,0,B|172:140|228:132,1,95,2|0
272,128,121279,1,8
360,40,121500,1,8
360,40,121610,1,8
472,96,121830,6,0,B|440:224,1,95,4|0
364,144,122272,2,0,B|332:272,1,95,2|0
256,192,122713,2,0,B|224:320,1,95,8|0
220,328,123044,1,8
96,264,123264,1,0
104,244,123375,1,0
112,220,123485,1,0
120,196,123595,6,0,B|143:103,1,95,4|0
224,64,124036,2,0,B|248:104|320:136,1,95,2|0
376,72,124478,2,0,B|423:92|447:132,1,95,8|0
448,176,124808,1,8
344,272,125029,1,0
320,264,125139,1,0
296,272,125250,1,0
272,264,125360,6,0,B|240:280|216:248|168:264,1,95,4|0
88,280,125801,2,0,B|24:192,1,95,2|0
128,192,126242,2,0,B|104:88,1,95,8|0
144,72,126573,2,0,B|200:88|224:40|296:56,1,142.5,0|8
368,88,127125,5,4
464,192,127345,1,0
352,280,127566,1,4
256,176,127786,1,0
368,88,128007,1,2
368,88,128117,1,0
368,88,128228,1,0
368,88,128338,2,0,B|360:192,1,95,2|0
356,232,128669,1,2
232,304,128889,6,0,B|184:296|104:328,1,95,4|0
144,224,129330,2,0,B|98:243|50:235,1,95,2|0
40,144,129772,2,0,B|85:124|133:132,1,95,8|0
180,140,130103,1,8
300,60,130323,1,0
300,60,130433,1,8
416,144,130654,6,0,B|464:232,1,95,4|0
368,208,131095,2,2,B|384:320,1,95,0|0
296,260,131536,2,0,B|264:300|200:332,1,95,2|0
176,328,131867,1,6
52,256,132088,1,0
52,256,132198,1,2
140,144,132419,5,6
256,208,132639,1,0
372,144,132860,1,2
256,76,133080,1,0
192,192,133301,5,2
256,352,133522,1,0
320,192,133742,1,2
256,32,133963,1,0
256,192,134183,5,2
256,192,134294,1,0
256,192,134404,1,2
256,192,134514,1,0
256,192,134625,2,0,B|240:224|272:248|256:288,2,95,2|0|2
332,44,135286,5,2
256,32,135507,1,4
180,44,135728,1,2
164,276,135948,6,0,B|232:240|288:332|380:280,1,190,6|8
444,212,136610,1,0
444,212,136720,2,0,B|440:164|456:116,1,95,2|0
452,72,137051,1,8
332,128,137272,1,2
200,116,137492,1,8
76,72,137713,6,0,B|68:120|84:184,1,95,2|8
152,304,138154,2,0,B|160:256|144:192,1,95,2|8
168,168,138485,1,2
256,56,138705,1,0
256,56,138816,1,8
384,120,139036,2,0,B|368:232,1,95,2|8
336,304,139478,5,2
220,348,139698,1,8
100,316,139919,1,2
92,192,140139,1,8
92,192,140250,2,0,B|60:96,1,95,2|0
116,24,140580,2,0,B|146:114,1,95,8|2
236,200,141022,1,8
312,104,141242,6,0,B|360:104|424:72,1,95,2|8
200,104,141683,2,0,B|152:104|88:136,1,95,2|8
88,168,142014,1,2
192,264,142235,1,0
192,264,142345,1,10
332,256,142566,1,2
356,248,142676,1,0
380,240,142786,1,2
404,232,142897,1,0
428,224,143007,6,0,B|452:184|444:104,1,95,6|8
272,52,143448,2,0,B|248:92|256:172,1,95,6|8
256,192,143779,1,2
144,280,144000,1,0
144,280,144110,1,8
44,180,144330,1,2
144,280,144551,1,8
256,96,144772,5,2
352,96,144992,1,8
432,40,145213,1,2
376,168,145433,5,8
376,168,145544,1,2
256,96,145764,1,0
256,96,145875,1,10
146,186,146095,2,0,B|130:234|144:280,1,95,2|8
216,352,146536,5,2
296,296,146757,1,8
392,296,146978,2,0,B|440:296|504:256,1,95,2|8
488,224,147308,1,2
432,96,147529,1,0
432,96,147639,2,0,B|384:96|320:136,2,95,8|2|8
360,192,148301,5,2
256,272,148522,1,8
152,192,148742,1,2
256,112,148963,1,8
256,192,149183,1,2
256,32,149404,5,0
256,32,149625,1,2
256,32,149845,1,0
98,50,150066,6,0,B|101:90|87:109|87:109|139:109|155:161,1,142.500005435944,6|8
208,294,150507,2,0,B|138:281|138:281|112:257|123:206,1,142.500005435944,2|8
151,150,150838,1,6
312,100,151058,1,0
312,100,151169,2,0,B|368:76|392:148|472:92,2,142.500005435944,10|2|8
256,192,151830,5,6
144,104,152051,1,8
64,224,152272,1,2
180,304,152492,1,8
180,304,152603,2,0,B|232:332|276:300|276:300|332:328,1,142.500005435944,6|0
384,320,152933,2,0,B|428:292|448:304|448:304|448:272|488:224,2,142.500005435944,8|2|8
336,108,153595,5,6
192,80,153816,1,8
192,80,153926,1,0
192,80,154036,2,0,B|152:104|152:104|144:136|128:160|88:184,1,142.500005435944,2|8
16,148,154367,2,0,B|8:220|48:252|48:252|20:289,1,142.500005435944,6|0
108,316,154698,2,0,B|156:296|156:296|200:328|264:304,1,142.500005435944,10|2
364,236,155139,1,8
392,96,155360,6,0,B|345:119|289:95|289:95|256:109,1,142.500005435944,6|8
119,179,155801,2,0,B|165:202|221:178|221:178|256:192,1,142.500005435944,2|8
256,192,156132,2,0,B|291:178|291:178|347:202|393:179,1,142.500005435944,2|0
424,200,156463,1,10
444,232,156573,1,0
448,268,156683,1,2
436,300,156794,1,0
412,324,156904,1,2
376,332,157014,1,0
340,332,157125,6,0,B|292:312|292:312|256:340|204:324,1,142.500005435944,6|8
52,192,157566,2,0,B|83:171|107:189|107:189|138:168|138:168|197:182,1,142.500005435944,2|8
256,192,157897,1,6
404,192,158117,1,0
404,192,158228,2,0,B|416:236|440:252|440:252|416:268|412:316,2,142.500005435944,10|2|8
256,80,158889,6,0,B|255:138|185:156|155:106,1,142.500005435944,6|8
252,264,159330,2,0,B|281:313|351:295|352:237,1,142.500005435944,2|8
404,192,159661,2,0,B|428:156|428:156|407:104|407:104|365:95,1,142.500005435944,6|0
304,56,159992,2,0,B|248:35|248:35|233:72|184:85,2,142.500005435944,10|2|8
256,192,160654,5,6
176,308,160875,1,8
48,244,161095,1,2
136,132,161316,1,8
136,132,161426,2,0,B|188:140|224:104|224:104|288:108,1,142.500005435944,6|0
352,112,161757,2,0,B|368:152|396:164|396:164|364:176|360:224,2,142.500005435944,8|2|8
256,288,162419,5,6
160,112,162639,1,8
352,112,162860,1,6
256,192,163080,1,8
256,48,163301,1,6
256,288,163522,2,0,B|320:320|352:264|352:264|392:288,1,142.500005435944,2|0
160,112,164183,6,0,B|104:120|96:172|28:176,1,142.500005435944,6|8
160,112,164625,2,0,B|128:164|176:208|140:260,1,142.500005435944,2|8
128,324,164955,1,6
256,260,165176,1,0
256,260,165286,2,0,B|312:276|344:248|344:248|416:288,2,142.500005435944,8|2|8
112,104,165948,6,0,B|84:176|116:252,1,142.500005435944,6|8
400,280,166389,6,0,B|416:224|392:144,1,118.75,2|8
180,132,166830,6,0,B|188:180|180:232,1,95,6|8
332,252,167272,6,2,B|308:180|332:104,1,142.500005435944,2|6
256,192,167933,12,0,169478
256,192,170580,6,0,B|256:240|256:240|228:236|208:264|208:264,1,95,2|0
440,48,171242,6,0,B|396:72|360:120,1,95,2|8
296,256,171683,2,0,B|340:232|376:184,1,95,2|8
352,148,172014,1,2
220,92,172235,1,8
120,192,172455,1,2
120,192,172566,2,0,B|108:232|132:260|120:296,1,95,2|8
256,336,173007,6,0,B|380:336,1,95,2|8
444,228,173448,2,0,B|332:228,1,95,2|8
300,228,173779,1,2
168,168,174000,1,8
256,56,174220,1,2
256,56,174330,2,0,B|304:56|368:80,1,95,2|8
436,188,174772,5,2
300,228,174992,1,8
204,120,175213,2,0,B|180:164|120:196,1,95,2|10
92,200,175544,2,0,B|80:304,1,95,2|8
220,272,175985,1,2
220,272,176095,2,0,B|256:272|272:304|336:304,1,95,2|8
332,192,176536,6,0,B|380:188|424:156,1,95,2|8
180,192,176978,2,0,B|132:196|88:228,1,95,2|8
76,268,177308,1,2
208,324,177529,1,2
208,324,177639,1,8
256,192,177860,2,0,B|255:143|226:97,1,95,2|0
37,89,178301,6,0,B|10:167|98:199|76:268,1,190,6|8
208,324,178963,1,2
208,324,179073,2,0,B|332:296,1,95,8|2
436,264,179514,1,2
436,264,179625,2,0,B|340:244,1,95,8|8
176,152,180066,5,2
216,68,180286,1,8
312,64,180507,2,0,B|320:116|348:164,1,95,2|8
388,172,180838,2,0,B|364:276,1,95,2|8
232,316,181279,1,2
232,316,181389,2,0,B|180:312|120:340,1,95,8|8
44,168,181830,5,2
96,88,182051,1,8
188,68,182272,1,2
256,192,182492,1,8
256,192,182603,1,2
324,68,182823,1,8
444,144,183044,1,8
444,144,183154,2,0,B|432:192|444:260,1,95,2|8
320,260,183595,6,0,B|276:292|224:284,1,95,2|8
192,124,184036,2,0,B|236:92|288:100,1,95,2|8
324,120,184367,1,2
256,192,184588,1,8
256,192,184698,1,10
152,192,184919,5,2
360,192,185360,1,4
256,192,185580,12,0,187125
