osu file format v9

[General]
AudioFilename: 123.mp3
AudioLeadIn: 500
PreviewTime: 92933
Countdown: 0
SampleSet: Normal
StackLeniency: 0.4
Mode: 0
LetterboxInBreaks: 1

[Editor]
Bookmarks: 44419
DistanceSpacing: 1.3
BeatDivisor: 8
GridSize: 4

[Metadata]
Title:Koi no Recipe to Et Cetera
Artist:monoROSETTA
Creator:cRyo[iceeicee]
Version:Hard
Source:
Tags:c81 aabc271 void

[Difficulty]
HPDrainRate:5
CircleSize:4
OverallDifficulty:5
ApproachRate:7
SliderMultiplier:1.7
SliderTickRate:1

[Events]
//Background and Video events
0,0,"BG.jpg"
//Break Periods
2,58501,64460
//Storyboard Layer 0 (Background)
//Storyboard Layer 1 (Fail)
//Storyboard Layer 2 (Pass)
//Storyboard Layer 3 (Foreground)
//Storyboard Sound Samples
//Background Colour Transformations
3,100,163,162,255

[TimingPoints]
1831,441.176470588235,4,1,1,45,1,0
15838,-100,4,2,1,65,0,0
17382,-100,4,1,1,45,0,0
17823,-100,4,2,1,65,0,0
19147,-100,4,1,1,45,0,0
19588,-100,4,2,1,65,0,0
20250,-100,4,1,1,45,0,0
20470,-100,4,2,1,65,0,0
20911,-100,4,1,1,45,0,0
21353,-100,4,2,1,65,0,0
22676,-100,4,1,1,45,0,0
22897,-100,4,2,1,65,0,0
24441,-100,4,1,1,45,0,0
24882,-100,4,2,1,65,0,0
26205,-100,4,1,1,45,0,0
26592,-100,4,2,1,65,0,0
27970,-100,4,1,1,45,0,0
28191,-100,4,2,1,65,0,0
29955,-100,4,1,1,45,0,0
34864,-100,4,1,1,5,0,0
35029,-100,4,1,1,45,0,0
35250,-100,4,1,1,35,0,0
35470,-100,4,1,1,45,0,0
35691,-100,4,1,1,35,0,0
35911,-100,4,1,1,45,0,0
36132,-100,4,1,1,35,0,0
36353,-100,4,1,1,45,0,0
40158,-100,4,1,1,5,0,0
40323,-100,4,1,1,45,0,0
43411,-100,4,2,1,75,0,0
43632,-100,4,2,1,55,0,0
43853,-100,4,2,1,75,0,0
44183,-100,4,1,1,45,0,1
44239,-100,4,1,1,45,0,0
57529,-100,4,2,1,55,0,0
58191,-100,4,1,1,45,0,0
64919,-100,4,2,1,65,0,0
66794,-100,4,1,1,45,0,0
67014,-100,4,2,1,65,0,0
68558,-100,4,1,1,45,0,0
69000,-100,4,2,1,65,0,0
70323,-100,4,1,1,45,0,0
70764,-100,4,2,1,65,0,0
72088,-100,4,1,1,45,0,0
72308,-100,4,2,1,65,0,0
73411,-100,4,1,1,45,0,0
73853,-100,4,2,1,65,0,0
75617,-100,4,1,1,45,0,0
76003,-100,4,2,1,65,0,0
77382,-100,4,1,1,45,0,0
77603,-100,4,2,1,65,0,0
78044,-100,4,1,1,45,0,0
78264,-100,4,2,1,65,0,0
79367,-100,4,1,1,45,0,0
79588,-100,4,2,1,55,0,0
79808,-100,4,1,1,45,0,0
80029,-100,4,2,1,55,0,0
80250,-100,4,1,1,45,0,0
80746,-100,4,1,1,5,0,0
80856,-100,4,1,1,45,0,0
81353,-100,4,2,1,55,0,0
81573,-100,4,1,1,45,0,0
81794,-100,4,2,1,55,0,0
82014,-100,4,1,1,45,0,0
82511,-100,4,1,1,5,0,0
82676,-100,4,1,1,45,0,0
83117,-100,4,2,1,55,0,0
83338,-100,4,1,1,45,0,0
83558,-100,4,2,1,55,0,0
83779,-100,4,1,1,45,0,0
84275,-100,4,1,1,5,0,0
84441,-100,4,1,1,45,0,0
84661,-100,4,1,1,35,0,0
84882,-100,4,2,1,55,0,0
85103,-100,4,1,1,35,0,0
85323,-100,4,2,1,55,0,0
85544,-100,4,1,2,35,0,0
85764,-100,4,1,2,45,0,0
86040,-100,4,1,2,5,0,0
86150,-100,4,1,2,45,0,0
86647,-100,4,2,1,55,0,0
86866,-100,4,1,2,45,0,0
87088,-100,4,2,1,55,0,0
87308,-100,4,1,2,45,0,0
87805,-100,4,1,2,5,0,0
87970,-100,4,1,2,45,0,0
88411,-100,4,2,1,55,0,0
88632,-100,4,1,2,45,0,0
88853,-100,4,2,1,55,0,0
89073,-100,4,1,1,45,0,0
89569,-100,4,1,1,5,0,0
89680,-100,4,1,1,45,0,0
92823,-100,4,2,1,75,0,0
93023,-100,4,2,1,55,0,0
93264,-100,4,2,1,75,0,0
93595,-100,4,1,2,45,0,1
93650,-100,4,1,2,45,0,0
106941,-100,4,2,0,55,0,0
107492,-100,4,1,1,45,0,0
108981,-100,4,1,1,5,0,0
109092,-100,4,1,1,45,0,0
110746,-100,4,1,1,5,0,0
110911,-100,4,1,1,45,0,0
111187,-100,4,1,2,45,0,0
112511,-100,4,1,2,5,0,0
112621,-100,4,1,2,45,0,0
112952,-100,4,2,1,55,0,0
113117,-100,4,1,2,45,0,0
113338,-100,4,2,1,55,0,0
113503,-100,4,1,2,45,0,0
114275,-100,4,1,2,5,0,0
114386,-100,4,1,2,45,0,0
118467,-100,4,2,1,55,0,0
118632,-100,4,1,2,45,0,0
118853,-100,4,2,1,65,0,0
119073,-100,4,1,2,45,0,0
122161,-100,4,2,1,55,0,0
122382,-100,4,1,2,45,0,0
123099,-100,4,1,2,5,0,0
123209,-100,4,1,2,45,0,0
123981,-100,4,2,1,55,0,0
124147,-100,4,1,2,45,0,0
124864,-100,4,1,2,5,0,0
124974,-100,4,1,2,45,0,0
125691,-100,4,2,1,55,0,0
125911,-100,4,1,2,45,0,0
126628,-100,4,1,2,5,0,0
126739,-100,4,1,2,45,0,0
129220,-100,4,2,1,55,0,0
129441,-100,4,1,2,45,0,0
130158,-100,4,1,2,5,0,0
130268,-100,4,1,2,45,0,0
132419,-100,4,1,1,45,0,0
135176,-100,4,2,1,75,0,0
135397,-100,4,2,1,55,0,0
135617,-100,4,2,1,75,0,0
135948,-100,4,1,2,45,0,1
136003,-100,4,1,2,45,0,0
150066,-80,4,1,2,45,0,1
150121,-80,4,1,2,45,0,0
156187,-80,4,1,2,5,0,0
156297,-80,4,1,2,45,0,0
163411,-80,4,2,1,55,0,0
163963,-80,4,1,2,45,0,0
167823,-133.333333333333,4,2,1,5,0,0
169798,-100,4,2,1,55,0,0
171009,-100,4,1,2,45,0,0
185139,-100,4,1,1,45,0,0
185470,-100,4,2,1,10,0,0

[Colours]
Combo1 : 174,0,0
Combo2 : 255,100,255
Combo3 : 81,39,205

[HitObjects]
36,100,1831,6,0,B|116:152|196:100,1,170,6|8
280,84,2492,1,0
280,84,2603,2,0,B|304:120|324:176,1,85,8|8
400,176,3044,1,8
400,176,3154,2,0,B|413:216|418:276,1,85,0|8
336,320,3595,6,0,B|256:371|176:319,1,170,2|8
100,288,4257,1,0
100,288,4367,2,0,B|88:244|65:210,1,85,8|8
148,192,4808,1,8
148,192,4919,2,0,B|156:148|176:112,1,85,0|8
276,100,5360,6,0,B|295:64|303:20,2,85,2|8|2
256,184,6022,1,8
256,184,6132,2,0,B|248:220|264:240|256:272,1,85,0|8
340,268,6573,1,8
340,268,6683,2,0,B|332:304|348:324|340:356,1,85,0|8
256,356,7125,5,2
256,356,7566,1,2
172,268,7897,1,10
100,220,8117,1,0
100,220,8228,1,8
176,184,8448,1,2
260,28,8889,6,0,B|296:88|212:136|260:188,1,170,6|8
344,208,9551,1,0
344,208,9661,2,0,B|344:252|328:292,1,85,8|8
256,336,10103,1,8
256,336,10213,1,0
172,332,10433,1,8
96,264,10654,6,0,B|80:224|40:184,1,85,2|8
84,96,11095,2,0,B|100:136|140:176,1,85,2|8
164,192,11426,2,0,B|204:192|244:168,1,85,0|8
304,108,11867,1,8
304,108,11978,2,0,B|344:108|384:132,1,85,0|8
444,212,12419,5,2
444,212,12639,1,8
444,212,12860,2,0,B|444:316,1,85,2|8
404,316,13191,2,0,B|360:328|316:360,1,85,0|8
256,304,13632,1,8
256,304,13742,2,0,B|212:308|168:280,1,85,0|8
88,196,14183,5,2
88,196,14625,1,2
188,80,14956,1,10
256,28,15176,1,8
256,28,15286,1,0
324,80,15507,1,2
448,192,15948,6,0,B|444:236|424:280,1,85,8|0
360,224,16389,2,0,B|332:260|288:284,1,85,8|0
216,312,16831,1,2
216,312,16941,1,0
128,300,17161,1,4
128,300,17272,2,0,B|100:264|88:224,1,85,0|0
92,80,17713,6,0,B|119:115|131:154,1,85
216,164,18154,2,0,B|243:199|255:238,1,85,8|0
308,304,18595,1,2
392,288,18816,1,0
392,288,18926,1,0
392,288,19036,2,0,B|436:288|504:316,2,85,2|0|0
372,160,19698,5,2
372,160,19919,2,0,B|336:184|260:196,1,85,8|0
220,148,20360,2,0,B|176:153|140:177,2,85,0|2|8
256,224,21022,1,0
256,224,21242,1,0
396,320,21463,6,0,B|416:228,1,85,2|8
372,160,21904,1,0
328,88,22125,1,2
248,60,22345,1,0
248,60,22456,1,0
248,60,22566,2,0,B|208:80|164:77,1,85,8|0
64,192,23007,6,0,B|56:240|72:304,1,85,6|0
144,244,23448,2,0,B|144:288|164:328,1,85,8|0
228,272,23889,2,0,B|240:316|268:352,2,85,2|0|8
252,148,24551,5,0
332,116,24772,1,0
400,164,24992,1,2
400,164,25103,1,0
400,164,25213,2,0,B|428:196|448:248,1,85,8|0
400,312,25654,2,0,B|356:328|296:324,1,85,2|0
236,296,26095,2,0,B|196:292|152:308,2,85,2|0|0
312,192,26757,5,2
380,140,26978,2,0,B|400:100|404:52,1,85,8|0
276,48,27419,1,2
256,48,27529,1,2
236,48,27639,1,2
216,48,27750,1,0
196,48,27860,2,0,B|92:48,1,85,4|0
60,164,28301,6,0,B|20:140,2,42.5,2|0|0
80,248,28742,1,8
140,308,28963,1,0
224,328,29183,2,0,B|258:303,1,42.5,2|0
256,260,29404,2,0,B|290:235,1,42.5,2|0
288,192,29625,2,0,B|360:140,1,85,4|0
256,60,30066,6,2,B|188:32|156:100|68:60,1,170,4|0
28,128,30728,1,0
84,192,30948,2,0,B|96:232|120:284,1,85,8|0
156,276,31279,2,0,B|196:288|232:324,1,85,8|0
256,352,31610,1,8
368,292,31831,6,2,B|360:220|416:204|416:128,1,170,0|0
376,56,32492,1,0
304,100,32713,2,0,B|260:100|220:84,1,85,8|0
188,108,33044,2,0,B|144:112|92:96,1,85,8|0
64,88,33375,1,8
56,216,33595,6,2,B|94:226|94:226|124:267|171:247|171:247|214:258,1,170,0|0
292,228,34257,1,0
368,268,34478,2,0,B|416:296|440:252|492:296,2,127.5,8|2|8
300,192,35360,5,2
300,192,35581,1,8
348,100,35801,1,2
348,100,36022,1,8
256,52,36242,2,0,B|212:52|160:68,1,85,2|8
156,104,36573,2,0,B|119:125|77:134,1,85,0|0
44,160,36904,1,8
56,288,37125,6,2,B|80:296|104:344|192:312|192:312|248:340,1,170,4|0
284,276,37786,2,0,B|324:260|400:252,1,85,8|0
448,232,38228,1,8
448,232,38338,1,0
476,152,38558,1,0
476,152,38669,1,8
392,56,38889,6,2,B|340:52|340:52|304:88|232:84|232:84|200:92,1,170,0|0
180,156,39551,1,8
96,140,39772,2,0,B|64:168|80:224|32:252,2,127.5,0|2|2
184,192,40654,5,6
184,192,40875,1,0
256,264,41095,1,2
256,264,41316,1,0
328,192,41536,1,2
328,192,41757,1,0
256,120,41978,1,2
256,120,42198,1,0
156,92,42419,5,2
148,88,42529,1,0
140,84,42639,1,2
132,80,42750,1,0
124,76,42860,2,0,B|76:68|36:76,2,85,2|0|2
148,212,43522,5,2
256,268,43742,1,4
364,212,43963,1,2
460,136,44183,6,0,B|384:164|372:96|280:120,1,170,6|8
216,76,44845,1,0
216,76,44955,2,0,B|176:100|128:104,1,85,2|0
92,104,45286,2,0,B|52:80|28:32,2,85,8|2|8
172,184,45948,6,0,B|192:224|236:252,1,85,2|8
340,200,46389,2,0,B|320:160|276:132,1,85,2|8
280,96,46720,2,0,B|316:73|336:33,1,85,2|0
380,32,47051,2,0,B|496:32,2,85,8|2|8
212,64,47713,6,0,B|192:156,1,85,2|8
112,172,48154,2,0,B|92:264,1,85,2|8
88,296,48485,1,2
172,312,48705,1,0
172,312,48816,2,0,B|216:320|264:296,2,85,8|2|8
156,184,49478,6,0,B|194:164|238:172,1,85,2|8
308,224,49919,2,0,B|328:185|320:141,1,85,2|8
312,100,50250,1,2
188,80,50470,1,0
188,80,50580,2,0,B|144:96|77:90,2,85,2|2|2
368,96,51242,6,0,B|395:170|323:186|335:258,1,170,6|8
268,312,51904,1,0
268,312,52014,2,0,B|228:336|184:336,1,85,2|0
144,328,52345,2,0,B|100:324|56:340,2,85,8|2|8
180,196,53007,5,2
256,160,53228,1,8
332,116,53448,1,2
408,80,53669,1,8
408,80,53779,2,0,B|408:184,1,85,2|0
408,208,54110,2,0,B|410:316,2,85,8|2|8
296,268,54772,6,0,B|264:300|200:324,1,85,2|8
156,264,55213,2,0,B|116:277|84:309,1,85,2|8
44,312,55544,2,0,B|44:264|24:236|28:184,1,127.5,2|8
88,128,56095,2,0,B|116:96|132:44,1,85,2|8
256,52,56536,5,2
308,204,56757,1,8
168,108,56978,1,2
344,108,57198,1,8
204,204,57419,1,2
256,272,57639,2,0,B|263:303|247:331|253:356,1,85,2|0
256,132,58301,5,4
104,128,65360,6,0,B|88:172|84:236,1,85,8|0
168,192,65801,2,0,B|176:296,1,85,8|0
256,308,66242,1,2
340,284,66463,1,0
340,284,66573,1,0
340,284,66683,2,0,B|380:276|432:244,1,85,4|0
448,128,67125,6,0,B|496:168,2,42.5,2|0|0
364,140,67566,1,8
280,128,67786,1,0
216,72,68007,2,0,B|180:96|108:104,1,85,2|0
76,152,68448,2,0,B|76:240,2,85,2|0|0
156,284,69110,5,2
240,300,69330,2,0,B|248:360,2,42.5,8|0|0
316,260,69772,1,2
368,192,69992,1,0
368,192,70103,1,0
368,192,70213,2,0,B|412:188|460:160,2,85,8|0|0
324,120,70875,5,2
256,72,71095,2,0,B|212:76|164:104,1,85,8|0
156,136,71426,2,0,B|116:152|64:152,1,85,2|0
32,136,71757,2,0,B|4:100,2,42.5,2|0|2
40,220,72198,1,0
160,316,72419,6,0,B|204:320|272:288,1,85,4|0
200,228,72860,2,0,B|240:216|284:184,1,85,8|0
352,148,73301,1,2
436,156,73522,1,0
484,224,73742,1,0
376,292,73963,5,0
376,292,74073,1,0
376,292,74183,2,0,B|336:308|293:310,1,85,2|0
216,272,74625,2,0,B|173:274|133:290,1,85,8|0
56,256,75066,2,0,B|36:220|39:172,2,85,2|0|8
172,172,75728,5,0
172,172,75948,2,0,B|216:172|268:156,1,85,0|2
308,96,76389,2,0,B|347:83|391:83,1,85,8|2
456,196,76830,1,2
456,224,76941,1,2
456,252,77051,1,2
456,280,77161,1,0
456,308,77272,2,0,B|348:308,1,85,4|0
252,264,77713,6,0,B|192:248,2,42.5,2|0|2
328,224,78154,1,0
356,144,78375,1,2
296,84,78595,2,0,B|232:104,1,42.5,2|0
236,136,78816,2,0,B|172:156,1,42.5,2|0
176,188,79036,2,0,B|92:216,1,85,4|0
156,328,79478,6,0,B|196:324|236:301,1,85,4|2
308,344,79919,2,0,B|346:331|380:299,1,85,0|2
428,227,80360,2,0,B|436:188|408:152|427:102,2,127.5,8|8|8
312,232,81242,5,0
228,244,81463,1,2
148,212,81683,1,0
112,136,81904,1,2
48,76,82125,2,0,B|96:40|144:56|144:56|184:32,2,127.5,8|8|8
96,200,83007,5,0
152,264,83228,1,2
228,300,83448,1,0
312,292,83669,1,2
380,244,83889,2,0,B|412:228|412:228|452:260|508:232,2,127.5,8|8|8
320,128,84772,5,2
320,128,84992,1,2
192,128,85213,1,2
192,128,85433,1,2
256,240,85654,2,0,B|256:372,2,127.5,2|8|8
192,128,86536,6,0,B|88:172,1,85,4|2
60,276,86978,2,0,B|138:242,1,85,0|2
256,192,87419,2,0,B|268:144|240:112|256:64,2,127.5,8|8|8
344,284,88301,6,0,B|372:312|448:328,1,85,0|2
476,208,88742,2,0,B|448:180|372:164,1,85,0|2
316,76,89183,2,0,B|256:104|192:76,2,127.5,8|8|0
368,192,90066,5,6
368,192,90286,1,0
256,256,90507,1,2
256,256,90728,1,0
144,192,90948,1,2
144,192,91169,1,0
256,128,91389,1,2
256,128,91610,1,0
356,92,91831,5,2
364,88,91941,1,0
372,84,92051,1,2
380,80,92161,1,0
388,76,92272,2,0,B|436:68|476:76,2,85,2|0|2
364,212,92933,5,2
256,268,93154,1,4
148,212,93375,1,2
56,136,93595,6,0,B|60:96|88:52,1,85,6|8
184,84,94036,2,0,B|180:124|152:168,1,85,2|8
148,212,94367,2,0,B|148:252|196:268|196:332,1,127.5,2|8
300,328,94919,2,0,B|340:328|396:356,1,85,2|8
448,240,95360,5,2
408,164,95581,1,8
336,116,95801,1,2
256,88,96022,1,8
256,88,96132,2,0,B|272:136|240:160|256:216,1,127.5,2|8
212,288,96683,2,0,B|172:312|128:312,1,85,2|8
40,220,97125,5,2
60,136,97345,1,8
140,96,97566,2,0,B|176:72|232:64,1,85,2|8
256,88,97897,2,0,B|316:104|416:64,1,127.5,2|8
444,136,98448,2,0,B|444:252,1,85,2|8
332,288,98889,6,0,B|300:324|232:344,1,85,2|8
208,268,99331,2,0,B|169:277|137:313,1,85,2|8
100,332,99661,2,0,B|48:312|48:312|36:288|40:240,1,127.5,2|10
96,156,100213,1,2
96,156,100433,1,8
232,56,100654,6,0,B|244:96|248:168,1,85,6|8
180,192,101095,2,0,B|182:235|194:275,1,85,2|8
216,312,101426,2,0,B|256:304|280:340|344:324,1,127.5,2|8
416,288,101978,1,2
416,288,102198,1,8
432,160,102419,5,2
392,84,102639,1,8
308,64,102860,1,2
224,84,103081,1,8
224,84,103191,2,0,B|176:76|152:112|96:108,1,127.5,2|8
36,164,103742,2,0,B|32:196|48:216|48:272,1,85,2|8
144,332,104183,5,2
228,324,104404,1,8
280,256,104625,2,0,B|320:240|364:243,1,85,2|8
404,236,104956,2,0,B|456:192|440:120,1,127.5,2|8
395,41,105507,2,0,B|368:56|366:88|344:107,1,85,2|8
256,52,105948,5,2
204,204,106169,1,8
344,108,106389,1,2
168,108,106610,1,8
308,204,106831,1,2
256,272,107051,2,0,B|249:303|265:331|259:356,1,85,2|0
348,64,107713,6,0,B|336:176,1,85,4|8
265,187,108154,2,0,B|256:272,1,85,0|8
172,296,108595,2,0,B|124:300|124:300|96:320|96:320|44:328,2,127.5,8|8|8
296,336,109478,5,2
372,296,109698,1,8
412,220,109919,1,2
404,136,110139,1,8
356,68,110360,2,0,B|304:68|288:24|228:32,2,127.5,8|8|8
280,172,111242,5,4
200,148,111463,1,8
116,164,111683,1,4
56,228,111904,1,8
76,312,112125,2,0,B|112:336|112:336|152:320|196:352,2,127.5,8|8|8
192,264,113007,5,2
268,300,113228,1,8
352,288,113448,1,2
420,236,113669,1,8
408,152,113889,2,0,B|424:128|424:128|476:136|496:40,2,127.5,8|8|8
308,72,114772,6,0,B|308:116|292:168,1,85,6|8
216,120,115213,2,0,B|216:164|200:216,1,85,2|8
120,176,115654,2,0,B|120:220|104:272,1,85,6|8
112,304,115985,2,2,B|128:324|128:324|172:304|240:328,1,127.5,0|2
352,300,116536,5,6
408,236,116757,1,8
408,148,116978,1,2
352,84,117198,1,8
268,84,117419,2,0,B|224:84|184:64,1,85,6|8
144,52,117750,2,2,B|96:64|96:116|20:132,1,127.5,0|2
64,252,118301,5,6
132,304,118522,1,2
216,316,118742,1,2
300,300,118963,1,2
360,244,119183,2,0,B|404:244|472:280,1,85,6|8
484,268,119514,2,2,B|512:208|480:144,1,127.5,0|10
372,68,120066,6,0,B|280:80,1,85,6|8
296,164,120507,2,0,B|204:176,1,85,2|8
228,260,120948,2,0,B|136:272,1,85,6|0
100,276,121279,1,8
32,224,121500,1,8
32,224,121610,1,8
108,72,121831,6,0,B|216:88,1,85,4|0
232,160,122272,2,0,B|340:176,1,85,2|0
356,248,122713,2,0,B|484:268,2,127.5,8|8|8
256,328,123595,6,0,B|216:344|148:344,1,85,4|0
156,260,124036,2,0,B|112:259|72:275,1,85,2|0
32,200,124478,2,0,B|84:172|157:174,2,127.5,8|8|8
52,72,125360,5,4
136,56,125581,1,0
220,72,125801,1,2
288,124,126022,1,0
352,180,126242,2,0,B|392:208|432:160|496:220,2,127.5,8|0|8
304,272,127125,5,4
304,272,127345,1,8
208,304,127566,1,4
208,304,127786,1,8
124,244,128007,2,0,B|80:244|40:227,1,85,2|8
28,176,128338,2,0,B|24:136|21:91,1,85,2|0
16,40,128669,1,10
144,48,128889,6,0,B|148:88|150:132,1,85,4|0
220,184,129331,2,0,B|256:164|320:156,1,85,2|0
380,196,129772,2,0,B|416:172|416:172|416:124|464:96,2,127.5,8|8|8
268,256,130654,6,0,B|232:284|204:356,1,85,4|8
144,280,131095,2,2,B|121:315|79:334,1,85,0|8
56,252,131536,2,0,B|64:212|32:180|56:120,2,127.5,0|2|2
184,192,132419,5,6
184,192,132639,1,0
256,120,132860,1,2
256,120,133081,1,0
328,192,133301,1,2
328,192,133522,1,0
256,264,133742,1,2
256,264,133963,1,0
156,292,134183,5,2
148,296,134294,1,0
140,300,134404,1,2
132,304,134514,1,0
124,308,134625,2,0,B|76:316|36:308,2,85,2|0|2
148,172,135286,5,2
256,116,135507,1,4
364,172,135728,1,2
464,104,135948,6,0,B|452:148|452:224,1,85,2|8
384,240,136389,2,0,B|372:284|372:360,1,85,2|8
336,344,136720,2,0,B|279:350|259:310|211:322,1,127.5,2|8
128,316,137272,1,2
128,316,137492,1,8
104,192,137713,6,0,B|68:172|24:168,2,85,2|8|2
180,232,138375,1,8
180,232,138485,2,0,B|248:236|316:200,1,127.5,2|8
264,132,139036,2,0,B|220:135|169:154,1,85,2|8
76,228,139478,5,2
112,304,139698,1,8
196,312,139919,1,2
272,276,140139,1,8
272,276,140250,2,0,B|328:252|412:264,1,127.5,2|8
476,228,140801,2,0,B|452:192|448:148,1,85,2|8
340,80,141242,5,2
260,108,141463,1,8
176,104,141683,1,2
104,60,141904,1,8
104,60,142014,2,0,B|96:120|56:120|60:188,1,127.5,2|2
80,260,142566,1,2
152,344,142786,1,2
248,288,143007,6,0,B|276:316|352:328,1,85,6|8
400,284,143448,2,0,B|412:240|400:184,1,85,2|8
392,160,143779,2,0,B|336:136|312:164|260:136,1,127.5,2|8
192,104,144331,1,2
192,104,144551,1,8
104,200,144772,6,0,B|108:244|132:296,1,85,2|8
188,340,145213,2,0,B|225:322|269:318,1,85,2|8
312,320,145544,2,0,B|376:336|444:276,1,127.5,2|10
484,220,146095,2,0,B|452:188|412:168,1,85,2|8
312,96,146536,5,2
236,140,146757,1,8
152,148,146978,1,2
72,120,147198,1,8
72,120,147308,2,0,B|44:184|88:180|44:256,1,127.5,2|8
48,328,147860,2,0,B|84:348|144:352,1,85,2|8
256,328,148301,5,2
308,176,148522,1,8
168,272,148742,1,2
344,272,148963,1,8
204,176,149183,1,2
256,108,149404,2,0,B|256:8,2,85,0|2|0
96,108,150066,6,0,B|88:160|112:244,1,106.249998416752,6|8
204,176,150507,2,0,B|220:229|212:281,1,106.249998416752,2|8
240,328,150838,2,0,B|308:344|324:272|404:296,1,159.374997625127,6|8
456,208,151389,2,0,B|412:228|392:200|340:216,1,106.249998416752,2|8
280,72,151830,6,0,B|272:128|240:200,1,106.249998416752,6|8
148,148,152272,2,0,B|126:193|118:249,1,106.249998416752,2|8
112,304,152603,2,0,B|144:328|144:328|240:284|280:324,1,159.374997625127,6|8
356,348,153154,2,0,B|388:308|384:220,1,106.249998416752,2|8
376,116,153595,6,0,B|420:88|496:92,2,106.249998416752,6|8|2
288,180,154257,1,8
288,180,154367,2,0,B|204:164|136:232,1,159.374997625127,6|8
84,136,154919,2,0,B|40:172|12:240,1,106.249998416752,2|8
116,348,155360,6,0,B|171:336|228:289,1,106.249998416752,6|8
312,268,155801,2,0,B|376:288|388:228|472:256,2,159.374997625127,2|2|2
212,228,156683,2,0,B|152:236|88:192,1,106.249998416752,2|2
148,52,157125,6,0,B|208:44|272:88,1,106.249998416752,6|8
332,140,157566,2,0,B|388:148|452:108,1,106.249998416752,2|8
484,132,157897,2,0,B|444:180|468:248|468:248|432:288,1,159.374997625127,6|8
352,332,158448,2,0,B|296:324|232:364,1,106.249998416752,2|8
136,240,158889,6,0,B|92:200|12:200,2,106.249998416752,6|8|2
240,264,159551,1,8
240,264,159661,2,0,B|284:280|360:240|360:240|420:264,1,159.374997625127,6|8
472,184,160213,2,0,B|480:128|452:48,1,106.249998416752,2|8
304,52,160654,6,0,B|248:52|200:76,1,106.249998416752,6|8
112,136,161095,2,0,B|168:136|216:160,1,106.249998416752,2|8
224,212,161426,2,0,B|136:212|72:252,1,159.374997625127,6|8
124,344,161978,2,0,B|176:344|227:318,1,106.249998416752,2|8
308,248,162419,6,0,B|328:204|332:144,1,106.249998416752,6|8
204,168,162860,2,0,B|184:124|180:64,2,106.249998416752,6|8|6
280,96,163522,2,0,B|324:100|340:72|404:76,1,106.249998416752,2|0
384,248,164183,6,0,B|352:296|268:304,1,106.249998416752,6|8
216,228,164625,2,0,B|158:232|126:280,1,106.249998416752,2|8
96,324,164955,2,0,B|28:296|48:232|48:232|36:188,1,159.374997625127,6|8
144,176,165507,2,0,B|116:128|120:72,1,106.249998416752,2|8
256,104,165948,6,0,B|324:64|388:144|464:104,1,212.499996833503,6|2
256,280,166830,2,0,B|188:320|124:240|48:280,1,212.499996833503,6|2
256,192,167713,12,0,169478
176,72,170580,6,0,B|144:84|132:108|92:120,1,85,2|0
376,96,171242,6,0,B|376:140|356:200,1,85,2|8
280,192,171683,2,0,B|266:231|266:275,1,85,2|8
240,308,172014,2,0,B|196:328|144:320,1,85,2|8
72,304,172455,1,8
72,304,172566,2,0,B|64:264|36:220,1,85,2|8
108,116,173007,5,2
192,132,173228,1,8
264,84,173448,2,0,B|304:64|336:92|400:60,1,127.5,2|10
472,88,174000,1,8
448,168,174220,1,2
448,168,174330,2,0,B|440:200|456:224|440:260,1,85,0|8
332,312,174772,5,2
332,312,174992,1,8
332,312,175213,1,2
256,272,175433,1,10
256,272,175544,2,0,B|220:296|168:300,1,85,0|8
124,232,175985,1,8
124,232,176095,2,0,B|80:236|44:259,1,85,2|8
44,124,176536,6,0,B|80:148|124:152,1,85,2|8
176,84,176978,2,0,B|219:88|255:111,1,85,2|8
256,152,177308,1,2
256,236,177529,1,2
256,236,177639,2,0,B|248:272|264:288|256:320,1,85,8|2
84,272,178301,6,0,B|96:200|28:180|60:100,1,170,2|10
136,76,178963,1,8
136,76,179073,2,0,B|176:76|224:56,1,85,2|8
292,100,179514,1,8
292,100,179625,2,0,B|332:100|380:120,1,85,2|8
460,212,180066,6,0,B|417:229|377:229,1,85,2|8
368,316,180507,2,0,B|320:320|272:284,1,85,2|8
256,264,180838,2,0,B|208:264|148:300,1,85,2|8
96,316,181279,1,8
96,316,181389,2,0,B|72:280|64:228,1,85,2|8
132,128,181830,6,0,B|125:85|101:49,2,85,2|8|2
216,148,182492,1,8
216,148,182603,2,0,B|240:184|248:236,1,85,2|8
332,216,183044,1,8
332,216,183154,2,0,B|336:264|316:324,1,85,2|8
256,352,183595,6,0,B|200:372|148:316|88:332,1,170,2|2
108,204,184367,1,10
172,148,184588,1,2
172,148,184698,2,0,B|212:148|264:128,1,85,8|2
256,300,185360,5,4
256,192,185580,12,0,187125
