osu file format v9

[General]
AudioFilename: 123.mp3
AudioLeadIn: 500
PreviewTime: 92933
Countdown: 0
SampleSet: Normal
StackLeniency: 0.7
Mode: 0
LetterboxInBreaks: 1

[Editor]
Bookmarks: 44419
DistanceSpacing: 0.9
BeatDivisor: 4
GridSize: 4

[Metadata]
Title:Koi no Recipe to Et Cetera
Artist:monoROSETTA
Creator:cRyo[iceeicee]
Version:Easy
Source:
Tags:c81 aabc271 void

[Difficulty]
HPDrainRate:1
CircleSize:3
OverallDifficulty:1
ApproachRate:2
SliderMultiplier:1
SliderTickRate:1

[Events]
//Background and Video events
0,0,"BG.jpg"
//Break Periods
2,58501,63800
2,107913,113212
//Storyboard Layer 0 (Background)
//Storyboard Layer 1 (Fail)
//Storyboard Layer 2 (Pass)
//Storyboard Layer 3 (Foreground)
//Storyboard Sound Samples
//Background Colour Transformations
3,100,163,162,255

[TimingPoints]
1831,441.176470588235,4,1,1,45,1,0
2161,-100,4,1,1,5,0,0
2492,-100,4,1,1,45,0,0
3816,-100,4,1,1,5,0,0
4257,-100,4,1,1,45,0,0
5580,-100,4,1,1,5,0,0
6022,-100,4,1,1,45,0,0
8228,-100,4,1,1,5,0,0
8393,-100,4,1,1,45,0,0
9000,-100,4,1,1,5,0,0
9551,-100,4,1,1,45,0,0
15286,-100,4,1,1,5,0,0
15452,-100,4,1,1,45,0,0
15838,-100,4,2,1,65,0,0
17603,-100,4,1,1,45,0,0
17823,-100,4,2,1,65,0,0
19478,-100,4,1,1,45,0,0
19588,-100,4,2,1,65,0,0
20911,-100,4,1,1,45,0,0
21353,-100,4,2,1,65,0,0
24441,-100,4,1,1,45,0,0
24882,-100,4,2,1,65,0,0
26205,-100,4,1,1,45,0,0
26592,-100,4,2,1,65,0,0
28301,-100,4,1,1,45,0,0
28522,-100,4,2,1,65,0,0
29955,-100,4,1,1,45,0,0
34864,-100,4,1,1,5,0,0
34974,-100,4,1,1,45,0,0
43632,-100,4,2,1,55,0,0
44183,-100,4,1,1,45,0,1
44239,-100,4,1,1,45,0,0
45176,-100,4,1,1,5,0,0
45452,-100,4,1,1,45,0,0
52235,-100,4,1,1,5,0,0
52511,-100,4,1,1,45,0,0
53283,-100,4,1,1,5,0,0
53669,-100,4,1,1,45,0,0
55875,-100,4,1,1,5,0,0
56040,-100,4,1,1,45,0,0
57750,-100,4,2,0,55,0,0
57970,-100,4,1,1,45,0,0
64919,-100,4,2,1,65,0,0
67014,-100,4,1,1,45,0,0
67345,-100,4,2,1,65,0,0
68558,-100,4,1,1,45,0,0
69000,-100,4,2,1,65,0,0
70544,-100,4,1,1,45,0,0
70764,-100,4,2,1,65,0,0
72088,-100,4,2,1,65,0,0
73963,-100,4,1,1,45,0,0
74404,-100,4,2,1,65,0,0
75617,-100,4,1,1,45,0,0
76003,-100,4,2,1,65,0,0
77492,-100,4,1,1,45,0,0
77933,-100,4,2,1,65,0,0
79367,-100,4,1,1,45,0,0
93023,-100,4,2,1,55,0,0
93595,-100,4,1,1,45,0,1
93650,-100,4,1,1,45,0,0
94588,-100,4,1,1,5,0,0
94864,-100,4,1,1,45,0,0
96463,-100,4,1,1,5,0,0
96628,-100,4,1,1,45,0,0
101592,-100,4,1,1,5,0,0
101922,-100,4,1,1,45,0,0
107161,-100,4,2,0,55,0,0
107382,-100,4,1,1,45,0,0
119404,-100,4,1,1,5,0,0
119900,-100,4,1,1,45,0,0
121720,-100,4,1,2,45,0,0
132419,-100,4,1,1,45,0,0
135286,-100,4,2,1,55,0,0
135948,-100,4,1,1,45,0,1
136003,-100,4,1,1,45,0,0
136941,-100,4,1,1,5,0,0
137217,-100,4,1,1,45,0,0
138816,-100,4,1,1,5,0,0
138981,-100,4,1,1,45,0,0
143944,-100,4,1,1,5,0,0
144275,-100,4,1,1,45,0,0
150066,-100,4,1,2,45,0,1
150121,-100,4,1,2,45,0,0
151058,-100,4,1,2,5,0,0
151334,-100,4,1,2,45,0,0
152933,-100,4,1,2,5,0,0
153099,-100,4,1,2,45,0,0
158062,-100,4,1,2,5,0,0
158393,-100,4,1,2,45,0,0
167603,-100,4,2,1,10,0,0
170360,-100,4,2,1,55,0,0
171009,-100,4,1,1,45,0,0
177639,-100,4,1,1,5,0,0
177805,-100,4,1,1,45,0,0
184367,-100,4,1,1,5,0,0
184588,-100,4,1,1,45,0,0
185470,-100,4,2,1,10,0,0

[Colours]
Combo1 : 174,0,0
Combo2 : 255,100,255
Combo3 : 81,39,205

[HitObjects]
168,112,1831,2,0,B|240:88|268:144|340:112,1,175,6|0
400,208,3154,1,0
339,271,3595,6,0,B|268:240|240:296|168:272,1,175,2|0
68,220,4919,1,0
84,132,5360,6,0,B|155:155|183:99|255:131,1,175,2|0
352,76,6683,1,0
440,88,7125,6,0,B|432:124|456:148|456:192,1,100,2|2
464,252,7897,2,0,B|412:292|344:280,1,125,2|2
256,296,8889,6,0,B|172:340|88:296,1,175,6|0
44,192,10213,1,0
88,112,10654,6,0,B|172:69|256:113,1,175,2|0
356,60,11978,1,0
444,72,12419,6,0,B|496:152|466:251,1,175,2|0
404,332,13742,1,0
324,296,14183,6,0,B|272:288|212:308,1,100,2|2
160,328,14956,2,0,B|100:360|36:340,1,125,2|2
36,252,15948,6,0,B|56:208|52:136,1,100,4|8
116,92,16830,2,0,B|168:80|232:108,1,100,2|8
300,132,17713,6,0,B|380:100|412:164|496:132,2,200,0|2|0
256,212,19919,2,0,B|170:286|70:242,1,200,8|2
56,152,21242,6,0,B|141:77|241:121,1,200,0|2
320,76,22566,1,8
408,96,23007,6,0,B|424:148|420:204,1,100,4|8
392,280,23889,2,0,B|352:312|288:308,1,100,2|8
256,228,24772,6,0,B|176:256|104:204|104:204|56:231,1,200,0|2
36,308,26095,1,8
120,336,26536,6,0,B|200:304|232:368|316:336,2,200,0|2|0
48,280,28742,1,8
32,192,29183,2,0,B|44:140|100:104,1,100,2|4
172,76,30066,6,0,B|220:60|288:68,1,100,6|0
360,72,30948,2,0,B|400:80|424:116,1,75,8|8
352,204,31830,6,0,B|336:260|304:296|256:305|208:296|176:260|160:204,1,275,2|8
256,148,33595,2,0,B|331:62|461:119,2,200,2|8|2
164,148,35801,5,2
88,196,36242,2,0,B|80:276,1,75,10|8
172,340,37125,6,0,B|220:348|276:328,1,100,6|0
356,304,38007,2,8,B|364:264|348:220,1,75
280,144,38889,6,0,B|323:120|384:117,1,100,2|0
456,76,39772,2,0,B|468:113|459:169,1,75,8|8
476,264,40654,6,0,B|414:273|414:273|374:347|279:342,1,200,6|2
216,324,41978,1,2
136,280,42419,2,0,B|88:249|86:195,2,100,2|2|2
176,200,43742,1,4
256,152,44183,6,0,B|308:156|360:128,1,100,6|8
412,116,44955,2,0,B|456:160|453:233,1,125,2|2
404,308,45948,6,0,B|328:368|220:328,1,175,2|2
128,320,47272,1,2
52,268,47713,6,0,B|72:220|40:180|40:180|64:96,1,175,2|2
168,60,49036,1,2
256,84,49478,6,0,B|329:45|349:121|425:89,1,175,2|2
472,192,50801,1,2
428,268,51242,6,0,B|380:296|328:280,1,100,6|8
268,260,52014,2,0,B|204:252|132:284,1,125,2|2
56,276,53007,6,0,B|12:192|80:92,1,175,2|2
168,56,54330,1,2
256,72,54772,6,0,B|304:84|364:52,1,100,2|2
420,60,55544,2,0,B|456:112|448:192,1,125,2|2
384,240,56536,6,0,B|356:284|364:344,2,100,2|2|2
340,160,57860,1,2
256,124,58301,5,4
164,88,65360,6,0,B|256:19|348:87,1,200,4|2
400,160,66683,1,8
368,244,67125,6,0,B|324:272|268:264,1,100,0|8
196,312,68007,2,0,B|144:304|100:332,1,100,2|8
64,252,68889,6,0,B|-5:159|63:67,2,200,0|2|0
132,312,71095,2,0,B|216:340|272:280|272:280|332:296,1,200,2|8
408,288,72419,6,0,B|380:212|436:172|408:92,1,200,4|2
332,44,73742,1,8
248,80,74183,6,0,B|200:100|148:89,1,100,0|8
72,132,75066,2,0,B|60:184|84:232,1,100,2|8
120,312,75948,6,0,B|212:380|305:312,2,200,0|2|0
76,236,78154,1,8
156,192,78595,2,0,B|192:204|216:184|256:192,1,100,2|4
300,268,79478,6,0,B|348:284|412:260,1,100,6|0
488,248,80360,2,8,B|500:208|488:172,1,75
476,64,81242,6,0,B|425:47|377:67,1,100,2|0
292,92,82125,2,0,B|252:96|212:80,1,75,8|8
212,196,83007,6,0,B|160:212|112:192,1,100,2|0
24,208,83889,2,0,B|23:171|39:135,1,75,8|8
120,60,84772,6,0,B|164:44|232:44,1,100,2|2
300,80,85654,2,0,B|308:112|300:155,1,75,10|8
256,256,86536,6,0,B|308:264|352:236,1,100,6|0
420,176,87419,2,8,B|442:213|438:249,1,75
384,348,88301,6,0,B|334:358|284:341,1,100,2|0
196,324,89183,2,0,B|156:320|112:332,1,75,8|8
60,236,90066,6,0,B|51:176|75:131|122:110|180:126,1,200,6|2
256,172,91389,1,2
256,264,91831,2,0,B|256:368,2,100,2|2|2
336,224,93154,1,4
336,132,93595,6,0,B|296:100|236:92,1,100,6|8
176,92,94367,2,0,B|124:100|92:84|92:84|52:113,1,125,2|2
32,192,95360,6,0,B|29:244|55:298,1,100,2|0
108,328,96132,2,0,B|160:364|236:352,1,125,2|2
316,316,97125,6,0,B|340:280|340:280|408:272|424:180,1,175,2|2
408,80,98448,1,2
324,52,98889,6,0,B|257:83|225:19|153:51,1,175,2|2
76,132,100213,1,2
92,220,100654,6,0,B|128:272|200:264,1,100,6|8
244,264,101426,2,0,B|304:232|324:148,1,125,2|2
400,124,102419,5,2
480,164,102860,2,0,B|480:240,1,75,2|2
420,332,103742,1,2
336,296,104183,6,0,B|240:264|168:328,1,175,2|2
104,236,105507,1,2
104,148,105948,6,0,B|96:108|116:88|104:44,2,100,2|2|2
184,192,107272,1,2
256,136,107713,5,4
400,128,114772,6,0,B|352:135|286:116,1,100,6|8
224,72,115654,2,0,B|188:60|128:68,1,75,2|2
40,72,116536,6,0,B|24:120|40:172,1,100,2|8
128,180,117419,2,0,B|144:216|136:260,1,75,2|2
84,352,118301,6,0,B|135:384|186:380|223:346|232:286,2,200,2|2|2
48,268,120507,1,8
116,208,120948,2,0,B|156:196|192:200,1,75,2|2
296,164,121830,6,0,B|348:168|405:138,1,100,4|0
460,84,122713,2,8,B|484:112|480:156,1,75
448,260,123595,6,0,B|405:290|338:285,1,100,4|0
276,332,124478,2,8,B|260:296|266:257,1,75
260,148,125360,6,0,B|196:136|136:196|136:196|76:136|12:148,1,275,4|0
52,44,127125,6,0,B|104:40|150:55,1,100,4|4
240,64,128007,2,8,B|279:66|312:49,1,75,8|8
424,56,128889,6,0,B|439:103|435:155,1,100,4|0
400,236,129772,2,0,B|364:244|316:244,1,75,8|8
228,296,130654,6,0,B|173:301|129:281,1,100,4|0
56,232,131536,2,0,B|81:201|129:194,1,75,8|10
232,192,132419,6,0,B|284:152|344:184|344:184|372:152|360:88,1,200,6|2
300,44,133742,1,2
212,44,134183,2,0,B|160:44|117:76,2,100,2|2|2
256,124,135507,1,4
312,196,135948,6,0,B|324:248|296:304,1,100,6|8
256,344,136720,2,0,B|192:360|124:324,1,125,2|2
76,260,137713,6,0,B|68:211|89:156,1,100,2|0
144,128,138485,2,0,B|208:112|276:148,1,125,2|2
312,220,139478,6,0,B|402:254|485:181,1,175,2|2
488,80,140801,1,2
400,52,141242,6,0,B|332:84|300:20|228:52,1,175,2|2
132,108,142566,1,2
104,192,143007,6,8,B|148:220|216:208,1,100,6|8
256,172,143779,2,0,B|320:160|376:193,1,125,2|2
456,152,144772,6,8,B|503:242|439:314,1,175,2|2
332,340,146095,1,2
256,292,146536,6,0,B|184:304|144:252|144:252|80:260,1,175,2|2
28,168,147860,1,2
80,92,148301,6,0,B|119:61|171:53,2,100,2|2|2
136,160,149625,1,2
220,192,150066,6,0,B|272:192|328:224,1,100,6|8
376,248,150838,2,0,B|432:212|432:136,1,125,2|2
404,56,151830,6,0,B|352:48|296:72,1,100,6|2
252,108,152603,2,0,B|196:148|112:132,1,125,2|2
64,192,153595,6,0,B|117:224|96:298|96:298|145:322,1,175,6|2
256,344,154919,1,2
344,320,155360,6,0,B|396:239|343:155,1,175,6|2
256,88,156683,1,2
176,52,157125,6,0,B|140:92|148:156,1,100,6|8
192,196,157897,2,0,B|208:260|176:328,1,125,2|2
256,368,158889,6,0,B|324:348|336:268|336:268|376:228,1,175,6|2
420,140,160213,1,2
376,60,160654,6,0,B|312:101|252:66|252:66|196:91,1,175,6|2
176,192,161978,1,2
256,236,162419,6,0,B|248:272|264:296|256:336,2,100,6|6|6
420,160,164183,6,0,B|344:96|257:144,1,175,6|2
156,192,165507,1,2
160,280,165948,6,0,B|228:328|284:232|352:280,1,200,6|2
420,224,167272,1,2
256,192,167713,12,2,170360
256,72,171242,6,0,B|320:88|360:48|360:48|384:64|392:116,1,175,6|0
344,204,172566,1,0
256,204,173007,6,0,B|184:227|156:171|84:202,1,175,2|0
84,316,174330,1,0
172,344,174772,6,0,B|243:313|271:369|343:345,1,175,2|0
428,272,176095,1,0
364,212,176536,6,0,B|312:200|248:224,1,100,2|2
208,252,177308,2,0,B|144:280|84:256,1,125,2|2
108,168,178301,6,0,B|152:94|234:106|234:106|267:78,1,175,6|0
360,132,179625,1,0
316,212,180066,6,0,B|264:280|184:260|184:260|148:284,1,175,2|0
104,180,181389,1,0
172,120,181830,6,0,B|244:84|268:156|340:120,1,175,2|0
420,200,183154,1,0
400,288,183595,6,0,B|302:358|216:220|112:288,1,300,2|2
48,228,185360,1,4
256,192,185580,12,0,187125
