osu file format v14

[General]
AudioFilename: GHOSTGRADUATION(monet).mp3
AudioLeadIn: 2000
PreviewTime: 68
Countdown: 0
SampleSet: Soft
StackLeniency: 0.7
Mode: 0
LetterboxInBreaks: 1
EpilepsyWarning: 1
WidescreenStoryboard: 1

[Editor]
Bookmarks: 35190,59336,73048,85678,112019,123726,150068,173482,197080,220801,251656,283851,295559
DistanceSpacing: 1.2
BeatDivisor: 8
GridSize: 4
TimelineZoom: 1

[Metadata]
Title:GHOST x GRADUATION
TitleUnicode:GHOST × GRADUATION
Artist:monet
ArtistUnicode:monet
Creator:Rizia
Version:White Graduation
Source:はつゆきさくら
Tags:Hatsuyuki Sakura ending VisualArt's SAGA PLANETS galgame eroge kawaiwkyik KaedekaShizuru yf_bmp
BeatmapID:824637
BeatmapSetID:376680

[Difficulty]
HPDrainRate:6
CircleSize:4
OverallDifficulty:6.6
ApproachRate:7.8
SliderMultiplier:1.6
SliderTickRate:2

[Events]
//Background and Video events
0,0,"SiglusEngine 2013-06-18 19-32-23-78.jpg",0,0
//Break Periods
2,112211,120013
//Storyboard Layer 0 (Background)
Sprite,Background,Centre,"SiglusEngine 2013-06-18 19-32-23-78.jpg",320,240 S,0,-2866,,0.69 F,0,-2866,-2134,0,1 F,0,-2866,34816,1
//Storyboard Layer 1 (Fail)
//Storyboard Layer 2 (Pass)
//Storyboard Layer 3 (Foreground)
//Storyboard Sound Samples

[TimingPoints]
792,731.707317073171,4,2,1,20,1,0
59328,-100,4,2,2,30,0,0
79816,-100,4,2,1,40,0,0
85670,-90.9090909090909,4,2,1,50,0,1
109816,-90.9090909090909,4,2,1,30,0,1
110182,-90.9090909090909,4,2,1,40,0,1
110548,-90.9090909090909,4,2,1,50,0,1
112011,-100,4,2,1,50,0,0
120792,-100,4,2,1,30,0,0
145670,-100,4,2,1,40,0,0
149145,-83.3333333333333,4,2,1,50,0,0
150060,-83.3333333333333,4,2,1,50,0,1
173474,-100,4,2,1,20,0,0
185182,733.94495412844,4,2,1,20,1,0
189952,743.034055727554,4,2,1,20,1,0
191066,740.740740740741,4,2,1,20,1,0
191066,-117.647058823529,4,2,1,20,0,0
192547,750,4,2,1,20,1,0
192547,-133.333333333333,4,2,1,20,0,0
194047,757.097791798107,4,2,1,20,1,0
194047,-200,4,2,1,20,0,0
197075,740.740740740741,4,2,1,20,1,0
208186,750,4,2,1,20,1,0
208936,740.740740740741,4,2,1,20,1,0
213380,750,4,2,1,20,1,0
214130,731.707317073171,4,2,1,20,1,0
214861,731.707317073171,4,2,1,20,1,0
218153,769.230769230769,4,2,1,20,1,0
219883,729.483282674772,4,2,1,20,1,0
220794,731.707317073171,4,2,1,20,1,0
226647,736.196319018405,4,2,1,20,1,0
228119,747.663551401869,4,2,1,20,1,0
228866,740.740740740741,4,2,1,20,1,0
229606,714.285714285714,4,2,1,20,1,0
230320,789.473684210526,4,2,1,20,1,0
230714,740.740740740741,4,2,1,20,1,0
232565,736.196319018405,4,2,1,20,1,0
238454,740.740740740741,4,2,1,20,1,0
241411,731.707317073171,4,2,1,20,1,0
249459,-100,4,2,1,30,0,0
250191,-100,4,2,1,40,0,0
254490,-100,4,2,1,5,0,0
254581,-83.3333333333333,4,2,1,50,0,1
261715,-71.4285714285714,4,2,1,50,0,1
262264,-62.5,4,2,1,50,0,1
262996,-62.5,4,2,1,60,0,1
263179,-62.5,4,2,1,70,0,1
263362,-83.3333333333333,4,2,1,50,0,1
283850,-100,4,2,1,50,0,0
307269,722.89156626506,4,2,1,20,1,0
309437,705.882352941176,4,2,1,20,1,0
309789,769.230769230769,4,2,1,20,1,0
310173,736.196319018405,4,2,1,20,1,0
313117,769.230769230769,4,2,1,20,1,0
314655,1379.31034482759,4,2,1,20,1,0
316034,1726.61870503597,4,2,1,20,1,0

[Colours]
Combo1 : 234,0,117
Combo2 : 255,172,255
Combo3 : 221,221,221
Combo4 : 223,202,255

[HitObjects]
120,112,426,5,0,0:0:0:0:
120,112,609,1,0,0:0:0:0:
120,112,792,2,0,P|168:120|212:108,1,80,2|0,0:0|0:0,0:0:0:0:
352,60,1523,2,0,P|304:52|260:64,1,80,0|2,0:0|0:0,0:0:0:0:
184,152,2255,2,0,L|208:324,1,160
288,284,3352,1,2,0:0:0:0:
364,328,3718,6,0,P|416:344|492:264,1,160
460,116,4816,1,2,0:0:0:0:
396,180,5182,2,0,L|412:268,1,80,0|2,0:0|0:0,0:0:0:0:
460,116,5913,2,0,L|474:37,1,80,0|2,0:0|0:0,0:0:0:0:
296,164,6645,6,0,P|248:172|140:112,1,160
150,125,7743,1,2,0:0:0:0:
44,308,9206,1,0,0:0:0:0:
112,252,9572,6,0,P|128:296|124:344,1,80,2|0,0:0|0:0,0:0:0:0:
32,216,10304,2,0,P|32:176|47:139,1,80,2|0,0:0|0:0,0:0:0:0:
208,272,11035,2,0,L|372:256,1,160,2|2,0:0|0:0,0:0:0:0:
400,184,11950,2,0,L|448:192,2,40,2|2|0,0:0|0:0|0:0,0:0:0:0:
352,112,12499,6,0,P|360:56|372:12,2,80,0|0|2,0:0|0:0|0:0,0:0:0:0:
224,204,13962,2,0,P|237:282|234:362,1,160,2|2,0:0|0:0,0:0:0:0:
328,324,15060,2,0,L|384:316,2,40,0|2|0,0:0|0:0|0:0,0:0:0:0:
160,344,15792,1,0,0:0:0:0:
160,344,16157,2,0,L|164:296|168:248,1,80,0|2,0:0|0:0,0:0:0:0:
248,144,16889,5,2,0:0:0:0:
352,244,17255,1,2,0:0:0:0:
264,300,17621,1,2,0:0:0:0:
392,220,17987,1,0,0:0:0:0:
264,52,18352,5,2,0:0:0:0:
264,52,19999,2,0,L|256:0,2,40,0|0|2,0:0|0:0|0:0,0:0:0:0:
336,100,20548,1,2,0:0:0:0:
336,100,20731,1,0,0:0:0:0:
336,100,20913,2,0,L|328:152,1,40,2|0,0:0|0:0,0:0:0:0:
376,220,21279,6,0,P|424:208|472:204,1,80,2|0,0:0|0:0,0:0:0:0:
324,296,22011,2,0,P|276:284|228:280,1,80,2|0,0:0|0:0,0:0:0:0:
245,280,22560,1,2,0:0:0:0:
245,280,22743,1,0,0:0:0:0:
44,344,23840,1,0,0:0:0:0:
44,344,24206,6,0,P|68:308|192:320,1,160,2|0,0:0|0:0,0:0:0:0:
175,303,25304,2,0,P|164:240|152:140,1,160,2|0,0:0|0:0,0:0:0:0:
312,72,26767,1,0,0:0:0:0:
312,72,27133,6,0,P|304:136|288:184,2,80,2|0|0,0:0|0:0|0:0,0:0:0:0:
228,188,28231,2,0,P|280:180|352:256,1,160,2|0,0:0|0:0,0:0:0:0:
220,368,29694,1,0,0:0:0:0:
220,368,30060,6,0,L|136:360,1,80,2|0,0:0|0:0,0:0:0:0:
52,352,30792,1,0,0:0:0:0:
248,276,31157,2,0,P|200:284|112:212,1,160,2|0,0:0|0:0,0:0:0:0:
344,228,32621,1,2,0:0:0:0:
344,228,32987,6,0,P|392:220|480:292,1,160,2|2,0:0|0:0,0:0:0:0:
260,168,34084,1,2,0:0:0:0:
260,168,35913,5,2,0:0:0:0:
72,116,36645,2,0,P|64:168|52:196,1,80,2|0,0:0|0:0,0:0:0:0:
145,317,37377,2,0,P|150:277|164:240,1,80,2|0,0:0|0:0,0:0:0:0:
0,272,38109,1,2,0:0:0:0:
156,144,38474,1,0,0:0:0:0:
276,196,38840,6,0,P|288:236|288:276,1,80,2|0,0:0|0:0,0:0:0:0:
152,373,39572,2,0,L|200:369|232:372,1,80,0|2,0:0|0:0,0:0:0:0:
444,132,40670,1,0,0:0:0:0:
444,132,41035,2,0,P|424:180|416:220,1,80,2|0,0:0|0:0,0:0:0:0:
242,253,41767,5,2,0:0:0:0:
242,253,42499,2,0,P|298:257|330:265,2,80,0|2|0,0:0|0:0|0:0,0:0:0:0:
120,244,43596,1,2,0:0:0:0:
80,132,43962,2,0,P|24:128|-8:120,1,80,0|2,0:0|0:0,0:0:0:0:
232,40,44694,5,2,0:0:0:0:
176,272,45426,1,2,0:0:0:0:
256,232,45792,1,0,0:0:0:0:
148,284,46157,1,2,0:0:0:0:
352,192,46523,2,0,P|344:256|344:288,1,80,0|2,0:0|0:0,0:0:0:0:
120,300,47255,2,0,P|103:285|80:272,1,40
24,164,47621,6,0,L|102:181,1,80,2|0,0:0|0:0,0:0:0:0:
286,145,48352,2,0,L|208:128,1,80,2|0,0:0|0:0,0:0:0:0:
152,24,49084,1,2,0:0:0:0:
102,181,49450,1,0,0:0:0:0:
256,136,49816,1,2,0:0:0:0:
64,68,50182,2,0,P|56:84|52:108,1,40
176,137,50548,6,0,P|184:176|180:216,2,80,2|0|2,0:0|0:0|0:0,0:0:0:0:
408,192,52011,2,0,L|492:200,2,80,2|0|2,0:0|0:0|0:0,0:0:0:0:
264,176,53109,2,0,P|256:198|240:216,1,40
140,176,53474,6,0,P|136:216|141:256,2,80,2|0|2,0:0|0:0|0:0,0:0:0:0:
372,28,54938,1,2,0:0:0:0:
352,268,55670,1,2,0:0:0:0:
208,200,56401,5,2,0:0:0:0:
384,180,57682,2,0,L|408:176,2,20,2|2|2,0:0|0:0|0:0,0:0:0:0:
244,88,58413,2,0,L|224:84,2,20
328,76,58779,2,0,P|326:101|324:120,1,40,0|4,0:0|0:0,0:0:0:0:
292,204,59328,6,0,P|276:248|276:292,1,80,4|0,0:0|0:0,0:0:0:0:
196,316,60060,2,0,P|152:300|108:300,1,80,8|0,0:0|0:0,0:0:0:0:
64,228,60792,2,0,P|56:176|44:132,2,80,0|0|8,0:0|0:0|0:0,0:0:0:0:
152,216,61889,1,0,0:0:0:0:
236,240,62255,6,0,P|260:192|240:84,1,160,0|8,0:0|0:0,0:0:0:0:
164,52,63352,1,0,0:0:0:0:
92,100,63718,2,0,L|8:88,2,80,0|0|8,0:0|0:0|0:0,0:0:0:0:
164,52,64816,1,0,0:0:0:0:
240,96,65182,6,0,P|280:96|344:76,1,80
466,131,65913,2,0,P|426:131|388:140,1,80,8|0,0:0|0:0,0:0:0:0:
332,208,66462,1,0,0:0:0:0:
332,208,66645,2,0,P|328:256|336:308,2,80,0|0|8,0:0|0:0|0:0,0:0:0:0:
256,164,67743,1,0,0:0:0:0:
180,208,68109,6,0,P|184:247|180:287,1,80
68,328,68840,2,0,P|63:288|67:248,1,80,8|0,0:0|0:0,0:0:0:0:
108,152,69572,2,0,L|100:96,1,40,0|8,0:0|0:0,0:0:0:0:
168,72,69938,2,0,L|176:128,1,40
244,140,70304,2,0,P|276:144|340:116,1,80,8|0,0:0|0:0,0:0:0:0:
352,100,70852,1,0,0:0:0:0:
352,100,71035,6,0,L|342:179,2,80,0|2|8,0:0|0:0|0:0,0:0:0:0:
396,248,72133,1,0,0:0:0:0:
396,248,72316,1,0,0:0:0:0:
396,248,72499,2,0,P|348:260|308:288,1,80
272,348,73048,1,0,0:0:0:0:
272,348,73231,2,0,P|229:322|181:314,1,80,8|0,0:0|0:0,0:0:0:0:
120,348,73779,1,0,0:0:0:0:
120,348,73962,6,0,P|108:284|72:180,1,160,0|8,0:0|0:0,0:0:0:0:
32,120,75060,1,0,0:0:0:0:
32,120,75243,1,0,0:0:0:0:
32,120,75426,2,0,P|60:100|108:96,1,80
188,120,76157,1,8,0:0:0:0:
256,64,76523,1,0,0:0:0:0:
324,120,76889,5,0,0:0:0:0:
324,120,77255,1,0,0:0:0:0:
407,95,77621,2,0,P|447:98|480:120,1,80,8|0,0:0|0:0,0:0:0:0:
416,180,78352,2,0,P|404:232|400:268,1,80
328,308,79084,2,0,P|322:268|312:229,1,80,8|0,0:0|0:0,0:0:0:0:
236,188,79816,6,0,P|192:204|88:136,2,160,0|8|0,0:0|0:0|0:0,0:0:0:0:
300,128,81645,1,0,0:0:0:0:
276,44,82011,1,8,0:0:0:0:
188,36,82377,1,0,0:0:0:0:
188,36,82560,1,0,0:0:0:0:
188,36,82743,1,4,0:0:0:0:
384,84,84206,5,8,0:0:0:0:
384,84,84572,1,8,0:0:0:0:
384,84,84938,2,0,L|372:140,2,40,8|8|0,0:0|0:0|0:0,0:0:0:0:
256,120,85670,6,0,P|268:172|272:208,1,88.000002685547,4|0,0:0|0:0,0:0:0:0:
188,296,86218,1,0,0:0:0:0:
188,296,86401,2,0,P|252:300|292:312,1,88.000002685547,8|0,0:0|0:0,0:0:0:0:
400,256,87133,2,0,L|444:248,2,44.0000013427735,0|8|0,0:0|0:0|0:0,0:0:0:0:
224,380,87865,1,8,0:0:0:0:
188,184,88231,1,0,0:0:0:0:
376,256,88596,6,0,P|380:308|376:344,1,88.000002685547
128,272,89328,1,8,0:0:0:0:
292,300,89694,1,0,0:0:0:0:
376,256,89877,1,0,0:0:0:0:
376,256,90060,2,0,L|424:264,1,44.0000013427735,0|8,0:0|0:0,0:0:0:0:
512,200,90426,2,0,L|468:192,1,44.0000013427735
464,104,90792,2,0,L|368:88,1,88.000002685547,8|0,0:0|0:0,0:0:0:0:
272,16,91340,1,0,0:0:0:0:
272,16,91523,6,0,P|284:64|280:112,1,88.000002685547,4|0,0:0|0:0,0:0:0:0:
228,196,92072,1,0,0:0:0:0:
228,196,92255,2,0,L|316:208,1,88.000002685547,8|0,0:0|0:0,0:0:0:0:
156,292,92987,2,0,L|108:284,1,44.0000013427735,0|8,0:0|0:0,0:0:0:0:
28,212,93352,1,0,0:0:0:0:
28,212,93535,2,0,P|32:240|32:264,1,44.0000013427735,0|8,0:0|0:0,0:0:0:0:
132,56,94084,2,0,L|147:97,1,44.0000013427735
256,56,94450,5,0,0:0:0:0:
400,160,94816,1,0,0:0:0:0:
188,220,95182,1,8,0:0:0:0:
280,152,95548,2,0,P|289:173|296:196,1,44.0000013427735
404,208,95913,2,0,P|400:228|388:249,1,44.0000013427735,0|8,0:0|0:0,0:0:0:0:
316,352,96279,2,0,P|306:331|300:308,1,44.0000013427735
176,288,96645,1,8,0:0:0:0:
248,200,96828,1,0,0:0:0:0:
324,248,97011,1,8,0:0:0:0:
240,376,97194,1,8,0:0:0:0:
160,204,97377,6,0,B|124:208|104:240|104:240|79:193|72:132,1,176.000005371094,4|8,0:0|0:0,0:0:0:0:
184,52,98474,2,0,P|180:72|180:96,1,44.0000013427735
272,156,98840,2,0,P|279:136|283:113,2,44.0000013427735,0|8|0,0:0|0:0|0:0,0:0:0:0:
192,312,99572,1,8,0:0:0:0:
360,260,99938,2,0,L|404:244,1,44.0000013427735
280,224,100304,6,0,P|276:268|280:312,1,88.000002685547
368,172,100852,1,0,0:0:0:0:
368,172,101035,2,0,P|371:153|368:128,1,44.0000013427735,8|0,0:0|0:0,0:0:0:0:
248,72,101401,2,0,P|240:89|236:114,1,44.0000013427735
280,224,101767,1,0,0:0:0:0:
368,172,101950,1,8,0:0:0:0:
236,113,102133,1,0,0:0:0:0:
168,248,102316,1,0,0:0:0:0:
320,376,102499,2,0,P|322:350|320:328,1,44.0000013427735,8|0,0:0|0:0,0:0:0:0:
436,288,102865,2,0,P|427:263|415:244,1,44.0000013427735
312,120,103231,6,0,P|304:176|308:216,1,88.000002685547,4|0,0:0|0:0,0:0:0:0:
164,308,103779,1,0,0:0:0:0:
164,308,103962,2,0,P|186:255|192:216,1,88.000002685547,8|0,0:0|0:0,0:0:0:0:
8,216,104694,2,0,L|56:224,2,44.0000013427735,0|8|0,0:0|0:0|0:0,0:0:0:0:
168,100,105426,2,0,L|124:92,2,44.0000013427735,4|8|0,0:0|0:0|0:0,0:0:0:0:
320,20,106157,5,4,0:0:0:0:
320,20,106523,2,0,L|328:72,1,44.0000013427735
432,204,106889,2,0,P|420:156|420:108,1,88.000002685547,8|0,0:0|0:0,0:0:0:0:
280,176,107621,2,0,L|332:168,2,44.0000013427735,0|8|0,0:0|0:0|0:0,0:0:0:0:
108,212,108352,1,8,0:0:0:0:
188,316,108718,1,0,0:0:0:0:
336,288,109084,5,4,0:0:0:0:
252,92,109450,1,0,0:0:0:0:
196,192,109816,1,8,0:0:0:0:
352,216,110182,1,8,0:0:0:0:
432,72,110548,6,0,L|388:96,1,44.0000013427735,12|0,0:0|0:0,0:0:0:0:
288,48,110913,2,0,P|282:72|280:100,1,44.0000013427735,8|8,0:0|0:0,0:0:0:0:
208,176,111279,5,4,0:3:0:0:
208,176,111462,1,4,0:3:0:0:
296,268,111645,1,4,0:3:0:0:
296,268,111828,1,4,0:3:0:0:
408,236,112011,5,4,0:0:0:0:
100,116,120792,5,2,0:0:0:0:
188,152,121157,1,2,0:0:0:0:
256,84,121523,1,2,0:0:0:0:
324,152,121889,1,2,0:0:0:0:
412,116,122255,6,0,P|406:162|404:216,1,80,0|8,0:0|0:3,0:0:0:0:
428,272,122804,2,0,L|464:268,2,20,0|0|8,0:0|0:0|0:0,0:0:0:0:
356,320,123170,2,0,P|337:315|317:313,1,40,8|4,0:0|0:3,0:0:0:0:
64,160,123718,6,0,L|148:188,1,80,4|0,0:0|0:0,0:0:0:0:
256,152,124450,1,8,0:0:0:0:
256,152,124816,2,0,P|248:172|244:192,1,40
344,272,125182,2,0,P|349:216|342:189,1,80
180,224,125913,1,8,0:0:0:0:
220,384,126279,1,0,0:0:0:0:
395,300,126645,6,0,L|316:308,1,80
156,320,127377,1,8,0:0:0:0:
52,212,127743,2,0,L|92:216,1,40
160,152,128109,2,0,P|172:172|184:184,2,40,0|8|0,0:0|0:0|0:0,0:0:0:0:
248,20,128840,2,0,P|261:57|265:97,1,80,8|0,0:0|0:0,0:0:0:0:
104,88,129572,5,0,0:0:0:0:
268,176,129938,1,0,0:0:0:0:
376,88,130304,1,8,0:0:0:0:
376,88,130670,2,0,L|415:81,1,40
306,165,131035,2,0,L|262:177,2,40,0|8|0,0:0|0:0|0:0,0:0:0:0:
428,216,131767,2,0,P|420:272|424:312,1,80,8|0,0:0|0:0,0:0:0:0:
304,384,132499,6,0,P|312:328|308:288,1,80
296,184,133231,1,8,0:0:0:0:
184,228,133596,1,0,0:0:0:0:
272,308,133962,2,0,L|356:312,1,80
472,296,134694,1,8,0:0:0:0:
404,156,135060,2,0,P|418:170|436:180,1,40
332,208,135426,6,0,L|252:204,1,80,4|0,0:0|0:0,0:0:0:0:
152,136,136157,1,8,0:0:0:0:
152,136,136523,2,0,P|140:152|132:176,1,40
221,275,136889,2,0,P|229:235|228:196,2,80,0|0|8,0:0|0:0|0:0,0:0:0:0:
56,240,137987,2,0,P|44:224|36:205,1,40
52,108,138352,5,0,0:0:0:0:
164,164,138718,2,0,L|200:180,2,40,0|0|8,0:0|0:0|0:0,0:0:0:0:
340,136,139450,2,0,L|304:120,2,40
424,216,139999,1,8,0:0:0:0:
384,316,140182,1,0,0:0:0:0:
276,336,140365,1,0,0:0:0:0:
280,228,140548,1,8,0:0:0:0:
472,304,140913,2,0,P|472:324|468:348,1,40
384,316,141279,6,0,P|388:264|396:224,1,80
432,124,142011,1,8,0:0:0:0:
432,124,142377,2,0,L|384:144,1,40
240,187,142743,2,0,P|280:189|320:196,1,80
128,256,143474,2,0,P|103:248|88:240,2,40,8|0|0,0:0|0:0|0:0,0:0:0:0:
248,276,144206,5,0,0:0:0:0:
208,164,144572,1,2,0:0:0:0:
128,256,144938,1,14,0:0:0:0:
200,352,145304,1,2,0:0:0:0:
328,224,145670,1,2,0:0:0:0:
184,228,146035,1,2,0:0:0:0:
340,272,146401,1,14,0:0:0:0:
292,76,146767,1,2,0:0:0:0:
96,128,147133,6,0,P|88:176|92:208,1,80,4|8,0:0|0:0,0:0:0:0:
272,300,147865,1,12,0:3:0:0:
256,100,148231,1,4,0:0:0:0:
164,216,148779,5,0,0:0:0:0:
164,216,148962,1,8,0:0:0:0:
84,228,149145,2,0,L|52:232,2,23.9999992675781,0|8|8,0:0|0:0|0:0,0:0:0:0:
272,300,149694,2,0,P|220:284|180:280,1,71.9999978027344,4|0,0:3|0:0,0:0:0:0:
144,336,150060,6,0,P|184:332|236:312,1,95.9999970703126,4|0,0:0|0:0,0:0:0:0:
336,344,150609,1,0,0:0:0:0:
336,344,150792,2,0,P|352:288|356:232,1,95.9999970703126,8|0,0:0|0:0,0:0:0:0:
296,108,151523,2,0,L|304:164,1,47.9999985351563,0|8,0:0|0:0,0:0:0:0:
216,56,151889,2,0,L|160:64,1,47.9999985351563
300,12,152255,1,8,0:0:0:0:
208,152,152621,1,0,0:0:0:0:
60,88,152987,6,0,P|40:140|44:192,1,95.9999970703126
208,276,153718,2,0,P|172:232|125:210,1,95.9999970703126,8|0,0:0|0:0,0:0:0:0:
300,160,154450,2,0,L|368:148,1,47.9999985351563,0|8,0:0|0:0,0:0:0:0:
468,196,154816,2,0,L|400:208,1,47.9999985351563
360,328,155182,2,0,B|340:284|340:284|344:224,1,95.9999970703126,8|0,0:0|0:0,0:0:0:0:
416,24,155913,6,0,B|436:68|436:68|432:128,1,95.9999970703126,4|0,0:0|0:0,0:0:0:0:
340,188,156462,1,0,0:0:0:0:
340,188,156645,2,0,L|244:176,1,95.9999970703126,8|0,0:0|0:0,0:0:0:0:
84,132,157377,1,0,0:0:0:0:
84,132,157560,1,8,0:0:0:0:
172,120,157743,2,0,L|184:52,1,47.9999985351563
104,212,158109,2,0,L|112:259,1,47.9999985351563,8|0,0:0|0:0,0:0:0:0:
132,336,158474,1,0,0:0:0:0:
132,336,158657,1,0,0:0:0:0:
196,276,158840,6,0,P|248:268|304:292,2,95.9999970703126,0|0|12,0:0|0:0|0:0,0:0:0:0:
408,176,159938,1,0,0:0:0:0:
408,176,160121,1,0,0:0:0:0:
408,176,160304,2,0,L|328:184,1,47.9999985351563,0|8,0:0|0:0,0:0:0:0:
260,88,160670,2,0,L|355:100,1,95.9999970703126,4|8,0:0|0:0,0:0:0:0:
100,172,161401,1,8,0:0:0:0:
80,76,161584,1,8,0:0:0:0:
167,108,161767,6,0,P|96:168|0:124,1,191.999994140625,4|12,0:0|0:0,0:0:0:0:
104,328,162865,1,0,0:0:0:0:
276,360,163231,1,0,0:0:0:0:
276,360,163413,1,8,0:0:0:0:
276,360,163596,2,0,P|263:304|258:257,1,95.9999970703126,0|8,0:0|0:0,0:0:0:0:
391,90,164328,2,0,P|350:129|310:156,1,95.9999970703126
100,125,165060,5,0,0:0:0:0:
100,125,165243,1,0,0:0:0:0:
100,125,165426,2,0,P|154:141|198:162,1,95.9999970703126,8|0,0:0|0:0,0:0:0:0:
392,224,166157,2,0,L|336:236,1,47.9999985351563,0|8,0:0|0:0,0:0:0:0:
264,256,166523,1,0,0:0:0:0:
264,256,166706,1,0,0:0:0:0:
288,176,166889,2,0,P|288:128|252:72,1,95.9999970703126,8|0,0:0|0:0,0:0:0:0:
176,228,167621,6,0,P|176:276|212:332,1,95.9999970703126,4|0,0:0|0:0,0:0:0:0:
336,384,168352,2,0,P|357:341|357:294,1,95.9999970703126,8|0,0:0|0:0,0:0:0:0:
288,176,169084,2,0,L|300:120,2,47.9999985351563,0|8|0,0:0|0:0|0:0,0:0:0:0:
216,212,169633,1,0,0:0:0:0:
152,160,169816,2,0,L|32:144,1,95.9999970703126,8|0,0:0|0:0,0:0:0:0:
208,64,170548,1,4,0:0:0:0:
396,136,170913,5,0,0:0:0:0:
476,76,171096,1,0,0:0:0:0:
404,60,171279,5,0,0:0:0:0:
468,152,171462,1,0,0:0:0:0:
320,116,171645,2,0,P|296:176|312:248,1,95.9999970703126,12|0,0:0|0:0,0:0:0:0:
340,292,172194,1,8,0:0:0:0:
388,208,172377,1,0,0:0:0:0:
248,288,172560,1,4,0:3:0:0:
440,296,172743,5,4,0:3:0:0:
284,372,173109,1,4,0:3:0:0:
136,268,173474,5,4,0:0:0:0:
136,268,173840,1,0,0:0:0:0:
136,268,174206,1,0,0:0:0:0:
296,188,174572,1,0,0:0:0:0:
296,188,174938,2,0,L|288:228,2,40,0|2|0,0:0|0:0|0:0,0:0:0:0:
156,96,175670,1,0,0:0:0:0:
8,220,176035,2,0,L|47:212,1,40,0|2,0:0|0:0,0:0:0:0:
196,188,176401,5,0,0:0:0:0:
196,188,176767,1,0,0:0:0:0:
196,188,177133,1,0,0:0:0:0:
312,52,177499,1,2,0:0:0:0:
420,196,177865,2,0,P|416:244|408:276,1,80,2|2,0:0|0:0,0:0:0:0:
260,232,178596,2,0,L|300:220,2,40,2|0|2,0:0|0:0|0:0,0:0:0:0:
100,268,179328,5,0,0:0:0:0:
208,212,179694,2,0,P|268:198|352:244,1,160,2|0,0:0|0:0,0:0:0:0:
176,336,180974,2,0,L|136:360,2,40,0|2|2,0:0|0:0|0:0,0:0:0:0:
272,336,181523,1,2,0:0:0:0:
272,336,181706,1,0,0:0:0:0:
272,336,181889,2,0,L|268:288,1,40,2|0,0:0|0:0,0:0:0:0:
324,208,182255,6,0,P|348:240|368:280,1,80,2|0,0:0|0:0,0:0:0:0:
212,212,182987,2,0,P|220:164|244:124,1,80,2|0,0:0|0:0,0:0:0:0:
48,208,183718,1,2,0:0:0:0:
320,36,184450,1,0,0:0:0:0:
320,36,184633,2,0,L|328:80,2,40,2|0|2,0:0|0:0|0:0,0:0:0:0:
154,129,185182,6,0,P|210:133|238:137,1,80
412,228,185915,1,2,0:0:0:0:
400,28,186649,1,2,0:0:0:0:
304,192,187383,1,0,0:0:0:0:
304,192,187750,6,0,L|256:216,2,40,2|2|0,0:0|0:0|0:0,0:0:0:0:
468,144,188484,2,0,P|464:192|464:228,1,80,0|2,0:0|0:0,0:0:0:0:
368,300,189218,2,0,L|384:336,2,40,2|2|0,0:0|0:0|0:0,0:0:0:0:
244,208,189952,5,2,0:0:0:0:
112,292,190323,1,2,0:0:0:0:
272,208,190695,1,2,0:0:0:0:
144,80,191066,6,0,P|116:160|148:208,1,136.000002593994,2|0,0:0|0:0,0:0:0:0:
256,268,192177,1,0,0:0:0:0:
337,356,192547,2,0,P|372:300|372:240,1,120.000004577637,2|0,0:0|0:0,0:0:0:0:
264,52,193859,1,2,0:0:0:0:
264,52,194047,6,0,P|244:136|248:180,1,120,2|0,0:0|0:0,0:0:0:0:
300,228,196696,1,0,0:0:0:0:
300,228,197075,6,0,P|352:216|384:212,1,80,2|0,0:0|0:0,0:0:0:0:
324,328,197815,2,0,P|284:322|245:312,1,80,2|2,0:0|0:0,0:0:0:0:
172,280,198371,1,0,0:0:0:0:
172,280,198556,2,0,P|180:344|184:396,1,80
76,228,199297,2,0,P|68:292|64:344,1,80,2|0,0:0|0:0,0:0:0:0:
100,192,199852,1,0,0:0:0:0:
100,192,200037,6,0,P|60:176|16:184,1,80,2|0,0:0|0:0,0:0:0:0:
180,144,200778,2,0,P|220:160|264:152,1,80,0|2,0:0|0:0,0:0:0:0:
328,220,201519,2,0,P|352:164|344:112,2,80,0|2|0,0:0|0:0|0:0,0:0:0:0:
236,252,202630,1,0,0:0:0:0:
308,312,203000,6,0,L|476:300,1,160,2|0,0:0|0:0,0:0:0:0:
204,72,204482,2,0,L|36:84,1,160,2|0,0:0|0:0,0:0:0:0:
96,164,205593,5,0,0:0:0:0:
96,164,205778,1,2,0:0:0:0:
96,164,205963,2,0,L|175:158,1,80,0|2,0:0|0:0,0:0:0:0:
416,220,207075,5,2,0:0:0:0:
416,220,207445,2,0,L|336:225,1,80,2|0,0:0|0:0,0:0:0:0:
288,228,208000,1,0,0:0:0:0:
240,232,208186,2,0,P|236:288|256:328,1,80,2|0,0:0|0:0,0:0:0:0:
312,152,208936,6,0,P|316:96|296:56,1,80,2|0,0:0|0:0,0:0:0:0:
152,128,209676,2,0,L|231:122,1,80,2|0,0:0|0:0,0:0:0:0:
68,96,210417,2,0,P|64:152|84:192,1,80,2|0,0:0|0:0,0:0:0:0:
152,224,211158,1,2,0:0:0:0:
104,308,211528,1,0,0:0:0:0:
104,308,211713,1,0,0:0:0:0:
104,308,211898,6,0,P|152:296|228:368,1,160,2|2,0:0|0:0,0:0:0:0:
296,296,213010,1,2,0:0:0:0:
376,352,213380,2,0,P|420:308|416:184,1,160,2|0,0:0|0:0,0:0:0:0:
296,48,214495,5,0,0:0:0:0:
300,68,214678,1,0,0:0:0:0:
304,88,214861,1,2,0:0:0:0:
308,108,215043,1,0,0:0:0:0:
312,128,215226,1,0,0:0:0:0:
256,216,215592,1,0,0:0:0:0:
156,188,215958,5,0,0:0:0:0:
148,156,216141,1,0,0:0:0:0:
152,124,216324,1,2,0:0:0:0:
164,96,216507,1,0,0:0:0:0:
188,72,216690,1,0,0:0:0:0:
416,240,217604,5,0,0:0:0:0:
388,272,217787,1,2,0:0:0:0:
352,292,217970,1,0,0:0:0:0:
312,296,218153,1,2,0:0:0:0:
320,156,219883,5,0,0:0:0:0:
320,156,220065,2,0,L|364:168,1,40,2|0,0:0|0:0,0:0:0:0:
456,232,220430,2,0,L|416:236,1,40
296,272,220794,6,0,P|316:324|320:352,1,80,2|2,0:0|0:0,0:0:0:0:
220,336,221342,1,0,0:0:0:0:
104,52,221891,1,2,0:0:0:0:
80,224,222257,2,0,P|116:256|152:272,1,80,2|0,0:0|0:0,0:0:0:0:
248,152,222989,2,0,P|211:158|168:176,1,80,2|0,0:0|0:0,0:0:0:0:
340,208,223720,6,0,P|349:169|353:126,2,80,2|0|2,0:0|0:0|0:0,0:0:0:0:
240,332,224818,1,0,0:0:0:0:
240,332,225001,2,0,P|296:328|328:328,1,80,2|2,0:0|0:0,0:0:0:0:
400,332,225550,1,2,0:0:0:0:
464,188,225915,1,0,0:0:0:0:
264,128,226281,1,2,0:0:0:0:
424,256,226647,5,2,0:0:0:0:
108,312,227383,1,0,0:0:0:0:
184,172,227751,1,2,0:0:0:0:
316,296,228119,2,0,L|228:288,1,80,2|0,0:0|0:0,0:0:0:0:
96,212,228866,1,2,0:0:0:0:
296,192,229236,1,2,0:0:0:0:
176,28,229606,5,2,0:0:0:0:
204,280,230320,2,0,P|212:320|228:360,1,80,0|2,0:0|0:0,0:0:0:0:
344,348,231084,1,2,0:0:0:0:
344,348,231454,1,0,0:0:0:0:
160,288,231825,1,2,0:0:0:0:
308,224,232195,2,0,L|352:220,1,40,2|2,0:0|0:0,0:0:0:0:
456,144,232565,6,0,P|444:196|444:224,2,80,0|0|2,0:0|0:0|0:0,0:0:0:0:
152,268,234037,1,2,0:0:0:0:
220,36,234773,1,2,0:0:0:0:
364,176,235509,6,0,L|448:192,2,80,2|0|2,0:0|0:0|0:0,0:0:0:0:
208,208,236798,1,2,0:0:0:0:
208,208,236982,2,0,P|216:168|216:120,1,80,2|0,0:0|0:0,0:0:0:0:
32,160,238270,5,0,0:0:0:0:
32,160,238454,2,0,L|40:112,2,40,2|0|0,0:0|0:0|0:0,0:0:0:0:
100,224,239009,2,0,P|104:268|120:304,1,80,2|2,0:0|0:0,0:0:0:0:
232,340,239750,2,0,P|235:295|226:257,1,80,2|2,0:0|0:0,0:0:0:0:
192,152,240305,2,0,L|276:176,1,80,2|0,0:0|0:0,0:0:0:0:
408,256,241046,2,0,L|412:208,1,40,2|2,0:0|0:0,0:0:0:0:
384,96,241411,5,0,0:0:0:0:
240,232,241776,1,0,0:0:0:0:
380,344,242142,2,0,P|424:344|464:328,1,80,2|0,0:0|0:0,0:0:0:0:
416,176,242874,1,2,0:0:0:0:
344,252,243240,1,0,0:0:0:0:
344,252,243423,1,8,0:3:0:0:
344,252,243606,2,0,L|432:232,1,80,12|0,0:3|0:0,0:0:0:0:
224,204,244337,6,0,P|216:256|220:284,2,80,4|0|0,0:0|0:0|0:0,0:0:0:0:
328,80,245435,2,0,L|356:116,1,40
432,240,245801,2,0,P|440:188|436:152,1,80,0|4,0:0|0:0,0:0:0:0:
300,192,246532,1,0,0:0:0:0:
300,192,246715,1,8,0:0:0:0:
300,192,246898,2,0,L|352:192,1,40
432,240,247264,5,4,0:0:0:0:
336,288,247630,1,0,0:0:0:0:
252,200,247996,1,0,0:0:0:0:
336,80,248362,1,0,0:0:0:0:
368,196,248728,5,8,0:0:0:0:
256,312,249093,1,8,0:0:0:0:
120,196,249459,1,8,0:0:0:0:
224,24,249825,1,8,0:0:0:0:
288,172,250191,1,4,0:0:0:0:
84,244,251654,6,0,L|192:236,1,80,2|0,0:0|0:0,0:0:0:0:
36,104,252386,2,0,L|115:109,1,80,2|2,0:0|0:0,0:0:0:0:
196,116,252935,1,2,0:0:0:0:
260,172,253118,2,0,P|280:128|236:44,1,140,2|0,0:0|0:0,0:0:0:0:
200,32,253850,6,0,L|144:48,1,40,12|0,0:0|0:0,0:0:0:0:
64,156,254215,2,0,L|121:139,1,60
160,128,254581,6,0,P|144:184|140:236,1,95.9999970703126,4|0,0:0|0:0,0:0:0:0:
180,300,255130,1,0,0:0:0:0:
180,300,255313,2,0,P|224:292|292:288,1,95.9999970703126,8|0,0:0|0:0,0:0:0:0:
408,152,256045,2,0,L|460:160,1,47.9999985351563,0|8,0:0|0:0,0:0:0:0:
444,72,256411,1,0,0:0:0:0:
444,72,256593,1,0,0:0:0:0:
420,240,256776,2,0,L|325:225,1,95.9999970703126,8|0,0:0|0:0,0:0:0:0:
240,212,257325,1,0,0:0:0:0:
156,236,257508,6,0,P|156:176|184:144,1,95.9999970703126,4|0,0:0|0:0,0:0:0:0:
260,128,258057,1,0,0:0:0:0:
260,128,258240,2,0,P|304:112|352:84,1,95.9999970703126,8|0,0:0|0:0,0:0:0:0:
488,196,258971,1,0,0:0:0:0:
488,196,259154,1,8,0:0:0:0:
404,184,259337,2,0,L|396:252,1,47.9999985351563
448,300,259703,2,0,P|402:316|361:340,1,95.9999970703126,8|0,0:0|0:0,0:0:0:0:
280,312,260252,1,0,0:0:0:0:
204,356,260435,6,0,P|160:360|104:336,1,95.9999970703126,4|0,0:0|0:0,0:0:0:0:
240,116,261167,2,0,P|284:112|340:136,1,95.9999970703126,8|0,0:0|0:0,0:0:0:0:
364,200,261715,2,0,P|376:152|436:96,1,111.999996582031,4|0,0:0|0:0,0:0:0:0:
440,264,262264,2,0,P|392:280|296:284,1,128,8|0,0:0|0:0,0:0:0:0:
192,192,262813,5,8,0:0:0:0:
192,192,262904,1,8,0:0:0:0:
192,192,262996,1,8,0:0:0:0:
192,192,263087,1,8,0:0:0:0:
192,192,263179,1,8,0:0:0:0:
192,192,263270,1,8,0:0:0:0:
192,192,263362,6,0,L|296:208,1,95.9999970703126,4|0,0:0|0:0,0:0:0:0:
372,220,263911,1,0,0:0:0:0:
372,220,264093,2,0,P|392:168|384:116,1,95.9999970703126,8|0,0:0|0:0,0:0:0:0:
328,68,264642,2,0,L|324:24,2,23.9999992675781
252,112,265008,1,8,0:0:0:0:
180,68,265191,2,0,L|104:76,1,47.9999985351563
44,80,265557,2,0,B|36:128|36:128|60:172,1,95.9999970703126,8|0,0:0|0:0,0:0:0:0:
204,264,266289,6,0,B|212:216|212:216|188:172,1,95.9999970703126
124,232,266837,1,0,0:0:0:0:
136,316,267020,2,0,P|192:300|248:320,1,95.9999970703126,8|0,0:0|0:0,0:0:0:0:
300,360,267569,1,0,0:0:0:0:
388,352,267752,2,0,L|452:344,1,47.9999985351563,0|8,0:0|0:0,0:0:0:0:
504,248,268118,2,0,L|440:256,1,47.9999985351563
364,224,268484,2,0,P|352:184|384:116,1,95.9999970703126,8|0,0:0|0:0,0:0:0:0:
472,32,269215,5,4,0:0:0:0:
472,32,269398,1,0,0:0:0:0:
472,32,269581,2,0,L|460:104,1,47.9999985351563
384,40,269947,2,0,P|328:32|264:28,1,95.9999970703126,8|0,0:0|0:0,0:0:0:0:
108,112,270679,1,0,0:0:0:0:
108,112,270862,1,8,0:0:0:0:
108,112,271045,2,0,L|160:104,1,47.9999985351563
244,140,271411,5,4,0:0:0:0:
244,140,271593,1,8,0:0:0:0:
208,228,271776,1,0,0:0:0:0:
208,228,271959,1,0,0:0:0:0:
288,280,272142,6,0,L|280:332,1,47.9999985351563,0|8,0:0|0:0,0:0:0:0:
376,320,272508,2,0,P|424:304|476:308,1,95.9999970703126,0|8,0:0|0:0,0:0:0:0:
436,216,273057,1,8,0:0:0:0:
476,128,273240,1,0,0:0:0:0:
420,48,273423,1,8,0:0:0:0:
324,56,273606,6,0,P|298:62|264:68,1,47.9999985351563,0|8,0:0|0:0,0:0:0:0:
156,144,273971,2,0,P|181:150|216:156,1,47.9999985351563,0|8,0:0|0:0,0:0:0:0:
348,204,274337,1,8,0:0:0:0:
256,232,274520,1,8,0:0:0:0:
328,296,274703,2,0,B|344:340|344:340|320:392,1,95.9999970703126,4|4,0:3|0:0,0:0:0:0:
160,260,275435,2,0,L|112:272,2,47.9999985351563,0|0|8,0:0|0:0|0:0,0:0:0:0:
280,140,276167,5,0,0:0:0:0:
280,140,276350,2,0,P|292:84|264:-8,1,143.999995605469,4|8,0:0|0:0,0:0:0:0:
72,148,277264,2,0,L|84:216,1,47.9999985351563,8|0,0:0|0:0,0:0:0:0:
96,280,277630,1,4,0:3:0:0:
256,344,277996,6,0,P|264:288|288:216,1,95.9999970703126,4|0,0:0|0:0,0:0:0:0:
352,208,278545,2,0,L|348:164,2,23.9999992675781
408,272,278911,5,0,0:0:0:0:
436,192,279093,1,0,0:0:0:0:
464,336,279276,1,4,0:0:0:0:
160,176,279825,6,0,P|161:119|195:64,1,95.9999970703126,8|8,0:0|0:3,0:0:0:0:
352,208,280557,1,8,0:3:0:0:
352,208,280923,2,0,P|350:264|316:319,1,95.9999970703126,4|0,0:0|0:0,0:0:0:0:
88,244,281654,2,0,P|69:200|69:152,1,95.9999970703126,0|8,0:0|0:0,0:0:0:0:
200,36,282386,5,8,0:0:0:0:
412,136,282752,1,12,0:0:0:0:
312,348,283118,1,8,0:0:0:0:
100,248,283484,1,8,0:0:0:0:
256,192,283850,5,4,0:0:0:0:
256,192,284581,1,8,0:0:0:0:
140,248,284947,2,0,L|144:316,1,40
216,320,285313,2,0,L|218:280,1,40,0|8,0:0|0:0,0:0:0:0:
272,220,285679,1,0,0:0:0:0:
272,220,285862,1,0,0:0:0:0:
336,268,286045,2,0,P|384:260|420:248,1,80,8|0,0:0|0:0,0:0:0:0:
292,120,286776,6,0,P|244:128|208:140,1,80
152,192,287325,1,0,0:0:0:0:
152,192,287508,2,0,P|136:136|120:88,1,80,8|0,0:0|0:0,0:0:0:0:
40,248,288240,2,0,L|32:292,1,40,0|8,0:0|0:0,0:0:0:0:
76,356,288606,1,0,0:0:0:0:
76,356,288789,1,0,0:0:0:0:
148,324,288971,2,0,P|192:328|232:360,1,80,8|0,0:0|0:0,0:0:0:0:
380,352,289703,6,0,P|404:308|392:192,1,160,4|8,0:0|0:0,0:0:0:0:
256,128,290801,2,0,P|216:140|156:148,1,80
100,124,291350,1,8,0:0:0:0:
40,176,291532,2,0,L|-20:168,1,40
92,236,291898,2,0,L|171:225,1,80,8|0,0:0|0:0,0:0:0:0:
248,244,292447,1,0,0:0:0:0:
308,192,292630,6,0,P|324:228|320:272,1,80
188,356,293362,2,0,L|96:348,1,80,8|0,0:0|0:0,0:0:0:0:
380,312,294093,5,0,0:0:0:0:
452,276,294276,1,8,0:0:0:0:
448,356,294459,1,0,0:0:0:0:
380,312,294642,1,0,0:0:0:0:
388,232,294825,1,8,0:0:0:0:
156,80,295191,1,8,0:0:0:0:
164,160,295374,1,8,0:0:0:0:
172,240,295557,6,0,P|212:220|312:280,1,160,4|8,0:0|0:0,0:0:0:0:
484,52,297020,2,0,P|412:76|312:104,1,160,0|8,0:0|0:0,0:0:0:0:
204,76,298118,1,0,0:0:0:0:
108,164,298484,6,0,P|69:150|20:148,1,80
88,248,299032,1,0,0:0:0:0:
88,248,299215,2,0,P|127:244|165:231,1,80,8|0,0:0|0:0,0:0:0:0:
304,192,299947,2,0,L|312:132,2,40,0|8|0,0:0|0:0|0:0,0:0:0:0:
432,260,300679,2,0,P|448:212|444:164,1,80,8|0,0:0|0:0,0:0:0:0:
322,43,301411,6,0,P|288:114|304:192,1,160,4|8,0:0|0:0,0:0:0:0:
356,308,302508,1,0,0:0:0:0:
240,360,302874,2,0,L|172:352,1,40,0|8,0:0|0:0,0:0:0:0:
132,316,303240,2,0,P|88:324|44:328,2,80,0|8|0,0:0|0:0|0:0,0:0:0:0:
244,200,304337,6,0,P|256:152|180:72,1,160,4|8,0:0|0:0,0:0:0:0:
48,144,305435,1,0,0:0:0:0:
120,284,305801,2,0,L|112:344,2,40,0|8|0,0:0|0:0|0:0,0:0:0:0:
228,120,306532,1,8,0:0:0:0:
244,200,306715,1,8,0:0:0:0:
300,256,306898,2,0,P|336:224|400:208,1,80
144,112,309076,5,0,0:0:0:0:
164,216,309437,1,2,0:0:0:0:
60,236,309789,1,2,0:0:0:0:
40,132,310173,1,2,0:0:0:0:
272,144,312381,6,0,L|440:160,1,160,0|2,0:0|0:0,0:0:0:0:
216,304,314655,6,0,L|48:288,1,160,2|2,0:0|0:0,0:0:0:0:
256,192,317760,5,2,0:0:0:0:
256,192,317904,12,0,324667,0:0:0:0:
