osu file format v12

[General]
AudioFilename: 1 - iv-Undetermined.mp3
AudioLeadIn: 1400
PreviewTime: 152599
Countdown: 0
SampleSet: Normal
StackLeniency: 0.7
Mode: 0
LetterboxInBreaks: 0
EpilepsyWarning: 1

[Editor]
DistanceSpacing: 1.3
BeatDivisor: 4
GridSize: 4

[Metadata]
Title:Togameru Kage
TitleUnicode:咎める翳
Artist:momori
ArtistUnicode:momori
Creator:cRyo[iceeicee]
Version:Insane
Source:
Tags:yuiko yuikonnu meis clauson the root of heads dastinia m3-28 OnosakiHito
BeatmapID:231988
BeatmapSetID:55926

[Difficulty]
HPDrainRate:7
CircleSize:4
OverallDifficulty:7
ApproachRate:9
SliderMultiplier:1.9
SliderTickRate:1

[Events]
//Background and Video events
0,0,"bg.jpg",0,0
//Break Periods
2,82804,88004
//Storyboard Layer 0 (Background)
Sprite,Background,TopLeft,"bg.jpg",0,0
//Storyboard Layer 1 (Fail)
//Storyboard Layer 2 (Pass)
//Storyboard Layer 3 (Foreground)
Sprite,Foreground,Centre,"sb\1.png",320,240 M,0,-1400,16599,320,240
Sprite,Foreground,Centre,"sb\2.png",320,240 M,0,31933,48599,320,240 F,0,46599,47599,1,0
Sprite,Foreground,Centre,"sb\3.png",320,240 M,0,16599,32599,320,240 F,0,31933,32599,1,0
Sprite,Foreground,Centre,"sb\4.png",320,240 F,0,48599,49599,1,0.5 F,0,50599,51599,1,0.5 F,0,52599,53599,1,0.5 F,0,54599,55599,1,0.5 F,0,56599,57599,1,0.5 F,0,58599,59599,1,0.5 F,0,60599,61599,1,0.5 F,0,62599,63599,1,0.5 F,0,63599,64266,1,0
Sprite,Foreground,Centre,"sb\5.png",320,240 F,0,64266,64599,0,1 F,0,64599,65599,1,0.5 F,0,66599,67599,1,0.5 F,0,68599,69599,1,0.5 F,0,70599,71599,1,0.5 F,0,72599,73599,1,0.5 F,0,74599,75599,1,0.5 F,0,76599,77599,1,0.5 F,0,78599,80599,1,0
Sprite,Foreground,Centre,"sb\1.png",320,240 M,0,82599,88599,320,240
Sprite,Foreground,Centre,"sb\6.png",320,240 M,0,103933,120599,320,240 F,0,118599,119599,1,0
Sprite,Foreground,Centre,"sb\7.png",320,240 M,0,88599,104599,320,240 F,0,103933,104599,1,0
Sprite,Foreground,Centre,"sb\8.png",320,240 F,0,120599,121599,1,0.5 F,0,122599,123599,1,0.5 F,0,124599,125599,1,0.5 F,0,126599,127599,1,0.5 F,0,128599,129599,1,0.5 F,0,130599,131599,1,0.5 F,0,132599,133599,1,0.5 F,0,134599,135599,1,0.5 F,0,135599,136266,1,0 F,0,136266,136599,0,1 F,0,136599,137599,1,0.5 F,0,138599,139599,1,0.5 F,0,140599,141599,1,0.5 F,0,142599,143599,1,0.5 F,0,144599,145599,1,0.5 F,0,146599,147599,1,0.5 F,0,148599,149599,1,0.5 F,0,150599,152599,1,0
Sprite,Foreground,Centre,"sb\1.png",320,240 F,0,152599,153599,1,0 F,0,154599,155599,1,0 F,0,156599,157599,1,0 F,0,158599,159599,1,0 F,0,160599,161599,1,0 F,0,162599,163599,1,0 F,0,164599,165599,1,0 F,0,166599,167599,1,0 F,0,168599,169599,1,0 F,0,170599,171599,1,0 F,0,172599,173599,1,0 F,0,174599,175599,1,0 F,0,176599,177599,1,0 F,0,178599,179599,1,0 F,0,180599,181599,1,0 F,0,182599,184599,1,0
Sprite,Foreground,Centre,"sb\9.png",320,240 F,0,190599,194599,1,0
Sprite,Foreground,Centre,"sb\white.jpg",320,240 F,0,16433,16599,0,1 M,0,16433,16933,320,240 F,0,16599,16933,1,0 F,0,48433,48599,0,1 M,0,48433,48933,320,240 F,0,48599,48933,1,0 F,0,82433,82599,0,1 M,0,82433,82933,320,240 F,0,82599,82933,1,0 F,0,87933,88599,0,1 M,0,87933,88933,320,240 F,0,88599,88933,1,0 F,0,120433,120599,0,1 M,0,120433,120933,320,240 F,0,120599,120933,1,0 F,0,152433,152599,0,1 M,0,152433,152933,320,240 F,0,152599,152933,1,0 F,0,190433,190599,0,1 M,0,190433,190933,320,240 F,0,190599,190933,1,0
//Storyboard Sound Samples
//Background Colour Transformations
3,100,163,162,255

[TimingPoints]
605,333.333333333333,3,1,0,55,1,0
688,-100,3,1,1,55,0,0
1771,-100,3,2,2,50,0,0
1871,-100,3,1,3,90,0,0
2521,-100,3,1,3,55,0,0
2688,-100,3,1,1,55,0,0
3938,-100,3,1,2,65,0,0
4271,-100,3,1,2,75,0,0
4604,-100,3,1,3,55,0,0
4688,-100,3,1,1,55,0,0
5771,-100,3,2,1,45,0,0
5938,-100,3,1,3,90,0,0
6604,-100,3,1,3,55,0,0
6688,-100,3,1,1,55,0,0
7771,-100,3,1,2,65,0,0
8271,-100,3,1,3,90,0,0
8604,-100,3,1,3,55,0,0
8688,-100,3,1,1,55,0,0
9771,-100,3,2,1,45,0,0
9938,-100,3,1,3,90,0,0
10104,-100,3,1,2,75,0,0
10204,-100,3,1,3,90,0,0
10604,-100,3,1,3,55,0,0
10688,-100,3,1,1,55,0,0
11771,-100,3,2,1,45,0,0
11938,-100,3,1,2,65,0,0
12271,-100,3,1,2,85,0,0
12604,-100,3,1,3,55,0,0
12688,-100,3,1,1,55,0,0
13938,-100,3,1,3,90,0,0
14104,-100,3,1,3,50,0,0
14204,-100,3,1,3,100,0,0
14604,-100,3,1,3,75,0,0
14938,-100,3,1,2,65,0,0
15604,-100,3,1,3,90,0,0
16104,-100,3,1,2,65,0,0
16604,-133.333333333333,3,1,3,45,0,0
17104,-133.333333333333,3,2,1,45,0,0
17604,-133.333333333333,3,1,1,35,0,0
17704,-133.333333333333,3,2,2,35,0,0
18021,-133.333333333333,3,2,1,45,0,0
18938,-133.333333333333,3,2,2,35,0,0
19038,-133.333333333333,3,2,1,45,0,0
19604,-133.333333333333,3,1,1,35,0,0
19704,-133.333333333333,3,2,2,35,0,0
20104,-133.333333333333,3,2,1,45,0,0
20938,-133.333333333333,3,2,2,35,0,0
21038,-133.333333333333,3,2,1,45,0,0
21604,-133.333333333333,3,1,1,35,0,0
21704,-133.333333333333,3,2,2,35,0,0
22104,-133.333333333333,3,2,1,45,0,0
22938,-133.333333333333,3,2,2,35,0,0
23038,-133.333333333333,3,2,1,45,0,0
23604,-133.333333333333,3,1,1,35,0,0
23704,-133.333333333333,3,2,1,45,0,0
24104,-133.333333333333,3,1,1,45,0,0
24604,-133.333333333333,3,2,1,45,0,0
24938,-133.333333333333,3,2,2,35,0,0
25038,-133.333333333333,3,2,1,45,0,0
25604,-133.333333333333,3,1,1,35,0,0
25704,-133.333333333333,3,2,2,35,0,0
26104,-133.333333333333,3,2,1,45,0,0
26938,-133.333333333333,3,2,2,35,0,0
27038,-133.333333333333,3,2,1,45,0,0
27604,-133.333333333333,3,1,1,35,0,0
27704,-133.333333333333,3,2,2,35,0,0
28104,-133.333333333333,3,2,1,45,0,0
28938,-133.333333333333,3,2,2,35,0,0
29038,-133.333333333333,3,2,1,45,0,0
29604,-133.333333333333,3,1,1,35,0,0
29704,-133.333333333333,3,2,1,45,0,0
30104,-133.333333333333,3,2,2,35,0,0
30204,-133.333333333333,3,2,1,45,0,0
30938,-133.333333333333,3,2,2,35,0,0
31038,-133.333333333333,3,2,1,45,0,0
31604,-133.333333333333,3,1,1,35,0,0
31771,-133.333333333333,3,1,1,45,0,0
32604,-133.333333333333,3,1,3,40,0,0
32704,-133.333333333333,3,2,1,45,0,0
32938,-133.333333333333,3,2,2,35,0,0
33038,-133.333333333333,3,2,1,45,0,0
33604,-133.333333333333,3,1,1,35,0,0
33704,-133.333333333333,3,2,2,35,0,0
34021,-133.333333333333,3,2,1,45,0,0
34938,-133.333333333333,3,2,2,35,0,0
35038,-133.333333333333,3,2,1,45,0,0
35604,-133.333333333333,3,1,1,35,0,0
35704,-133.333333333333,3,2,2,35,0,0
36104,-133.333333333333,3,2,1,45,0,0
36938,-133.333333333333,3,2,2,35,0,0
37038,-133.333333333333,3,2,1,45,0,0
37604,-133.333333333333,3,1,1,35,0,0
37704,-133.333333333333,3,2,2,35,0,0
38104,-133.333333333333,3,2,1,45,0,0
38938,-133.333333333333,3,2,2,35,0,0
39038,-133.333333333333,3,2,1,45,0,0
39604,-133.333333333333,3,1,1,35,0,0
39704,-133.333333333333,3,2,1,45,0,0
40104,-133.333333333333,3,1,1,45,0,0
40438,-133.333333333333,3,1,1,30,0,0
40604,-133.333333333333,3,2,1,45,0,0
40938,-133.333333333333,3,2,2,35,0,0
41038,-133.333333333333,3,2,1,45,0,0
41604,-133.333333333333,3,1,1,35,0,0
41704,-133.333333333333,3,2,2,35,0,0
42104,-133.333333333333,3,2,1,45,0,0
42938,-133.333333333333,3,2,2,35,0,0
43038,-133.333333333333,3,2,1,45,0,0
43604,-133.333333333333,3,1,1,35,0,0
43704,-133.333333333333,3,2,1,45,0,0
43938,-133.333333333333,3,2,2,45,0,0
44038,-133.333333333333,3,2,1,45,0,0
45604,-133.333333333333,3,1,1,35,0,0
45704,-133.333333333333,3,2,1,45,0,0
46104,-133.333333333333,3,2,2,35,0,0
46204,-133.333333333333,3,2,1,45,0,0
46604,-100,3,2,3,40,0,0
46938,-133.333333333333,3,2,2,25,0,0
47604,-200,3,2,2,25,0,0
47771,-200,3,2,2,5,0,0
48271,-200,3,2,2,25,0,0
48604,-100,3,1,3,60,0,0
48771,-100,3,1,1,40,0,0
49604,-100,3,1,1,60,0,0
49704,-100,3,1,1,40,0,0
51604,-100,3,1,1,60,0,0
51704,-100,3,1,1,40,0,0
53604,-100,3,1,1,60,0,0
53704,-100,3,1,1,40,0,0
55521,-100,3,1,1,60,0,0
55938,-100,3,1,2,55,0,0
56521,-100,3,1,3,60,0,0
56688,-100,3,1,1,40,0,0
57604,-100,3,1,1,60,0,0
57704,-100,3,1,1,40,0,0
59604,-100,3,1,1,60,0,0
59704,-100,3,1,1,40,0,0
61104,-100,3,1,1,60,0,0
61204,-100,3,1,1,40,0,0
61604,-100,3,1,1,60,0,0
61704,-100,3,1,1,40,0,0
63104,-100,3,1,1,60,0,0
63204,-100,3,1,1,40,0,0
63771,-100,3,1,2,60,0,0
64188,-100,3,1,3,100,0,0
64438,-100,3,1,3,65,0,0
64688,-100,3,1,1,40,0,0
65604,-100,3,1,1,60,0,0
65704,-100,3,1,1,40,0,0
67604,-100,3,1,1,60,0,0
67704,-100,3,1,1,40,0,0
69604,-100,3,1,1,60,0,0
69704,-100,3,1,1,40,0,0
71604,-100,3,1,1,60,0,0
71704,-100,3,1,1,40,0,0
71854,-100,3,1,1,60,0,0
72021,-100,3,1,2,65,0,0
72354,-100,3,1,1,60,0,0
72521,-100,3,1,3,55,0,0
72688,-100,3,1,1,40,0,0
73604,-100,3,1,1,60,0,0
73704,-100,3,1,1,40,0,0
75604,-100,3,1,1,60,0,0
75704,-100,3,1,1,40,0,0
77104,-100,3,1,1,50,0,0
77204,-100,3,1,1,40,0,0
77604,-100,3,1,1,60,0,0
77704,-100,3,1,1,40,0,0
78271,-100,3,1,1,60,0,0
78371,-100,3,1,1,40,0,0
79104,-100,3,1,3,60,0,0
79204,-100,3,1,1,40,0,0
79438,-100,3,1,1,40,0,0
79938,-100,3,1,2,55,0,0
80521,-100,3,1,3,85,0,0
80771,-100,3,1,3,65,0,0
88604,-200,3,2,2,30,0,0
91104,-200,3,1,3,20,0,0
91354,-200,3,2,2,30,0,0
99104,-200,3,1,3,20,0,0
99438,-200,3,2,2,30,0,0
102771,-200,3,2,1,5,0,0
103604,-200,3,2,1,35,0,0
103938,-133.333333333333,3,1,1,45,0,0
104188,-133.333333333333,3,1,2,45,0,0
104604,-133.333333333333,3,1,3,45,0,0
104771,-133.333333333333,3,2,1,45,0,0
105604,-133.333333333333,3,1,1,35,0,0
105704,-133.333333333333,3,2,1,45,0,0
105938,-133.333333333333,3,2,2,35,0,0
106038,-133.333333333333,3,2,1,45,0,0
106938,-133.333333333333,3,2,2,35,0,0
107038,-133.333333333333,3,2,1,45,0,0
107604,-133.333333333333,3,1,1,35,0,0
107938,-133.333333333333,3,2,2,35,0,0
108038,-133.333333333333,3,2,1,45,0,0
108938,-133.333333333333,3,2,2,35,0,0
109038,-133.333333333333,3,2,1,45,0,0
109604,-133.333333333333,3,1,1,35,0,0
109938,-133.333333333333,3,2,2,35,0,0
110038,-133.333333333333,3,2,1,45,0,0
110938,-133.333333333333,3,2,2,35,0,0
111038,-133.333333333333,3,2,1,45,0,0
111604,-133.333333333333,3,1,1,35,0,0
111704,-133.333333333333,3,2,1,45,0,0
112104,-133.333333333333,3,1,1,35,0,0
112604,-133.333333333333,3,2,1,40,0,0
112938,-133.333333333333,3,2,2,35,0,0
113038,-133.333333333333,3,2,1,45,0,0
113604,-133.333333333333,3,1,1,35,0,0
113938,-133.333333333333,3,2,2,35,0,0
114038,-133.333333333333,3,2,1,45,0,0
114938,-133.333333333333,3,2,2,35,0,0
115038,-133.333333333333,3,2,1,45,0,0
115604,-133.333333333333,3,1,1,35,0,0
115938,-133.333333333333,3,2,2,35,0,0
116038,-133.333333333333,3,2,1,45,0,0
117604,-133.333333333333,3,1,1,35,0,0
117704,-133.333333333333,3,2,1,45,0,0
118104,-133.333333333333,3,2,2,35,0,0
118204,-133.333333333333,3,2,1,45,0,0
118604,-133.333333333333,3,2,2,35,0,0
118938,-133.333333333333,3,2,2,25,0,0
119604,-200,3,2,2,25,0,0
119771,-200,3,2,1,5,0,0
120271,-200,3,2,2,25,0,0
120604,-100,3,1,3,50,0,0
120688,-100,3,1,1,40,0,0
121604,-100,3,1,1,60,0,0
121704,-100,3,1,1,40,0,0
123604,-100,3,1,1,60,0,0
123704,-100,3,1,1,40,0,0
125604,-100,3,1,1,60,0,0
125704,-100,3,1,1,40,0,0
126604,-100,3,1,3,60,0,0
126704,-100,3,1,1,40,0,0
127604,-100,3,1,1,50,0,0
127938,-100,3,1,2,50,0,0
128271,-100,3,1,2,45,0,0
128604,-100,3,1,3,60,0,0
128688,-100,3,1,1,40,0,0
129604,-100,3,1,1,60,0,0
129704,-100,3,1,1,40,0,0
131604,-100,3,1,1,60,0,0
131704,-100,3,1,1,40,0,0
133104,-100,3,1,1,50,0,0
133204,-100,3,1,1,40,0,0
133604,-100,3,1,1,50,0,0
133704,-100,3,1,1,40,0,0
134271,-100,3,1,1,50,0,0
134371,-100,3,1,1,40,0,0
135104,-100,3,1,1,50,0,0
135204,-100,3,1,1,40,0,0
135771,-100,3,1,2,50,0,0
136188,-100,3,1,1,50,0,0
136354,-100,3,1,2,60,0,0
136521,-100,3,1,3,60,0,0
136688,-100,3,1,1,40,0,0
137604,-100,3,1,1,60,0,0
137704,-100,3,1,1,40,0,0
139604,-100,3,1,1,60,0,0
139704,-100,3,1,1,40,0,0
141604,-100,3,1,1,60,0,0
141704,-100,3,1,1,40,0,0
143604,-100,3,1,1,60,0,0
143704,-100,3,1,1,40,0,0
144104,-100,3,1,2,60,0,0
144438,-100,3,1,1,60,0,0
144521,-100,3,1,3,60,0,0
144688,-100,3,1,1,40,0,0
145604,-100,3,1,1,60,0,0
145704,-100,3,1,1,40,0,0
146604,-100,3,1,3,60,0,0
146704,-100,3,1,1,40,0,0
147604,-100,3,1,1,60,0,0
147704,-100,3,1,1,40,0,0
149104,-100,3,1,1,60,0,0
149204,-100,3,1,1,40,0,0
149604,-100,3,1,1,60,0,0
149704,-100,3,1,1,40,0,0
150271,-100,3,1,1,60,0,0
150371,-100,3,1,1,40,0,0
151104,-100,3,1,3,60,0,0
151204,-100,3,1,1,40,0,0
151938,-100,3,1,2,70,0,0
152604,-100,3,1,3,55,0,0
152688,-100,3,1,1,55,0,0
153604,-100,3,1,3,90,0,0
153704,-100,3,1,1,55,0,0
153938,-100,3,1,3,90,0,0
154604,-100,3,1,3,55,0,0
154854,-100,3,1,1,55,0,0
155604,-100,3,1,3,90,0,0
155704,-100,3,1,1,55,0,0
155938,-100,3,1,2,60,0,0
156271,-100,3,1,2,70,0,0
156604,-100,3,1,3,55,0,0
156688,-100,3,1,1,55,0,0
157604,-100,3,1,3,90,0,0
157704,-100,3,1,1,55,0,0
157938,-100,3,1,3,90,0,0
158604,-100,3,1,3,55,0,0
158688,-100,3,1,1,55,0,0
159604,-100,3,1,3,90,0,0
159771,-100,3,1,2,55,0,0
160271,-100,3,1,3,90,0,0
160604,-100,3,1,3,55,0,0
160704,-100,3,1,1,55,0,0
161604,-100,3,1,3,90,0,0
161704,-100,3,1,1,55,0,0
161938,-100,3,1,3,90,0,0
162104,-100,3,1,2,70,0,0
162204,-100,3,1,3,90,0,0
162604,-100,3,1,3,55,0,0
162688,-100,3,1,1,55,0,0
163604,-100,3,1,3,90,0,0
163704,-100,3,1,1,55,0,0
163938,-100,3,1,2,60,0,0
164271,-100,3,1,2,70,0,0
164604,-100,3,1,3,55,0,0
164688,-100,3,1,1,55,0,0
165604,-100,3,1,3,90,0,0
165704,-100,3,1,1,55,0,0
165938,-100,3,1,3,90,0,0
166104,-100,3,1,2,75,0,0
166438,-100,3,1,3,90,0,0
166604,-100,3,1,3,60,0,0
166688,-100,3,1,2,55,0,0
167021,-100,3,1,2,60,0,0
167188,-100,3,1,2,65,0,0
167354,-100,3,1,2,75,0,0
167604,-100,3,1,3,90,0,0
168604,-100,3,1,3,55,0,0
168688,-100,3,1,1,55,0,0
169604,-100,3,1,3,90,0,0
169704,-100,3,1,1,55,0,0
169938,-100,3,1,3,90,0,0
170604,-100,3,1,3,55,0,0
170688,-100,3,1,1,55,0,0
171604,-100,3,1,3,90,0,0
171704,-100,3,1,1,55,0,0
171938,-100,3,1,2,50,0,0
172271,-100,3,1,2,60,0,0
172604,-100,3,1,3,55,0,0
172688,-100,3,1,1,55,0,0
173604,-100,3,1,3,90,0,0
173704,-100,3,1,1,55,0,0
173938,-100,3,1,3,90,0,0
174604,-100,3,1,3,55,0,0
174688,-100,3,1,1,55,0,0
175604,-100,3,1,1,60,0,0
175938,-100,3,1,2,65,0,0
176271,-100,3,1,3,90,0,0
176604,-100,3,1,3,55,0,0
176688,-100,3,1,1,55,0,0
177604,-100,3,1,3,90,0,0
177704,-100,3,1,1,55,0,0
177938,-100,3,1,3,90,0,0
178104,-100,3,1,2,65,0,0
178204,-100,3,1,3,90,0,0
178604,-100,3,1,3,55,0,0
178688,-100,3,1,1,55,0,0
179604,-100,3,1,3,90,0,0
179704,-100,3,1,1,55,0,0
179938,-100,3,1,2,55,0,0
180604,-100,3,1,3,55,0,0
180688,-100,3,1,1,55,0,0
181604,-100,3,1,3,90,0,0
181704,-100,3,1,1,55,0,0
181938,-100,3,1,2,65,0,0
182038,-100,3,1,3,90,0,0
182604,-100,3,1,3,55,0,0
182688,-100,3,1,1,55,0,0
182938,-100,3,1,3,55,0,0
183038,-100,3,1,1,55,0,0
183271,-100,3,1,0,55,0,0
183371,-100,3,1,1,55,0,0
183604,-100,3,1,3,90,0,0
183771,-100,3,1,2,65,0,0
184271,-100,3,1,3,90,0,0
184604,-100,3,1,3,45,0,0
184771,-100,3,2,1,5,0,0
186604,-100,3,2,3,23,0,0
186688,-100,3,2,3,5,0,0
188604,-100,3,2,3,23,0,0
188688,-100,3,1,1,10,0,0
190604,-100,3,2,3,20,0,0

[Colours]
Combo1 : 255,128,0
Combo2 : 191,0,96
Combo3 : 255,0,0

[HitObjects]
72,136,605,1,6,0:0:0:0:
72,136,771,2,2,B|80:340,2,190
164,68,1604,2,0,B|208:52|260:56,1,95,6|0,0:0|0:0,0:0:0:0:
400,88,1938,5,0,0:0:0:0:
288,216,2104,1,0,0:0:0:0:
448,160,2271,1,0,0:0:0:0:
280,124,2438,1,0,0:0:0:0:
480,92,2604,5,6,0:0:0:0:
480,92,2771,2,2,B|504:180|492:280,2,190,2|2|2,0:0|0:0|0:0,0:0:0:0:
328,52,3604,1,4,0:0:0:0:
328,52,3938,5,0,0:0:0:0:
216,52,4104,1,0,0:0:0:0:
112,104,4271,1,0,0:0:0:0:
84,216,4438,1,0,0:0:0:0:
136,316,4604,5,6,0:0:0:0:
136,316,4771,2,2,B|224:356|320:300,2,190,2|2|2,0:0|0:0|0:0,0:0:0:0:
84,216,5604,2,0,B|76:96,1,95,4|0,0:0|0:0,0:0:0:0:
256,64,5938,5,0,0:0:0:0:
176,212,6104,1,0,0:0:0:0:
128,48,6271,1,0,0:0:0:0:
256,160,6438,1,0,0:0:0:0:
416,100,6604,5,6,0:0:0:0:
416,100,6771,2,2,B|432:312,2,190,2|2|2,0:0|0:0|0:0,0:0:0:0:
336,52,7604,5,4,0:0:0:0:
240,64,7771,1,0,0:0:0:0:
144,76,7938,1,0,0:0:0:0:
48,88,8104,1,0,0:0:0:0:
60,256,8271,5,0,0:0:0:0:
204,344,8438,1,0,0:0:0:0:
368,304,8604,5,6,0:0:0:0:
368,304,8771,2,2,B|404:212|368:116,1,190,2|2,0:0|0:0,0:0:0:0:
240,64,9271,2,2,B|246:158,1,95,0|2,0:0|0:0,0:0:0:0:
60,256,9604,2,0,B|53:161,1,95,6|0,0:0|0:0,0:0:0:0:
100,32,9938,5,0,0:0:0:0:
140,156,10104,1,0,0:0:0:0:
240,64,10271,1,0,0:0:0:0:
140,156,10438,1,0,0:0:0:0:
256,224,10604,5,6,0:0:0:0:
256,224,10771,2,2,B|358:239|442:203,1,190,2|2,0:0|0:0,0:0:0:0:
372,300,11271,2,2,B|260:304,1,95,0|2,0:0|0:0,0:0:0:0:
140,156,11605,2,0,B|234:152,1,95,6|0,0:0|0:0,0:0:0:0:
400,152,11938,5,0,0:0:0:0:
328,64,12105,1,0,0:0:0:0:
216,52,12271,1,0,0:0:0:0:
104,76,12438,1,0,0:0:0:0:
36,168,12605,5,6,0:0:0:0:
36,168,12771,2,2,B|44:360,2,190,2|2|2,0:0|0:0|0:0,0:0:0:0:
172,120,13605,1,6,0:0:0:0:
172,120,13938,5,0,0:0:0:0:
268,108,14105,1,0,0:0:0:0:
364,96,14271,1,0,0:0:0:0:
460,84,14438,1,0,0:0:0:0:
408,280,14605,1,4,0:0:0:0:
408,280,14938,5,0,0:0:0:0:
384,188,15105,1,0,0:0:0:0:
292,212,15271,1,0,0:0:0:0:
316,304,15438,1,0,0:0:0:0:
472,212,15605,5,0,0:0:0:0:
372,72,15771,1,0,0:0:0:0:
200,52,15938,1,0,0:0:0:0:
84,88,16105,5,4,0:0:0:0:
60,180,16271,1,4,0:0:0:0:
72,276,16438,1,4,0:0:0:0:
136,344,16605,1,4,0:0:0:0:
136,344,17105,5,2,0:0:0:0:
136,344,17605,2,0,B|204:368|276:336,2,142.500005435944,4|2|8,0:0|0:0|0:0,0:0:0:0:
72,276,18438,1,2,0:0:0:0:
72,276,18605,2,0,B|64:128,1,142.500005435944,2|2,0:0|0:0,0:0:0:0:
136,76,19104,1,2,0:0:0:0:
216,32,19271,2,0,B|228:68|220:104,1,71.2500027179719,0|2,0:0|0:0,0:0:0:0:
176,240,19604,5,4,0:0:0:0:
176,240,19938,1,2,0:0:0:0:
176,240,20271,2,0,B|256:248,1,71.2500027179719,8|0,0:0|0:0,0:0:0:0:
340,252,20604,2,0,B|345:182|350:104,1,142.500005435944,2|2,0:0|0:0,0:0:0:0:
432,84,21104,1,2,0:0:0:0:
468,172,21271,2,0,B|465:213|461:259,1,71.2500027179719
332,336,21604,5,4,0:0:0:0:
332,336,21938,1,2,0:0:0:0:
332,336,22271,2,0,B|256:344,1,71.2500027179719,8|2,0:0|0:0,0:0:0:0:
176,312,22604,2,0,B|169:242|164:168,1,142.500005435944,2|2,0:0|0:0,0:0:0:0:
332,224,23104,2,0,B|325:154|320:81,1,142.500005435944,2|2,0:0|0:0,0:0:0:0:
164,104,23604,1,4,0:0:0:0:
164,104,23938,5,2,0:0:0:0:
188,208,24104,1,0,0:0:0:0:
276,272,24271,1,0,0:0:0:0:
380,292,24438,1,0,0:0:0:0:
480,256,24604,6,0,B|496:188|480:108,1,142.500005435944,4|2,0:0|0:0,0:0:0:0:
400,64,25104,2,0,B|332:96|260:76,1,142.500005435944,2|0,0:0|0:0,0:0:0:0:
100,56,25604,1,4,0:0:0:0:
100,56,25938,1,2,0:0:0:0:
100,56,26271,6,0,B|112:92|112:128,1,71.2500027179719,8|2,0:0|0:0,0:0:0:0:
48,196,26604,2,0,B|112:160|188:180,1,142.500005435944,2|2,0:0|0:0,0:0:0:0:
268,220,27104,2,0,B|341:239|405:203,1,142.500005435944,2|2,0:0|0:0,0:0:0:0:
452,52,27604,1,4,0:0:0:0:
452,52,27938,1,2,0:0:0:0:
452,52,28271,6,0,B|488:120|476:192,2,142.500005435944,8|2|2,0:0|0:0|0:0,0:0:0:0:
360,56,29104,2,0,B|296:92|220:72,1,142.500005435944,2|0,0:0|0:0,0:0:0:0:
52,176,29604,2,0,B|116:212|192:192,1,142.500005435944,4|0,0:0|0:0,0:0:0:0:
280,176,30104,2,0,B|316:244|300:316,1,142.500005435944,2|0,0:0|0:0,0:0:0:0:
108,316,30604,1,2,0:0:0:0:
108,316,30938,5,2,0:0:0:0:
32,264,31104,1,2,0:0:0:0:
80,184,31271,1,0,0:0:0:0:
156,236,31438,1,2,0:0:0:0:
248,252,31604,2,0,B|320:272|388:232,1,142.500005435944,4|4,0:0|0:0,0:0:0:0:
428,144,32104,5,0,0:0:0:0:
320,72,32271,1,0,0:0:0:0:
192,60,32438,1,0,0:0:0:0:
72,108,32604,6,0,B|88:260,1,142.500005435944,4|2,0:0|0:0,0:0:0:0:
168,296,33104,1,2,0:0:0:0:
248,252,33271,2,0,B|256:336,1,71.2500027179719,0|0,0:0|0:0,0:0:0:0:
344,348,33604,2,0,B|488:336,2,142.500005435944,4|2|8,0:0|0:0|0:0,0:0:0:0:
248,252,34438,5,2,0:0:0:0:
248,252,34604,2,0,B|105:263,1,142.500005435944,2|2,0:0|0:0,0:0:0:0:
24,180,35104,2,0,B|164:168,1,142.500005435944,2|2,0:0|0:0,0:0:0:0:
340,148,35604,1,4,0:0:0:0:
340,148,35938,1,2,0:0:0:0:
340,148,36271,6,0,B|352:184|348:220,1,71.2500027179719,8|0,0:0|0:0,0:0:0:0:
280,280,36604,2,0,B|344:244|420:264,1,142.500005435944,2|2,0:0|0:0,0:0:0:0:
280,360,37104,2,0,B|206:379|142:343,1,142.500005435944,2|0,0:0|0:0,0:0:0:0:
76,224,37604,2,0,B|48:372,2,142.500005435944,4|2|8,0:0|0:0|0:0,0:0:0:0:
132,148,38438,1,2,0:0:0:0:
224,132,38604,6,0,B|292:152|360:112,1,142.500005435944,2|2,0:0|0:0,0:0:0:0:
412,32,39104,2,0,B|392:104|424:172,1,142.500005435944,2|2,0:0|0:0,0:0:0:0:
480,300,39605,1,4,0:0:0:0:
480,300,39938,5,2,0:0:0:0:
376,324,40105,1,0,0:0:0:0:
268,328,40271,1,0,0:0:0:0:
164,312,40438,1,0,0:0:0:0:
72,260,40605,6,0,B|36:196|52:108,1,142.500005435944,4|2,0:0|0:0,0:0:0:0:
180,36,41105,2,0,B|216:100|200:188,1,142.500005435944,2|0,0:0|0:0,0:0:0:0:
164,312,41605,1,4,0:0:0:0:
164,312,41938,1,2,0:0:0:0:
164,312,42271,6,0,B|244:308,1,71.2500027179719,8|2,0:0|0:0,0:0:0:0:
328,300,42605,2,0,B|356:233|338:156,1,142.500005435944,2|2,0:0|0:0,0:0:0:0:
252,128,43105,2,0,B|328:136|388:96,1,142.500005435944,2|2,0:0|0:0,0:0:0:0:
252,44,43605,6,0,B|176:52,1,71.2500027179719,4|0,0:0|0:0,0:0:0:0:
101,143,43938,2,0,B|172:136,1,71.2500027179719,2|0,0:0|0:0,0:0:0:0:
274,208,44271,2,0,B|204:216,1,71.2500027179719,8|0,0:0|0:0,0:0:0:0:
36,224,44605,6,0,B|8:152|24:84,1,142.500005435944,2|0,0:0|0:0,0:0:0:0:
164,64,45105,2,0,B|192:136|176:204,1,142.500005435944,2|0,0:0|0:0,0:0:0:0:
287,348,45605,2,0,B|259:276|275:208,1,142.500005435944,4|0,0:0|0:0,0:0:0:0:
416,188,46105,2,0,B|444:260|428:328,1,142.500005435944,2|0,0:0|0:0,0:0:0:0:
176,312,46605,1,8,0:0:0:0:
176,312,46938,5,2,0:0:0:0:
164,316,47105,1,2,0:0:0:0:
152,320,47271,1,2,0:0:0:0:
136,324,47438,1,2,0:0:0:0:
124,328,47605,2,0,B|140:244|84:224|116:140,1,190,2|0,0:0|0:0,0:0:0:0:
200,80,48605,5,6,0:0:0:0:
200,80,48771,2,2,B|404:64,2,190,10|8|10,0:0|0:0|0:0,0:0:0:0:
96,124,49605,2,0,B|100:224,1,95,4|0,0:0|0:0,0:0:0:0:
256,348,49938,2,0,B|252:253,1,95,8|0,0:0|0:0,0:0:0:0:
168,152,50271,5,8,0:0:0:0:
316,120,50438,1,8,0:0:0:0:
440,204,50605,1,10,0:0:0:0:
440,204,50771,2,2,B|452:4,2,190,10|10|10,0:0|0:0|0:0,0:0:0:0:
372,296,51605,2,0,B|276:308,1,95,4|0,0:0|0:0,0:0:0:0:
136,320,51938,5,8,0:0:0:0:
28,228,52105,1,8,0:0:0:0:
84,112,52271,1,8,0:0:0:0:
84,112,52355,1,8,0:0:0:0:
84,112,52438,1,8,0:0:0:0:
84,112,52521,1,8,0:0:0:0:
84,112,52605,2,0,B|132:92|176:96,2,95,10|8|0,0:0|0:0|0:0,0:0:0:0:
152,188,53105,6,2,B|248:220|336:168,1,190,10|10,0:0|0:0,0:0:0:0:
464,48,53605,1,4,0:0:0:0:
464,48,53938,5,8,0:0:0:0:
335,168,54105,1,0,0:0:0:0:
444,264,54271,1,8,0:0:0:0:
464,124,54438,1,8,0:0:0:0:
292,103,54605,1,10,0:0:0:0:
292,103,54771,2,2,B|233:147|258:240|330:245,2,190,10|10|10,0:0|0:0|0:0,0:0:0:0:
464,124,55605,5,4,0:0:0:0:
376,300,55771,1,4,0:0:0:0:
188,332,55938,1,4,0:0:0:0:
184,308,56021,1,4,0:0:0:0:
180,284,56105,1,4,0:0:0:0:
176,260,56188,1,4,0:0:0:0:
172,236,56271,2,4,B|164:188|176:140,1,95,4|4,0:0|0:0,0:0:0:0:
340,44,56605,5,6,0:0:0:0:
340,44,56771,2,0,B|364:116|340:192,1,142.5,10|0,0:0|0:0,0:0:0:0:
288,228,57105,2,0,B|338:223|388:248,1,95,10|0,0:0|0:0,0:0:0:0:
488,196,57438,1,8,0:0:0:0:
388,340,57605,2,0,B|344:364|294:358,1,95,4|0,0:0|0:0,0:0:0:0:
187,330,57938,2,0,B|167:206,1,95,8|0,0:0|0:0,0:0:0:0:
208,100,58271,5,8,0:0:0:0:
208,100,58438,1,8,0:0:0:0:
56,168,58605,1,10,0:0:0:0:
56,168,58771,2,2,P|44:263|56:372,2,190,8|10|8,0:0|0:0|0:0,0:0:0:0:
208,100,59604,6,0,P|252:100|332:92,1,95,4|0,0:0|0:0,0:0:0:0:
456,200,59938,2,0,P|412:200|332:208,1,95,8|8,0:0|0:0,0:0:0:0:
220,288,60271,1,8,0:0:0:0:
236,316,60355,1,8,0:0:0:0:
264,336,60438,1,8,0:0:0:0:
296,344,60521,1,8,0:0:0:0:
328,344,60605,6,0,B|372:332|408:292,1,95,8|8,0:0|0:0,0:0:0:0:
364,148,60938,1,0,0:0:0:0:
220,200,61105,2,0,B|133:251|37:223,1,190,4|8,0:0|0:0,0:0:0:0:
96,60,61604,2,0,P|112:108|108:168,1,95,4|0,0:0|0:0,0:0:0:0:
88,316,61938,5,8,0:0:0:0:
88,316,62105,1,8,0:0:0:0:
232,324,62271,1,8,0:0:0:0:
264,312,62355,1,8,0:0:0:0:
296,316,62438,1,8,0:0:0:0:
324,332,62521,1,8,0:0:0:0:
356,336,62605,6,0,B|404:344|464:320,1,95,8|8,0:0|0:0,0:0:0:0:
416,192,62938,1,0,0:0:0:0:
292,48,63105,2,0,B|233:92|258:185|330:190,1,190,4|8,0:0|0:0,0:0:0:0:
329,190,63521,1,8,0:0:0:0:
329,190,63605,1,8,0:0:0:0:
484,140,63771,5,12,0:0:0:0:
336,112,63938,1,12,0:0:0:0:
256,252,64105,1,12,0:0:0:0:
64,164,64271,1,0,0:0:0:0:
64,164,64605,5,6,0:0:0:0:
64,164,64771,2,2,B|96:256|80:352,2,190,10|10|10,0:0|0:0|0:0,0:0:0:0:
136,76,65605,2,0,B|236:68,1,95,4|0,0:0|0:0,0:0:0:0:
340,104,65938,5,8,0:0:0:0:
452,56,66105,1,0,0:0:0:0:
340,104,66271,1,8,0:0:0:0:
328,228,66438,1,8,0:0:0:0:
185,308,66605,5,10,0:0:0:0:
100,236,66771,1,10,0:0:0:0:
208,196,66938,1,0,0:0:0:0:
185,308,67105,2,2,B|280:344|376:284,1,190,10|10,0:0|0:0,0:0:0:0:
460,220,67605,2,0,B|476:268|464:320,1,95,4|0,0:0|0:0,0:0:0:0:
328,228,67938,5,8,0:0:0:0:
336,112,68105,1,8,0:0:0:0:
236,52,68271,1,8,0:0:0:0:
212,56,68355,1,8,0:0:0:0:
188,60,68438,1,8,0:0:0:0:
164,64,68521,1,8,0:0:0:0:
140,68,68605,6,0,B|132:120|144:168,1,95,10|8,0:0|0:0,0:0:0:0:
192,296,68938,1,0,0:0:0:0:
351,297,69105,2,2,B|375:197|336:112,1,190,10|10,0:0|0:0,0:0:0:0:
336,112,69605,6,0,B|464:104,1,95,4|0,0:0|0:0,0:0:0:0:
256,192,69938,2,0,B|161:197,1,95,8|0,0:0|0:0,0:0:0:0:
60,140,70271,1,8,0:0:0:0:
172,48,70438,1,8,0:0:0:0:
316,44,70605,5,10,0:0:0:0:
316,44,70771,2,2,B|344:116|336:188,1,142.5,10|0,0:0|0:0,0:0:0:0:
336,228,71105,2,0,B|324:280|348:332,1,95,10|0,0:0|0:0,0:0:0:0:
160,224,71438,1,10,0:0:0:0:
160,224,71605,2,0,B|136:100,1,95,4|0,0:0|0:0,0:0:0:0:
244,32,71938,5,4,0:0:0:0:
420,68,72105,1,12,0:0:0:0:
336,228,72271,1,12,0:0:0:0:
256,68,72438,1,4,0:0:0:0:
408,164,72605,5,6,0:0:0:0:
408,164,72771,2,2,B|444:252|444:352,2,190,10|10|10,0:0|0:0|0:0,0:0:0:0:
296,148,73605,2,0,B|196:160,1,95,4|0,0:0|0:0,0:0:0:0:
48,272,73938,2,0,B|148:284,1,95,8|0,0:0|0:0,0:0:0:0:
256,296,74271,5,8,0:0:0:0:
388,244,74438,1,8,0:0:0:0:
464,124,74605,1,10,0:0:0:0:
464,124,74771,2,2,B|492:212|480:312,2,190,10|10|8,0:0|0:0|0:0,0:0:0:0:
360,80,75605,6,0,B|256:88,1,95,4|0,0:0|0:0,0:0:0:0:
152,268,75938,2,0,B|256:260,1,95,8|8,0:0|0:0,0:0:0:0:
388,244,76271,1,8,0:0:0:0:
388,244,76355,1,8,0:0:0:0:
388,244,76438,1,8,0:0:0:0:
388,244,76521,1,8,0:0:0:0:
388,244,76605,2,0,B|396:196|376:152,1,95,8|8,0:0|0:0,0:0:0:0:
256,36,76938,5,0,0:0:0:0:
108,180,77105,2,0,B|204:212|292:160,1,190,4|8,0:0|0:0,0:0:0:0:
369,61,77605,2,0,B|337:157|389:245,1,190,4|8,0:0|0:0,0:0:0:0:
444,144,78105,5,8,0:0:0:0:
303,153,78271,1,4,0:0:0:0:
184,72,78438,1,8,0:0:0:0:
48,108,78605,1,8,0:0:0:0:
48,108,78771,2,0,B|56:292,1,142.5,8|0,0:0|0:0,0:0:0:0:
64,320,79104,2,0,B|108:340|160:332,1,95,4|0,0:0|0:0,0:0:0:0:
324,300,79438,1,8,0:0:0:0:
324,300,79521,1,8,0:0:0:0:
324,300,79604,2,8,B|328:248|312:204,1,95
184,72,79938,5,12,0:0:0:0:
232,236,80104,1,12,0:0:0:0:
100,184,80271,1,12,0:0:0:0:
320,124,80438,1,12,0:0:0:0:
96,92,80604,1,4,0:0:0:0:
256,192,80771,12,4,82604,0:0:0:0:
152,96,88604,6,0,B|176:140|168:188,2,95,2|0|0,0:0|0:0|0:0,0:0:0:0:
76,156,89604,2,0,B|88:264,1,95,2|0,0:0|0:0,0:0:0:0:
152,320,90271,1,0,0:0:0:0:
248,320,90604,2,0,B|348:308,1,95,2|0,0:0|0:0,0:0:0:0:
392,300,91104,1,0,0:0:0:0:
392,300,91271,1,0,0:0:0:0:
420,200,91604,6,0,B|464:180|520:188,2,95,2|0|0,0:0|0:0|0:0,0:0:0:0:
288,240,92604,2,0,B|272:140,1,95,2|0,0:0|0:0,0:0:0:0:
196,88,93271,1,0,0:0:0:0:
108,48,93604,6,0,B|92:96|112:140,2,95,2|0|0,0:0|0:0|0:0,0:0:0:0:
256,168,94604,2,0,B|256:272,2,95,2|0|0,0:0|0:0|0:0,0:0:0:0:
404,48,95604,2,0,B|420:96|399:140,2,95,2|0|0,0:0|0:0|0:0,0:0:0:0:
308,60,96604,6,0,B|200:72,1,95,2|0,0:0|0:0,0:0:0:0:
120,84,97271,1,0,0:0:0:0:
44,140,97604,2,0,B|28:188|44:236,2,95,2|0|0,0:0|0:0|0:0,0:0:0:0:
128,188,98604,6,0,B|136:284,1,95,2|0,0:0|0:0,0:0:0:0:
140,332,99104,2,0,B|164:340|192:344,1,47.5
328,340,99604,5,2,0:0:0:0:
412,248,99938,1,0,0:0:0:0:
404,124,100271,1,0,0:0:0:0:
304,36,100604,6,0,B|252:28|204:44,1,95,2|0,0:0|0:0,0:0:0:0:
104,132,101104,2,0,B|152:140|204:124,1,95
320,200,101604,2,0,B|268:192|220:208,1,95,2|0,0:0|0:0,0:0:0:0:
120,296,102104,2,0,B|168:304|220:288,1,95
256,360,102604,6,0,B|300:268|212:172|256:80,1,285,2|0,0:0|0:0,0:0:0:0:
328,36,103938,5,4,0:0:0:0:
416,68,104104,1,0,0:0:0:0:
452,152,104271,1,4,0:0:0:0:
448,244,104438,1,4,0:0:0:0:
384,308,104604,6,0,B|244:324,1,142.500005435944,4|0,0:0|0:0,0:0:0:0:
160,340,105104,2,0,B|188:272|156:200,1,142.500005435944,2|0,0:0|0:0,0:0:0:0:
52,120,105604,2,0,B|9:147|30:225|80:228,2,142.500005435944,4|2|8,0:0|0:0|0:0,0:0:0:0:
144,100,106438,5,2,0:0:0:0:
144,100,106604,2,0,B|296:84,1,142.500005435944,2|2,0:0|0:0,0:0:0:0:
449,161,107104,2,0,B|308:176,1,142.500005435944,2|2,0:0|0:0,0:0:0:0:
156,240,107604,1,4,0:0:0:0:
156,240,107938,1,2,0:0:0:0:
156,240,108271,6,0,B|168:276|164:320,1,71.2500027179719,8|0,0:0|0:0,0:0:0:0:
64,352,108604,2,0,B|28:284|48:212,1,142.500005435944,2|2,0:0|0:0,0:0:0:0:
140,102,109104,2,0,B|176:170|156:242,1,142.500005435944,2|0,0:0|0:0,0:0:0:0:
220,308,109604,2,0,B|376:300,2,142.500005435944,4|2|8,0:0|0:0|0:0,0:0:0:0:
144,360,110438,5,2,0:0:0:0:
76,296,110604,2,0,B|44:228|64:156,1,142.500005435944,2|2,0:0|0:0,0:0:0:0:
140,100,111104,2,0,B|296:88,1,142.500005435944,2|2,0:0|0:0,0:0:0:0:
452,80,111604,1,4,0:0:0:0:
452,80,111938,5,2,0:0:0:0:
476,168,112104,1,0,0:0:0:0:
456,260,112271,1,0,0:0:0:0:
384,320,112438,1,0,0:0:0:0:
296,344,112604,6,0,B|140:352,1,142.500005435944,4|2,0:0|0:0,0:0:0:0:
68,320,113104,2,0,B|17:316|-3:239|36:208,1,142.500005435944,2|0,0:0|0:0,0:0:0:0:
196,136,113604,1,4,0:0:0:0:
196,136,113938,1,2,0:0:0:0:
196,136,114271,6,0,B|192:170|204:206,1,71.2500027179719,8|2,0:0|0:0,0:0:0:0:
248,288,114604,2,0,B|320:308|388:272,1,142.500005435944,2|2,0:0|0:0,0:0:0:0:
456,212,115104,2,0,B|476:140|436:72,1,142.500005435944,2|2,0:0|0:0,0:0:0:0:
316,32,115604,2,0,B|278:62|299:139|349:142,2,142.500005435944,4|2|8,0:0|0:0|0:0,0:0:0:0:
456,212,116604,6,0,B|396:252|320:228,1,142.500005435944,2|0,0:0|0:0,0:0:0:0:
256,160,117104,2,0,B|284:228|264:300,1,142.500005435944,2|0,0:0|0:0,0:0:0:0:
72,308,117604,2,0,B|44:240|64:168,1,142.500005435944,4|0,0:0|0:0,0:0:0:0:
120,96,118104,2,0,B|272:80,1,142.500005435944,2|0,0:0|0:0,0:0:0:0:
468,60,118604,1,4,0:0:0:0:
468,60,118938,5,2,0:0:0:0:
464,72,119104,1,2,0:0:0:0:
460,84,119271,1,2,0:0:0:0:
456,96,119438,1,2,0:0:0:0:
452,108,119604,2,0,B|427:172|427:172|367:205|314:166,1,190,2|0,0:0|0:0,0:0:0:0:
228,80,120604,5,4,0:0:0:0:
228,80,120771,2,2,B|264:172|224:268,1,190,10|10,0:0|0:0,0:0:0:0:
64,336,121271,2,2,B|108:320|164:332,1,95,0|10,0:0|0:0,0:0:0:0:
308,312,121604,2,0,B|350:284|370:242,1,95,4|0,0:0|0:0,0:0:0:0:
468,80,121938,5,8,0:0:0:0:
332,120,122104,1,0,0:0:0:0:
436,220,122271,1,8,0:0:0:0:
384,40,122438,1,8,0:0:0:0:
272,56,122604,1,10,0:0:0:0:
272,56,122771,2,2,B|213:100|238:193|310:198,2,190,8|8|8,0:0|0:0|0:0,0:0:0:0:
404,152,123604,6,0,B|420:200|400:248,1,95,4|0,0:0|0:0,0:0:0:0:
288,336,123938,1,8,0:0:0:0:
148,332,124104,1,8,0:0:0:0:
64,236,124271,1,8,0:0:0:0:
64,236,124354,1,8,0:0:0:0:
64,236,124438,1,8,0:0:0:0:
64,236,124521,1,8,0:0:0:0:
64,236,124604,2,0,B|63:187|64:141,1,95,10|8,0:0|0:0,0:0:0:0:
136,64,124938,5,0,0:0:0:0:
240,112,125104,2,2,B|336:144|420:84,1,190,10|10,0:0|0:0,0:0:0:0:
500,204,125604,2,0,B|456:192|400:192,1,95,4|0,0:0|0:0,0:0:0:0:
348,308,125938,1,8,0:0:0:0:
228,344,126104,1,0,0:0:0:0:
136,264,126271,2,8,B|120:216|128:160,1,95
328,48,126604,6,2,B|364:148|332:236,1,190,4|2,0:0|0:0,0:0:0:0:
200,308,127104,2,2,B|156:367|63:342|58:270,1,190,10|10,0:0|0:0,0:0:0:0:
88,152,127604,5,8,0:0:0:0:
252,56,127771,1,8,0:0:0:0:
436,108,127938,1,4,0:0:0:0:
448,128,128021,1,4,0:0:0:0:
452,152,128104,1,4,0:0:0:0:
456,176,128188,1,4,0:0:0:0:
456,200,128271,1,4,0:0:0:0:
452,224,128354,1,4,0:0:0:0:
448,248,128438,1,4,0:0:0:0:
436,268,128521,1,4,0:0:0:0:
420,288,128604,6,2,B|320:300,1,95,6|10,0:0|0:0,0:0:0:0:
200,308,128938,1,2,0:0:0:0:
96,216,129104,2,2,B|188:256|280:192,1,190,10|10,0:0|0:0,0:0:0:0:
352,40,129604,2,0,B|293:84|318:177|390:182,2,190,4|8|8,0:0|0:0|0:0,0:0:0:0:
468,136,130438,5,8,0:0:0:0:
468,136,130521,1,0,0:0:0:0:
468,136,130604,2,2,B|504:232|476:324,1,190,10|2,0:0|0:0,0:0:0:0:
364,344,131104,2,2,B|264:356,1,95,10|0,0:0|0:0,0:0:0:0:
164,268,131438,5,0,0:0:0:0:
164,268,131521,1,0,0:0:0:0:
164,268,131604,2,0,B|258:256,1,95,6|0,0:0|0:0,0:0:0:0:
348,76,131938,2,0,B|253:87,1,95,10|8,0:0|0:0,0:0:0:0:
80,120,132271,1,8,0:0:0:0:
80,120,132354,1,8,0:0:0:0:
80,120,132438,1,8,0:0:0:0:
80,120,132521,1,8,0:0:0:0:
80,120,132604,2,0,B|88:216,1,95,10|8,0:0|0:0,0:0:0:0:
100,328,132938,5,0,0:0:0:0:
288,288,133104,2,0,B|320:192|276:104,1,190,4|8,0:0|0:0,0:0:0:0:
40,52,133604,2,0,B|132:92|220:32,1,190,4|8,0:0|0:0,0:0:0:0:
332,56,134104,1,8,0:0:0:0:
440,92,134271,2,0,B|456:140|448:188,1,95,4|8,0:0|0:0,0:0:0:0:
304,312,134604,5,8,0:0:0:0:
324,172,134771,1,8,0:0:0:0:
436,260,134938,1,0,0:0:0:0:
304,312,135104,2,0,B|216:364|120:332,1,190,4|8,0:0|0:0,0:0:0:0:
100,320,135521,1,8,0:0:0:0:
100,320,135604,1,8,0:0:0:0:
56,156,135771,5,12,0:0:0:0:
224,132,135938,1,12,0:0:0:0:
88,236,136104,1,12,0:0:0:0:
132,72,136271,1,8,0:0:0:0:
300,52,136438,1,8,0:0:0:0:
464,100,136604,5,6,0:0:0:0:
464,100,136771,2,2,B|500:188|484:288,2,190,10|10|10,0:0|0:0|0:0,0:0:0:0:
352,92,137604,2,0,B|248:108,1,95,4|0,0:0|0:0,0:0:0:0:
144,128,137938,1,8,0:0:0:0:
144,128,138104,1,8,0:0:0:0:
8,240,138271,1,8,0:0:0:0:
8,240,138438,1,8,0:0:0:0:
120,244,138604,6,0,B|140:292|132:336,2,95,10|8|2,0:0|0:0|0:0,0:0:0:0:
168,84,139104,2,2,B|260:120|352:64,1,190,10|10,0:0|0:0,0:0:0:0:
460,92,139604,2,0,B|480:136|476:192,1,95,4|0,0:0|0:0,0:0:0:0:
396,304,139938,5,8,0:0:0:0:
256,332,140104,1,8,0:0:0:0:
124,280,140271,1,8,0:0:0:0:
120,256,140354,1,8,0:0:0:0:
116,232,140438,1,8,0:0:0:0:
112,208,140521,1,8,0:0:0:0:
108,184,140604,6,0,B|108:84,1,95,10|8,0:0|0:0,0:0:0:0:
256,40,140938,1,2,0:0:0:0:
360,152,141104,2,2,B|272:212|180:180,1,190,10|10,0:0|0:0,0:0:0:0:
72,328,141604,2,0,B|160:268|252:300,2,190,4|8|8,0:0|0:0|0:0,0:0:0:0:
40,216,142438,5,8,0:0:0:0:
40,216,142521,1,0,0:0:0:0:
40,216,142604,2,0,B|36:108,1,95,10|8,0:0|0:0,0:0:0:0:
160,48,142938,1,0,0:0:0:0:
300,56,143104,2,2,B|340:140|316:244,1,190,10|8,0:0|0:0,0:0:0:0:
144,340,143604,2,0,B|136:292|148:244,1,95,6|0,0:0|0:0,0:0:0:0:
228,92,143938,5,8,0:0:0:0:
396,124,144104,1,12,0:0:0:0:
248,212,144271,1,12,0:0:0:0:
132,84,144438,1,8,0:0:0:0:
300,56,144604,5,6,0:0:0:0:
300,56,144771,2,2,B|340:140|324:244,2,190,10|10|8,0:0|0:0|0:0,0:0:0:0:
188,64,145604,2,0,B|88:72,1,95,4|0,0:0|0:0,0:0:0:0:
21,223,145938,2,0,B|116:216,1,95,8|0,0:0|0:0,0:0:0:0:
248,268,146271,5,8,0:0:0:0:
412,220,146438,1,8,0:0:0:0:
304,120,146604,1,2,0:0:0:0:
304,120,146771,2,2,B|245:164|270:257|342:262,2,190,10|10|8,0:0|0:0|0:0,0:0:0:0:
304,120,147604,6,0,B|398:114,1,95,6|0,0:0|0:0,0:0:0:0:
208,264,147938,2,0,B|113:269,1,95,10|8,0:0|0:0,0:0:0:0:
48,176,148271,1,8,0:0:0:0:
48,176,148354,1,8,0:0:0:0:
48,176,148438,1,8,0:0:0:0:
48,176,148521,1,8,0:0:0:0:
48,176,148604,2,0,B|40:68,1,95,8|8,0:0|0:0,0:0:0:0:
152,48,148938,5,0,0:0:0:0:
256,92,149104,2,0,B|352:124|440:68,1,190,4|8,0:0|0:0,0:0:0:0:
460,248,149604,2,0,B|364:216|276:272,1,190,4|8,0:0|0:0,0:0:0:0:
172,316,150104,1,8,0:0:0:0:
64,280,150271,2,0,B|44:236|56:184,1,95,4|8,0:0|0:0,0:0:0:0:
256,92,150604,5,8,0:0:0:0:
176,212,150771,1,8,0:0:0:0:
112,84,150938,1,0,0:0:0:0:
256,92,151104,2,0,B|296:181|273:284,1,190,4|8,0:0|0:0,0:0:0:0:
266,301,151521,1,8,0:0:0:0:
266,301,151604,2,0,B|170:317,1,95,8|8,0:0|0:0,0:0:0:0:
36,256,151938,5,4,0:0:0:0:
72,128,152104,1,4,0:0:0:0:
184,56,152271,1,4,0:0:0:0:
316,44,152438,1,4,0:0:0:0:
460,136,152604,5,6,0:0:0:0:
460,136,152771,2,2,B|480:340,2,190,2|0|0,0:0|0:0|0:0,0:0:0:0:
344,132,153604,2,0,B|296:124|248:144,1,95,0|0,0:0|0:0,0:0:0:0:
132,220,153938,5,0,0:0:0:0:
60,64,154104,1,0,0:0:0:0:
36,232,154271,1,0,0:0:0:0:
152,104,154438,1,0,0:0:0:0:
280,176,154604,5,6,0:0:0:0:
280,176,154771,2,2,P|287:268|296:376,2,190,2|0|0,0:0|0:0|0:0,0:0:0:0:
152,104,155604,2,0,B|160:212,1,95,0|0,0:0|0:0,0:0:0:0:
212,352,155938,21,4,0:0:0:0:
368,288,156104,1,4,0:0:0:0:
212,216,156271,1,4,0:0:0:0:
368,148,156437,1,4,0:0:0:0:
268,52,156604,21,6,0:0:0:0:
268,52,156771,2,2,B|200:92|128:60|128:60|92:88,1,190
28,176,157271,2,0,B|36:272,1,95,2|0,0:0|0:0,0:0:0:0:
196,331,157605,2,0,B|188:236,1,95,0|0,0:0|0:0,0:0:0:0:
312,156,157938,5,0,0:0:0:0:
148,136,158105,1,0,0:0:0:0:
260,248,158271,1,0,0:0:0:0:
268,52,158438,1,0,0:0:0:0:
416,56,158605,5,6,0:0:0:0:
416,56,158771,2,2,B|464:144|436:248,1,190,2|2,0:0|0:0,0:0:0:0:
344,312,159271,2,0,B|240:324,1,95,2|0,0:0|0:0,0:0:0:0:
52,328,159605,1,0,0:0:0:0:
108,180,159771,21,4,0:0:0:0:
108,180,159855,1,4,0:0:0:0:
108,180,159938,2,0,B|136:224|132:272,1,95,4|4,0:0|0:0,0:0:0:0:
52,328,160271,1,0,0:0:0:0:
256,272,160438,1,0,0:0:0:0:
468,280,160605,21,6,0:0:0:0:
468,280,160771,2,0,B|496:184|448:88,1,190,2|2,0:0|0:0,0:0:0:0:
336,96,161271,2,0,B|285:102|232:108,1,95,2|0,0:0|0:0,0:0:0:0:
104,248,161605,2,0,B|152:240|184:196,1,95,0|0,0:0|0:0,0:0:0:0:
96,132,161938,5,0,0:0:0:0:
96,132,162105,1,0,0:0:0:0:
188,308,162271,1,0,0:0:0:0:
188,308,162438,1,0,0:0:0:0:
364,284,162605,5,6,0:0:0:0:
364,284,162771,2,2,B|396:192|352:96,1,190,2|2,0:0|0:0,0:0:0:0:
216,36,163271,2,0,B|193:106|219:180,1,142.5,2|0,0:0|0:0,0:0:0:0:
276,212,163605,2,0,B|228:212|182:235,1,95,0|0,0:0|0:0,0:0:0:0:
36,312,163938,21,4,0:0:0:0:
140,176,164105,1,4,0:0:0:0:
116,344,164271,1,4,0:0:0:0:
56,184,164438,1,4,0:0:0:0:
216,124,164605,21,6,0:0:0:0:
216,124,164771,2,2,B|312:156|400:96,2,190,2|2|2,0:0|0:0|0:0,0:0:0:0:
100,128,165605,2,0,B|88:176|104:228,1,95,0|0,0:0|0:0,0:0:0:0:
192,336,165938,5,0,0:0:0:0:
340,228,166105,1,4,0:0:0:0:
168,184,166271,1,4,0:0:0:0:
292,304,166438,1,0,0:0:0:0:
88,344,166605,1,4,0:0:0:0:
88,344,166938,5,4,0:0:0:0:
176,260,167105,1,4,0:0:0:0:
60,220,167271,1,4,0:0:0:0:
148,136,167438,1,0,0:0:0:0:
32,96,167605,1,0,0:0:0:0:
208,48,167771,21,0,0:0:0:0:
208,48,167855,1,0,0:0:0:0:
208,48,167938,1,0,0:0:0:0:
324,92,168105,1,0,0:0:0:0:
324,92,168188,1,0,0:0:0:0:
324,92,168271,2,0,B|344:140|336:192,1,95,0|0,0:0|0:0,0:0:0:0:
312,296,168605,21,6,0:0:0:0:
312,296,168771,2,2,B|116:316,1,190,2|2,0:0|0:0,0:0:0:0:
20,224,169271,2,2,B|161:208,1,142.5,2|2,0:0|0:0,0:0:0:0:
196,204,169605,2,0,B|208:156|184:104,1,95,0|0,0:0|0:0,0:0:0:0:
64,104,169938,5,0,0:0:0:0:
108,288,170105,1,0,0:0:0:0:
187,111,170271,1,0,0:0:0:0:
231,295,170438,1,0,0:0:0:0:
300,116,170605,5,6,0:0:0:0:
300,116,170771,2,2,B|348:204|320:304,1,190,2|2,0:0|0:0,0:0:0:0:
116,348,171271,2,2,B|96:192,1,142.5
96,172,171605,2,0,B|144:172|192:148,1,95,0|0,0:0|0:0,0:0:0:0:
236,44,171938,21,8,0:0:0:0:
52,92,172105,1,8,0:0:0:0:
244,136,172271,1,8,0:0:0:0:
96,172,172438,1,8,0:0:0:0:
144,68,172605,21,6,0:0:0:0:
144,68,172771,2,2,B|180:152|184:264,1,190
92,348,173271,2,2,B|164:320|232:336,1,142.5
264,344,173605,2,0,B|312:352|372:324,1,95,0|0,0:0|0:0,0:0:0:0:
404,156,173938,5,0,0:0:0:0:
240,252,174105,1,0,0:0:0:0:
432,264,174271,1,0,0:0:0:0:
284,144,174438,1,0,0:0:0:0:
96,124,174605,5,6,0:0:0:0:
96,124,174771,2,2,B|196:152|284:100,1,190
424,72,175271,2,2,B|448:120|436:168,1,95
296,312,175605,5,4,0:0:0:0:
288,188,175771,1,4,0:0:0:0:
400,236,175938,5,4,0:0:0:0:
408,360,176105,1,4,0:0:0:0:
188,264,176271,1,0,0:0:0:0:
180,140,176438,1,0,0:0:0:0:
72,60,176605,5,6,0:0:0:0:
72,60,176771,2,2,B|168:88|252:28,2,190,2|0|0,0:0|0:0|0:0,0:0:0:0:
40,172,177605,2,0,B|28:248|52:312,1,142.5,0|0,0:0|0:0,0:0:0:0:
72,340,177938,22,0,B|166:332,1,95,0|8,0:0|0:0,0:0:0:0:
312,320,178271,1,0,0:0:0:0:
456,224,178438,1,0,0:0:0:0:
376,76,178605,21,6,0:0:0:0:
376,76,178771,2,2,B|276:112|188:76,1,190
40,172,179271,2,2,B|104:140|180:149,1,142.5
208,160,179605,2,0,B|228:204|220:260,1,95,0|0,0:0|0:0,0:0:0:0:
148,344,179938,5,4,0:0:0:0:
332,308,180105,1,4,0:0:0:0:
144,248,180271,1,4,0:0:0:0:
304,216,180438,1,4,0:0:0:0:
456,132,180605,5,6,0:0:0:0:
456,132,180771,2,2,B|496:224|472:324,1,190
332,308,181271,2,2,B|304:240|320:164,1,142.5
324,136,181605,2,0,B|280:156|232:156,1,95,0|0,0:0|0:0,0:0:0:0:
16,176,181938,21,8,0:0:0:0:
144,248,182105,1,0,0:0:0:0:
72,100,182271,21,0,0:0:0:0:
76,320,182438,1,0,0:0:0:0:
253,321,182605,2,0,P|260:275|268:228,1,95,6|2,0:0|0:0,0:0:0:0:
369,337,182938,5,2,0:0:0:0:
369,337,183105,1,0,0:0:0:0:
483,315,183271,1,2,0:0:0:0:
440,208,183438,1,0,0:0:0:0:
440,208,183521,1,0,0:0:0:0:
440,208,183605,2,0,B|320:200,1,95,0|8,0:0|0:0,0:0:0:0:
164,120,183938,21,8,0:0:0:0:
348,120,184105,1,8,0:0:0:0:
256,68,184271,2,0,B|272:120|232:200|256:256,1,190,0|4,0:0|0:0,0:0:0:0:
256,192,184771,12,2,186605,0:0:0:0:
256,192,186771,12,2,188605,0:0:0:0:
256,192,188771,12,8,190605,0:0:0:0:
