osu file format v12

[General]
AudioFilename: 1 - iv-Undetermined.mp3
AudioLeadIn: 1400
PreviewTime: 152599
Countdown: 0
SampleSet: Soft
StackLeniency: 0.7
Mode: 0
LetterboxInBreaks: 0
EpilepsyWarning: 1

[Editor]
Bookmarks: 70183
DistanceSpacing: 1.3
BeatDivisor: 4
GridSize: 4

[Metadata]
Title:Togameru Kage
TitleUnicode:咎める翳
Artist:momori
ArtistUnicode:momori
Creator:cRyo[iceeicee]
Version:Hard
Source:
Tags:yuiko yuikonnu meis clauson the root of heads dastinia m3-28 OnosakiHito
BeatmapID:184519
BeatmapSetID:55926

[Difficulty]
HPDrainRate:6
CircleSize:4
OverallDifficulty:6
ApproachRate:7
SliderMultiplier:1.6
SliderTickRate:1

[Events]
//Background and Video events
0,0,"bg.jpg",0,0
//Break Periods
2,82804,87704
//Storyboard Layer 0 (Background)
Sprite,Background,TopLeft,"bg.jpg",0,0
//Storyboard Layer 1 (Fail)
//Storyboard Layer 2 (Pass)
//Storyboard Layer 3 (Foreground)
Sprite,Foreground,Centre,"sb\1.png",320,240 M,0,-1400,16599,320,240
Sprite,Foreground,Centre,"sb\2.png",320,240 M,0,31933,48599,320,240 F,0,46599,47599,1,0
Sprite,Foreground,Centre,"sb\3.png",320,240 M,0,16599,32599,320,240 F,0,31933,32599,1,0
Sprite,Foreground,Centre,"sb\4.png",320,240 F,0,48599,49599,1,0.5 F,0,50599,51599,1,0.5 F,0,52599,53599,1,0.5 F,0,54599,55599,1,0.5 F,0,56599,57599,1,0.5 F,0,58599,59599,1,0.5 F,0,60599,61599,1,0.5 F,0,62599,63599,1,0.5 F,0,63599,64266,1,0
Sprite,Foreground,Centre,"sb\5.png",320,240 F,0,64266,64599,0,1 F,0,64599,65599,1,0.5 F,0,66599,67599,1,0.5 F,0,68599,69599,1,0.5 F,0,70599,71599,1,0.5 F,0,72599,73599,1,0.5 F,0,74599,75599,1,0.5 F,0,76599,77599,1,0.5 F,0,78599,80599,1,0
Sprite,Foreground,Centre,"sb\1.png",320,240 M,0,82599,88599,320,240
Sprite,Foreground,Centre,"sb\6.png",320,240 M,0,103933,120599,320,240 F,0,118599,119599,1,0
Sprite,Foreground,Centre,"sb\7.png",320,240 M,0,88599,104599,320,240 F,0,103933,104599,1,0
Sprite,Foreground,Centre,"sb\8.png",320,240 F,0,120599,121599,1,0.5 F,0,122599,123599,1,0.5 F,0,124599,125599,1,0.5 F,0,126599,127599,1,0.5 F,0,128599,129599,1,0.5 F,0,130599,131599,1,0.5 F,0,132599,133599,1,0.5 F,0,134599,135599,1,0.5 F,0,135599,136266,1,0 F,0,136266,136599,0,1 F,0,136599,137599,1,0.5 F,0,138599,139599,1,0.5 F,0,140599,141599,1,0.5 F,0,142599,143599,1,0.5 F,0,144599,145599,1,0.5 F,0,146599,147599,1,0.5 F,0,148599,149599,1,0.5 F,0,150599,152599,1,0
Sprite,Foreground,Centre,"sb\1.png",320,240 F,0,152599,153599,1,0 F,0,154599,155599,1,0 F,0,156599,157599,1,0 F,0,158599,159599,1,0 F,0,160599,161599,1,0 F,0,162599,163599,1,0 F,0,164599,165599,1,0 F,0,166599,167599,1,0 F,0,168599,169599,1,0 F,0,170599,171599,1,0 F,0,172599,173599,1,0 F,0,174599,175599,1,0 F,0,176599,177599,1,0 F,0,178599,179599,1,0 F,0,180599,181599,1,0 F,0,182599,184599,1,0
Sprite,Foreground,Centre,"sb\9.png",320,240 F,0,190599,194599,1,0
Sprite,Foreground,Centre,"sb\white.jpg",320,240 F,0,16433,16599,0,1 M,0,16433,16933,320,240 F,0,16599,16933,1,0 F,0,48433,48599,0,1 M,0,48433,48933,320,240 F,0,48599,48933,1,0 F,0,82433,82599,0,1 M,0,82433,82933,320,240 F,0,82599,82933,1,0 F,0,87933,88599,0,1 M,0,87933,88933,320,240 F,0,88599,88933,1,0 F,0,120433,120599,0,1 M,0,120433,120933,320,240 F,0,120599,120933,1,0 F,0,152433,152599,0,1 M,0,152433,152933,320,240 F,0,152599,152933,1,0 F,0,190433,190599,0,1 M,0,190433,190933,320,240 F,0,190599,190933,1,0
//Storyboard Sound Samples
//Background Colour Transformations
3,100,163,162,255

[TimingPoints]
605,333.333333333333,3,1,0,55,1,0
688,-100,3,1,1,55,0,0
1771,-100,3,2,2,50,0,0
1871,-100,3,1,3,90,0,0
2521,-100,3,1,3,55,0,0
2688,-100,3,1,1,55,0,0
3938,-100,3,1,2,65,0,0
4271,-100,3,1,2,75,0,0
4604,-100,3,1,3,55,0,0
4688,-100,3,1,1,55,0,0
5771,-100,3,2,1,45,0,0
5938,-100,3,1,3,90,0,0
6604,-100,3,1,3,55,0,0
6688,-100,3,1,1,55,0,0
7771,-100,3,1,2,65,0,0
8271,-100,3,1,3,90,0,0
8604,-100,3,1,3,55,0,0
8688,-100,3,1,1,55,0,0
9771,-100,3,2,1,45,0,0
9938,-100,3,1,3,90,0,0
10104,-100,3,1,2,65,0,0
10204,-100,3,1,3,90,0,0
10604,-100,3,1,3,55,0,0
10688,-100,3,1,1,55,0,0
11771,-100,3,2,1,45,0,0
11938,-100,3,1,2,65,0,0
12271,-100,3,1,2,85,0,0
12604,-100,3,1,3,55,0,0
12688,-100,3,1,1,55,0,0
13938,-100,3,1,3,80,0,0
14104,-100,3,1,3,50,0,0
14271,-100,3,1,3,90,0,0
14438,-100,3,1,3,100,0,0
14604,-100,3,1,3,55,0,0
14938,-100,3,1,2,65,0,0
15604,-100,3,1,3,90,0,0
16104,-100,3,1,2,65,0,0
16604,-133.333333333333,3,1,3,45,0,0
17104,-133.333333333333,3,2,1,45,0,0
17604,-133.333333333333,3,1,1,35,0,0
17704,-133.333333333333,3,2,2,35,0,0
18021,-133.333333333333,3,2,1,45,0,0
18938,-133.333333333333,3,2,2,35,0,0
19038,-133.333333333333,3,2,1,45,0,0
19604,-133.333333333333,3,1,1,35,0,0
19704,-133.333333333333,3,2,2,35,0,0
20104,-133.333333333333,3,2,1,45,0,0
20938,-133.333333333333,3,2,2,35,0,0
21038,-133.333333333333,3,2,1,45,0,0
21604,-133.333333333333,3,1,1,35,0,0
21704,-133.333333333333,3,2,2,35,0,0
22104,-133.333333333333,3,2,1,45,0,0
22938,-133.333333333333,3,2,2,35,0,0
23038,-133.333333333333,3,2,1,45,0,0
23604,-133.333333333333,3,1,1,35,0,0
23704,-133.333333333333,3,2,1,45,0,0
24104,-133.333333333333,3,1,1,45,0,0
24604,-133.333333333333,3,2,1,45,0,0
24938,-133.333333333333,3,2,2,35,0,0
25038,-133.333333333333,3,2,1,45,0,0
25604,-133.333333333333,3,1,1,35,0,0
25704,-133.333333333333,3,2,2,35,0,0
26104,-133.333333333333,3,2,1,45,0,0
26938,-133.333333333333,3,2,2,35,0,0
27038,-133.333333333333,3,2,1,45,0,0
27604,-133.333333333333,3,1,1,35,0,0
27704,-133.333333333333,3,2,2,35,0,0
28104,-133.333333333333,3,2,1,45,0,0
28938,-133.333333333333,3,2,2,35,0,0
29038,-133.333333333333,3,2,1,45,0,0
29604,-133.333333333333,3,1,1,35,0,0
29704,-133.333333333333,3,2,1,45,0,0
30104,-133.333333333333,3,2,2,35,0,0
30204,-133.333333333333,3,2,1,45,0,0
30938,-133.333333333333,3,2,2,35,0,0
31038,-133.333333333333,3,2,1,45,0,0
31604,-133.333333333333,3,1,1,35,0,0
31771,-133.333333333333,3,1,1,45,0,0
32604,-133.333333333333,3,1,3,40,0,0
32704,-133.333333333333,3,2,1,45,0,0
32938,-133.333333333333,3,2,2,35,0,0
33038,-133.333333333333,3,2,1,45,0,0
33604,-133.333333333333,3,1,1,35,0,0
33704,-133.333333333333,3,2,2,35,0,0
34021,-133.333333333333,3,2,1,45,0,0
34938,-133.333333333333,3,2,2,35,0,0
35038,-133.333333333333,3,2,1,45,0,0
35604,-133.333333333333,3,1,1,35,0,0
35704,-133.333333333333,3,2,2,35,0,0
36104,-133.333333333333,3,2,1,45,0,0
36938,-133.333333333333,3,2,2,35,0,0
37038,-133.333333333333,3,2,1,45,0,0
37604,-133.333333333333,3,1,1,35,0,0
37704,-133.333333333333,3,2,2,35,0,0
38104,-133.333333333333,3,2,1,45,0,0
38938,-133.333333333333,3,2,2,35,0,0
39038,-133.333333333333,3,2,1,45,0,0
39604,-133.333333333333,3,1,1,35,0,0
39704,-133.333333333333,3,2,1,45,0,0
40104,-133.333333333333,3,1,1,45,0,0
40438,-133.333333333333,3,1,1,30,0,0
40604,-133.333333333333,3,2,1,45,0,0
40938,-133.333333333333,3,2,2,35,0,0
41038,-133.333333333333,3,2,1,45,0,0
41604,-133.333333333333,3,1,1,35,0,0
41704,-133.333333333333,3,2,2,35,0,0
42104,-133.333333333333,3,2,1,45,0,0
42938,-133.333333333333,3,2,2,35,0,0
43038,-133.333333333333,3,2,1,45,0,0
43604,-133.333333333333,3,1,1,35,0,0
43704,-133.333333333333,3,2,1,45,0,0
43938,-133.333333333333,3,2,2,45,0,0
44038,-133.333333333333,3,2,1,45,0,0
45604,-133.333333333333,3,1,1,35,0,0
45704,-133.333333333333,3,2,1,45,0,0
46104,-133.333333333333,3,2,2,35,0,0
46204,-133.333333333333,3,2,1,45,0,0
46604,-133.333333333333,3,2,2,35,0,0
46938,-133.333333333333,3,2,2,25,0,0
48604,-100,3,1,3,60,0,0
48688,-100,3,1,1,40,0,0
49604,-100,3,1,1,60,0,0
49704,-100,3,1,1,40,0,0
50604,-100,3,1,1,45,0,0
50704,-100,3,1,1,40,0,0
51604,-100,3,1,1,60,0,0
51704,-100,3,1,1,40,0,0
52604,-100,3,1,1,45,0,0
52704,-100,3,1,1,40,0,0
53604,-100,3,1,1,60,0,0
53704,-100,3,1,1,40,0,0
54604,-100,3,1,3,60,0,0
54704,-100,3,1,1,40,0,0
55521,-100,3,1,1,60,0,0
55938,-100,3,1,2,65,0,0
56521,-100,3,1,3,60,0,0
56688,-100,3,1,1,40,0,0
57604,-100,3,1,1,60,0,0
57704,-100,3,1,1,40,0,0
58604,-100,3,1,3,50,0,0
58704,-100,3,1,1,40,0,0
59604,-100,3,1,1,60,0,0
59704,-100,3,1,1,40,0,0
60604,-100,3,1,3,50,0,0
60704,-100,3,1,1,40,0,0
61104,-100,3,1,1,60,0,0
61204,-100,3,1,1,40,0,0
61604,-100,3,1,1,60,0,0
61704,-100,3,1,1,40,0,0
62271,-100,3,1,1,60,0,0
62371,-100,3,1,1,40,0,0
62604,-100,3,1,3,50,0,0
62704,-100,3,1,1,40,0,0
63104,-100,3,1,1,60,0,0
63204,-100,3,1,1,40,0,0
63771,-100,3,1,2,60,0,0
64188,-100,3,1,1,55,0,0
64438,-100,3,1,3,65,0,0
64688,-100,3,1,1,40,0,0
65604,-100,3,1,1,60,0,0
65704,-100,3,1,1,40,0,0
66604,-100,3,1,1,45,0,0
66704,-100,3,1,1,40,0,0
67604,-100,3,1,1,60,0,0
67704,-100,3,1,1,40,0,0
68604,-100,3,1,1,45,0,0
68704,-100,3,1,1,40,0,0
69604,-100,3,1,1,60,0,0
69704,-100,3,1,1,40,0,0
70604,-100,3,1,3,60,0,0
70704,-100,3,1,1,40,0,0
71604,-100,3,1,1,60,0,0
71704,-100,3,1,1,40,0,0
71854,-100,3,1,1,60,0,0
72021,-100,3,1,2,75,0,0
72354,-100,3,1,1,60,0,0
72521,-100,3,1,3,55,0,0
72688,-100,3,1,1,40,0,0
73604,-100,3,1,1,60,0,0
73704,-100,3,1,1,40,0,0
74604,-100,3,1,3,45,0,0
74704,-100,3,1,1,40,0,0
75604,-100,3,1,1,60,0,0
75704,-100,3,1,1,40,0,0
76604,-100,3,1,3,60,0,0
76704,-100,3,1,1,40,0,0
77104,-100,3,1,1,50,0,0
77204,-100,3,1,1,40,0,0
77604,-100,3,1,1,60,0,0
77704,-100,3,1,1,40,0,0
78271,-100,3,1,1,60,0,0
78371,-100,3,1,1,40,0,0
79104,-100,3,1,3,60,0,0
79204,-100,3,1,1,40,0,0
79438,-100,3,1,1,40,0,0
79938,-100,3,1,2,65,0,0
80521,-100,3,1,3,75,0,0
80771,-100,3,1,3,65,0,0
88604,-200,3,2,2,30,0,0
91104,-200,3,1,3,20,0,0
91354,-200,3,2,2,30,0,0
99104,-200,3,1,3,20,0,0
99438,-200,3,2,2,30,0,0
102771,-200,3,2,1,10,0,0
103604,-200,3,2,1,35,0,0
103938,-133.333333333333,3,1,1,45,0,0
104188,-133.333333333333,3,1,2,45,0,0
104604,-133.333333333333,3,1,3,45,0,0
104771,-133.333333333333,3,2,1,45,0,0
105604,-133.333333333333,3,1,1,35,0,0
105704,-133.333333333333,3,2,1,45,0,0
105938,-133.333333333333,3,2,2,35,0,0
106038,-133.333333333333,3,2,1,45,0,0
106938,-133.333333333333,3,2,2,35,0,0
107038,-133.333333333333,3,2,1,45,0,0
107604,-133.333333333333,3,1,1,35,0,0
107938,-133.333333333333,3,2,2,35,0,0
108038,-133.333333333333,3,2,1,45,0,0
108938,-133.333333333333,3,2,2,35,0,0
109038,-133.333333333333,3,2,1,45,0,0
109604,-133.333333333333,3,1,1,35,0,0
109938,-133.333333333333,3,2,2,35,0,0
110038,-133.333333333333,3,2,1,45,0,0
110938,-133.333333333333,3,2,2,35,0,0
111038,-133.333333333333,3,2,1,45,0,0
111604,-133.333333333333,3,1,1,35,0,0
111704,-133.333333333333,3,2,1,45,0,0
112104,-133.333333333333,3,1,1,35,0,0
112604,-133.333333333333,3,2,1,40,0,0
112938,-133.333333333333,3,2,2,35,0,0
113038,-133.333333333333,3,2,1,45,0,0
113604,-133.333333333333,3,1,1,35,0,0
113938,-133.333333333333,3,2,2,35,0,0
114038,-133.333333333333,3,2,1,45,0,0
114938,-133.333333333333,3,2,2,35,0,0
115038,-133.333333333333,3,2,1,45,0,0
115604,-133.333333333333,3,1,1,35,0,0
115938,-133.333333333333,3,2,2,35,0,0
116038,-133.333333333333,3,2,1,45,0,0
117604,-133.333333333333,3,1,1,35,0,0
117704,-133.333333333333,3,2,1,45,0,0
118104,-133.333333333333,3,2,2,35,0,0
118204,-133.333333333333,3,2,1,45,0,0
118604,-133.333333333333,3,2,2,35,0,0
118938,-133.333333333333,3,2,2,25,0,0
120604,-100,3,1,3,50,0,0
120688,-100,3,1,1,40,0,0
121604,-100,3,1,1,60,0,0
121704,-100,3,1,1,40,0,0
122604,-100,3,1,1,45,0,0
122704,-100,3,1,1,40,0,0
123604,-100,3,1,1,60,0,0
123704,-100,3,1,1,40,0,0
124604,-100,3,1,1,45,0,0
124704,-100,3,1,1,40,0,0
125604,-100,3,1,1,60,0,0
125704,-100,3,1,1,40,0,0
126604,-100,3,1,3,60,0,0
126704,-100,3,1,1,40,0,0
127604,-100,3,1,1,50,0,0
127938,-100,3,1,2,55,0,0
128604,-100,3,1,3,60,0,0
128688,-100,3,1,1,40,0,0
129604,-100,3,1,1,60,0,0
129704,-100,3,1,1,40,0,0
130604,-100,3,1,3,45,0,0
130704,-100,3,1,1,40,0,0
131604,-100,3,1,1,60,0,0
131704,-100,3,1,1,40,0,0
132604,-100,3,1,3,50,0,0
132704,-100,3,1,1,40,0,0
133104,-100,3,1,1,50,0,0
133204,-100,3,1,1,40,0,0
133604,-100,3,1,1,50,0,0
133704,-100,3,1,1,40,0,0
134271,-100,3,1,1,50,0,0
134371,-100,3,1,1,40,0,0
134604,-100,3,1,3,50,0,0
134704,-100,3,1,1,40,0,0
134938,-100,3,1,1,70,0,0
135104,-100,3,1,1,50,0,0
135204,-100,3,1,1,40,0,0
135604,-100,3,1,1,50,0,0
135771,-100,3,1,2,60,0,0
136188,-100,3,1,1,40,0,0
136354,-100,3,1,2,60,0,0
136521,-100,3,1,3,60,0,0
136688,-100,3,1,1,40,0,0
137604,-100,3,1,1,60,0,0
137704,-100,3,1,1,40,0,0
138604,-100,3,1,1,45,0,0
138704,-100,3,1,1,40,0,0
139604,-100,3,1,1,60,0,0
139704,-100,3,1,1,40,0,0
140604,-100,3,1,1,45,0,0
140704,-100,3,1,1,40,0,0
141604,-100,3,1,1,60,0,0
141704,-100,3,1,1,40,0,0
142604,-100,3,1,3,50,0,0
142704,-100,3,1,1,40,0,0
143604,-100,3,1,1,60,0,0
143704,-100,3,1,1,40,0,0
143938,-100,3,1,1,50,0,0
144104,-100,3,1,2,60,0,0
144438,-100,3,1,1,60,0,0
144521,-100,3,1,3,60,0,0
144688,-100,3,1,1,40,0,0
145604,-100,3,1,1,60,0,0
145704,-100,3,1,1,40,0,0
146604,-100,3,1,3,50,0,0
146704,-100,3,1,1,40,0,0
147604,-100,3,1,1,60,0,0
147704,-100,3,1,1,40,0,0
148604,-100,3,1,3,50,0,0
148704,-100,3,1,1,40,0,0
149104,-100,3,1,1,60,0,0
149204,-100,3,1,1,40,0,0
149604,-100,3,1,1,60,0,0
149704,-100,3,1,1,40,0,0
150271,-100,3,1,1,60,0,0
150371,-100,3,1,1,40,0,0
151104,-100,3,1,3,60,0,0
151204,-100,3,1,1,40,0,0
151938,-100,3,1,2,65,0,0
152604,-100,3,1,3,55,0,0
152854,-100,3,1,1,55,0,0
153604,-100,3,1,3,90,0,0
153704,-100,3,1,1,55,0,0
153938,-100,3,1,3,90,0,0
154604,-100,3,1,3,55,0,0
154854,-100,3,1,1,55,0,0
155604,-100,3,1,3,90,0,0
155704,-100,3,1,1,55,0,0
155938,-100,3,1,2,60,0,0
156271,-100,3,1,2,70,0,0
156604,-100,3,1,3,55,0,0
156688,-100,3,1,1,55,0,0
157604,-100,3,1,3,90,0,0
157704,-100,3,1,1,55,0,0
157938,-100,3,1,3,90,0,0
158604,-100,3,1,3,55,0,0
158688,-100,3,1,1,55,0,0
159604,-100,3,1,3,90,0,0
159771,-100,3,1,2,65,0,0
160271,-100,3,1,3,90,0,0
160604,-100,3,1,3,55,0,0
160704,-100,3,1,1,55,0,0
161604,-100,3,1,3,90,0,0
161771,-100,3,1,1,50,0,0
161938,-100,3,1,3,90,0,0
162104,-100,3,1,2,60,0,0
162204,-100,3,1,3,90,0,0
162604,-100,3,1,3,55,0,0
162688,-100,3,1,1,55,0,0
163604,-100,3,1,3,90,0,0
163704,-100,3,1,1,55,0,0
163938,-100,3,1,2,60,0,0
164271,-100,3,1,2,70,0,0
164604,-100,3,1,3,55,0,0
164688,-100,3,1,1,55,0,0
165604,-100,3,1,3,90,0,0
165704,-100,3,1,1,55,0,0
165938,-100,3,1,3,90,0,0
166104,-100,3,1,2,75,0,0
166438,-100,3,1,3,90,0,0
166604,-100,3,1,3,60,0,0
166688,-100,3,1,2,55,0,0
167021,-100,3,1,2,60,0,0
167188,-100,3,1,2,65,0,0
167354,-100,3,1,2,75,0,0
167604,-100,3,1,3,90,0,0
168604,-100,3,1,3,55,0,0
168688,-100,3,1,1,55,0,0
169604,-100,3,1,3,90,0,0
170604,-100,3,1,3,55,0,0
170688,-100,3,1,1,55,0,0
171604,-100,3,1,3,90,0,0
171938,-100,3,1,2,50,0,0
172271,-100,3,1,2,60,0,0
172604,-100,3,1,3,55,0,0
172688,-100,3,1,1,55,0,0
173604,-100,3,1,3,90,0,0
174604,-100,3,1,3,55,0,0
174688,-100,3,1,1,55,0,0
175604,-100,3,1,1,50,0,0
175938,-100,3,1,2,65,0,0
176271,-100,3,1,3,90,0,0
176604,-100,3,1,3,55,0,0
176688,-100,3,1,1,55,0,0
177604,-100,3,1,3,90,0,0
178104,-100,3,1,2,65,0,0
178204,-100,3,1,3,90,0,0
178604,-100,3,1,3,55,0,0
178688,-100,3,1,1,55,0,0
179604,-100,3,1,3,90,0,0
179938,-100,3,1,2,55,0,0
180604,-100,3,1,3,55,0,0
180688,-100,3,1,1,55,0,0
181604,-100,3,1,3,90,0,0
181938,-100,3,1,2,65,0,0
182038,-100,3,1,3,90,0,0
182604,-100,3,1,3,55,0,0
182688,-100,3,1,1,55,0,0
182938,-100,3,1,3,55,0,0
183038,-100,3,1,1,55,0,0
183271,-100,3,1,3,55,0,0
183371,-100,3,1,3,90,0,0
183771,-100,3,1,2,65,0,0
184271,-100,3,1,3,90,0,0
184604,-100,3,1,3,45,0,0
184771,-100,3,2,1,5,0,0
186604,-100,3,2,3,23,0,0
186704,-100,3,2,1,5,0,0
188604,-100,3,2,3,23,0,0
188704,-100,3,2,1,5,0,0
190604,-100,3,2,3,20,0,0

[Colours]
Combo1 : 255,128,0
Combo2 : 191,0,96
Combo3 : 255,0,0

[HitObjects]
104,64,605,6,0,B|108:164,1,80,6|2,0:0|0:0,0:0:0:0:
120,304,1104,1,2,0:0:0:0:
276,344,1438,1,2,0:0:0:0:
276,344,1604,2,0,B|360:336,1,80,4|0,0:0|0:0,0:0:0:0:
436,272,1938,5,0,0:0:0:0:
436,272,2104,1,0,0:0:0:0:
400,172,2271,1,0,0:0:0:0:
400,172,2438,1,0,0:0:0:0:
312,120,2604,6,0,B|319:39,1,80,6|2,0:0|0:0,0:0:0:0:
176,112,3104,1,2,0:0:0:0:
52,216,3438,1,2,0:0:0:0:
52,216,3604,2,0,B|58:295,1,80,6|0,0:0|0:0,0:0:0:0:
152,340,3938,6,0,B|196:340|232:304,1,80,0|0,0:0|0:0,0:0:0:0:
324,288,4271,2,0,B|316:244|272:207,1,80,0|0,0:0|0:0,0:0:0:0:
220,136,4604,6,0,B|212:56,1,80,6|2,0:0|0:0,0:0:0:0:
368,84,5104,1,2,0:0:0:0:
472,204,5438,1,2,0:0:0:0:
472,204,5604,2,0,B|464:284,1,80,6|0,0:0|0:0,0:0:0:0:
380,344,5938,5,0,0:0:0:0:
380,344,6104,1,0,0:0:0:0:
276,336,6271,1,0,0:0:0:0:
276,336,6438,1,0,0:0:0:0:
184,284,6604,6,0,B|98:290,1,80,6|2,0:0|0:0,0:0:0:0:
60,136,7104,1,2,0:0:0:0:
204,64,7438,1,2,0:0:0:0:
204,64,7604,2,0,B|283:58,1,80,6|0,0:0|0:0,0:0:0:0:
384,84,7938,6,0,B|404:120|399:162,1,80
368,260,8271,1,0,0:0:0:0:
368,260,8438,1,0,0:0:0:0:
264,268,8604,6,0,B|272:368,1,80,6|2,0:0|0:0,0:0:0:0:
120,292,9104,1,2,0:0:0:0:
56,144,9438,1,2,0:0:0:0:
56,144,9604,2,0,B|49:64,1,80,6|0,0:0|0:0,0:0:0:0:
152,40,9938,5,0,0:0:0:0:
152,40,10104,1,8,0:0:0:0:
248,76,10271,1,0,0:0:0:0:
248,76,10438,1,0,0:0:0:0:
348,108,10604,6,0,B|440:92,1,80,6|2,0:0|0:0,0:0:0:0:
416,256,11104,1,2,0:0:0:0:
280,340,11438,1,2,0:0:0:0:
280,340,11605,2,0,B|201:326,1,80,6|0,0:0|0:0,0:0:0:0:
100,300,11938,6,0,B|88:260|112:200,1,80
192,168,12271,2,0,B|204:128|187:89,1,80
88,64,12605,5,6,0:0:0:0:
88,64,12771,1,2,0:0:0:0:
24,212,13105,1,2,0:0:0:0:
180,256,13438,1,2,0:0:0:0:
180,256,13605,1,6,0:0:0:0:
284,136,13938,6,0,B|320:120|376:120,1,80
456,164,14271,2,0,B|472:128|459:70,1,80
368,36,14605,2,0,B|280:20|188:24,1,160,4|0,0:0|0:0,0:0:0:0:
136,100,15105,2,0,B|96:88|73:39,2,80
256,152,15605,5,0,0:0:0:0:
256,152,15771,1,0,0:0:0:0:
256,152,15938,1,0,0:0:0:0:
376,100,16105,2,0,B|416:88|439:39,2,80,4|4|4,0:0|0:0|0:0,0:0:0:0:
340,184,16605,6,0,B|312:232|348:272|348:272|352:320|296:356,1,180.000006866455,4|2,0:0|0:0,0:0:0:0:
80,204,17605,2,0,B|68:264|94:340,2,120.000004577637,0|2|8,0:0|0:0|0:0,0:0:0:0:
132,132,18438,1,2,0:0:0:0:
132,132,18605,2,0,B|192:152|256:124,1,120.000004577637,2|0,0:0|0:0,0:0:0:0:
244,36,19104,2,0,B|184:16|120:44,1,120.000004577637,2|2,0:0|0:0,0:0:0:0:
52,92,19604,2,0,B|28:156|72:204,2,120.000004577637,0|2|8,0:0|0:0|0:0,0:0:0:0:
136,252,20604,6,0,B|196:232|256:236,1,120.000004577637,2|0,0:0|0:0,0:0:0:0:
328,288,21104,2,0,B|292:236|312:163,1,120.000004577637,2|0,0:0|0:0,0:0:0:0:
376,112,21604,2,0,B|514:119,2,120.000004577637,0|2|8,0:0|0:0|0:0,0:0:0:0:
292,144,22438,1,2,0:0:0:0:
292,144,22604,2,0,B|228:156|172:124,1,120.000004577637,2|0,0:0|0:0,0:0:0:0:
124,52,23104,2,0,B|128:116|84:168,1,120.000004577637,2|2,0:0|0:0,0:0:0:0:
20,264,23604,1,0,0:0:0:0:
20,264,23938,5,2,0:0:0:0:
88,324,24104,1,0,0:0:0:0:
176,332,24271,1,0,0:0:0:0:
256,292,24438,1,0,0:0:0:0:
304,216,24604,6,0,B|322:153|302:97,1,120.000004577637,4|0,0:0|0:0,0:0:0:0:
209,97,25104,2,0,B|189:153|208:216,1,120.000004577637,2|0,0:0|0:0,0:0:0:0:
256,292,25604,5,0,0:0:0:0:
432,260,25938,1,2,0:0:0:0:
476,84,26271,2,0,B|444:80|396:68,1,60.0000022888184,8|2,0:0|0:0,0:0:0:0:
352,136,26604,6,0,B|288:148|232:116,1,120.000004577637,2|0,0:0|0:0,0:0:0:0:
156,76,27104,2,0,B|170:205,1,120.000004577637,2|0,0:0|0:0,0:0:0:0:
92,240,27604,2,0,B|79:120,2,120.000004577637,0|2|8,0:0|0:0|0:0,0:0:0:0:
256,320,28604,6,0,B|316:336|380:303,1,120.000004577637,2|0,0:0|0:0,0:0:0:0:
436,240,29104,2,0,B|452:180|419:116,1,120.000004577637,2|0,0:0|0:0,0:0:0:0:
344,84,29604,2,0,B|284:68|220:101,1,120.000004577637
164,160,30104,2,0,B|148:220|181:284,1,120.000004577637,2|0,0:0|0:0,0:0:0:0:
256,320,30604,6,0,B|316:305|357:246,1,120.000004577637,2|0,0:0|0:0,0:0:0:0:
400,176,31104,1,2,0:0:0:0:
484,140,31271,2,0,B|496:176|481:222,2,60.0000022888184,0|2|0,0:0|0:0|0:0,0:0:0:0:
332,44,31938,5,0,0:0:0:0:
332,44,32104,1,0,0:0:0:0:
244,68,32271,1,0,0:0:0:0:
244,68,32438,1,0,0:0:0:0:
156,92,32604,6,0,B|33:74,1,120.000004577637,4|0,0:0|0:0,0:0:0:0:
24,164,33104,2,0,B|142:181,1,120.000004577637,2|0,0:0|0:0,0:0:0:0:
232,192,33604,2,0,B|260:184|284:164,1,60.0000022888184
340,92,33938,2,0,B|364:108|376:140,1,60.0000022888184,2|0,0:0|0:0,0:0:0:0:
392,228,34271,2,0,B|420:220|444:200,1,60.0000022888184,8|2,0:0|0:0,0:0:0:0:
484,120,34604,6,0,B|472:56|420:24,1,120.000004577637,2|0,0:0|0:0,0:0:0:0:
328,32,35104,2,0,B|280:76|282:137,1,120.000004577637,2|2,0:0|0:0,0:0:0:0:
256,224,35604,2,0,B|128:236,2,120.000004577637,0|2|8,0:0|0:0|0:0,0:0:0:0:
416,304,36604,6,0,B|440:248|419:184,1,120.000004577637,2|0,0:0|0:0,0:0:0:0:
352,128,37104,2,0,B|291:119|235:155,1,120.000004577637,2|0,0:0|0:0,0:0:0:0:
172,216,37604,2,0,B|140:220|108:208,1,60.0000022888184
40,156,37938,1,2,0:0:0:0:
96,88,38104,2,0,B|156:100|212:64,1,120.000004577637,0|2,0:0|0:0,0:0:0:0:
301,64,38604,6,0,B|356:100|416:88,1,120.000004577637,2|0,0:0|0:0,0:0:0:0:
476,156,39104,2,0,B|479:216|439:268,1,120.000004577637,2|2,0:0|0:0,0:0:0:0:
348,344,39605,1,0,0:0:0:0:
348,344,39938,5,2,0:0:0:0:
264,316,40105,1,0,0:0:0:0:
220,236,40271,1,0,0:0:0:0:
236,148,40438,1,0,0:0:0:0:
312,100,40605,6,0,B|340:160|300:220,1,120.000004577637,4|0,0:0|0:0,0:0:0:0:
220,236,41105,2,0,B|157:213|143:142,1,120.000004577637,2|0,0:0|0:0,0:0:0:0:
92,76,41605,2,0,B|32:56,1,60.0000022888184
36,148,41938,2,0,B|19:218,1,60.0000022888184,2|0,0:0|0:0,0:0:0:0:
60,288,42271,2,0,B|116:306,1,60.0000022888184,8|2,0:0|0:0,0:0:0:0:
204,332,42605,6,0,B|264:348|324:308,1,120.000004577637,2|0,0:0|0:0,0:0:0:0:
385,247,43105,2,0,B|401:119,1,120.000004577637,2|2,0:0|0:0,0:0:0:0:
325,79,43605,2,0,B|310:198,2,120.000004577637,0|2|8,0:0|0:0|0:0,0:0:0:0:
128,280,44605,6,0,B|257:264,1,120.000004577637,2|0,0:0|0:0,0:0:0:0:
324,312,45105,2,0,B|348:252|308:196,1,120.000004577637,2|0,0:0|0:0,0:0:0:0:
202,185,45605,2,0,B|164:132|188:72,1,120.000004577637
264,118,46105,2,0,B|384:104,1,120.000004577637,2|0,0:0|0:0,0:0:0:0:
472,92,46605,5,4,0:0:0:0:
420,264,46938,1,2,0:0:0:0:
420,264,47105,1,2,0:0:0:0:
420,264,47271,1,2,0:0:0:0:
420,264,47438,1,2,0:0:0:0:
420,264,47605,1,2,0:0:0:0:
140,72,48605,6,0,B|100:88|55:85,2,80,4|0|0,0:0|0:0|0:0,0:0:0:0:
244,56,49105,2,0,B|288:128|276:228,1,160,8|8,0:0|0:0,0:0:0:0:
256,312,49605,1,4,0:0:0:0:
256,312,49938,6,0,B|212:328|170:324,1,80,8|0,0:0|0:0,0:0:0:0:
120,240,50271,2,0,B|128:196|176:172,1,80,8|8,0:0|0:0,0:0:0:0:
264,140,50605,2,0,B|344:160|424:112,1,160,8|0,0:0|0:0,0:0:0:0:
396,16,51105,2,0,B|316:-4|236:44,1,160,8|8,0:0|0:0,0:0:0:0:
168,112,51605,6,0,B|188:280,1,160,4|8,0:0|0:0,0:0:0:0:
256,348,52105,1,8,0:0:0:0:
356,320,52271,2,8,B|400:304,3,40
440,284,52605,6,0,B|478:240|459:171|404:152,1,160,8|0,0:0|0:0,0:0:0:0:
312,104,53105,2,0,B|355:142|424:123|443:68,1,160,8|8,0:0|0:0,0:0:0:0:
356,12,53605,1,4,0:0:0:0:
188,136,53938,6,0,B|144:148|96:120,1,80,8|0,0:0|0:0,0:0:0:0:
60,220,54271,2,0,B|102:235|126:285,1,80,8|8,0:0|0:0,0:0:0:0:
208,328,54605,2,0,B|288:356|364:304,1,160,4|8,0:0|0:0,0:0:0:0:
424,224,55105,2,0,B|452:144|400:68,1,160,8|0,0:0|0:0,0:0:0:0:
304,36,55605,5,4,0:0:0:0:
304,36,55771,1,4,0:0:0:0:
204,64,55938,2,0,B|160:56,3,40,4|4|4|4,0:0|0:0|0:0|0:0,0:0:0:0:
112,52,56271,2,0,B|88:88|84:152,1,80,4|4,0:0|0:0,0:0:0:0:
100,264,56605,6,0,B|188:288|256:244,1,160,4|0,0:0|0:0,0:0:0:0:
304,152,57105,2,0,B|360:224|344:308,1,160,8|8,0:0|0:0,0:0:0:0:
256,360,57605,1,4,0:0:0:0:
56,296,57938,6,0,B|48:252|68:196,1,80,8|0,0:0|0:0,0:0:0:0:
164,220,58271,2,0,B|168:180|140:132,1,80,8|8,0:0|0:0,0:0:0:0:
52,96,58605,2,0,B|136:120|208:64,1,160,4|0,0:0|0:0,0:0:0:0:
308,67,59105,2,0,B|376:120|460:96,1,160,8|0,0:0|0:0,0:0:0:0:
485,196,59605,6,0,B|468:235|430:251,1,80,4|0,0:0|0:0,0:0:0:0:
329,227,59938,2,0,B|303:192|308:151,1,80,8|0,0:0|0:0,0:0:0:0:
384,75,60271,2,0,B|424:70|459:95,1,80,8|0,0:0|0:0,0:0:0:0:
485,196,60605,6,0,B|503:249|460:307|402:304,1,160,4|0,0:0|0:0,0:0:0:0:
300,312,61105,2,0,B|252:344|196:312|196:312|172:312|138:339,1,160,4|8,0:0|0:0,0:0:0:0:
44,328,61605,2,0,B|40:288|60:244,1,80,4|0,0:0|0:0,0:0:0:0:
152,208,61938,2,0,B|156:168|138:129,1,80,8|8,0:0|0:0,0:0:0:0:
52,76,62271,6,0,B|96:114|165:95|184:40,2,160,4|4|0,0:0|0:0|0:0,0:0:0:0:
64,180,63105,2,0,B|148:184|216:140,1,160,4|0,0:0|0:0,0:0:0:0:
312,100,63605,2,0,B|352:96|400:124,1,80,8|4,0:0|0:0,0:0:0:0:
472,180,63938,2,0,B|494:146|493:104,2,80,4|4|8,0:0|0:0|0:0,0:0:0:0:
332,336,64605,6,0,B|256:300|176:320,1,160,4|0,0:0|0:0,0:0:0:0:
76,352,65105,2,0,B|44:188,1,160,8|8,0:0|0:0,0:0:0:0:
68,92,65605,1,4,0:0:0:0:
68,92,65938,6,0,B|108:96|160:72,1,80,8|0,0:0|0:0,0:0:0:0:
248,52,66271,1,8,0:0:0:0:
248,52,66438,1,8,0:0:0:0:
336,104,66605,6,0,B|380:142|449:123|467:69,1,160,8|0,0:0|0:0,0:0:0:0:
388,28,67105,2,0,B|420:204,1,160,8|0,0:0|0:0,0:0:0:0:
432,288,67605,1,4,0:0:0:0:
432,288,67938,6,0,B|392:288|348:308,1,80,8|8,0:0|0:0,0:0:0:0:
256,336,68271,2,8,B|212:328,3,40
164,324,68605,2,0,B|128:344|80:344,2,80,8|0|0,0:0|0:0|0:0,0:0:0:0:
228,244,69105,2,0,B|252:164|204:88,1,160,8|8,0:0|0:0,0:0:0:0:
112,44,69605,1,4,0:0:0:0:
112,44,69938,6,0,B|104:88|124:128,1,80,8|0,0:0|0:0,0:0:0:0:
132,224,70271,2,0,B|88:232|48:212,1,80,8|8,0:0|0:0,0:0:0:0:
88,312,70605,2,0,B|132:350|201:331|219:277,1,160,4|0,0:0|0:0,0:0:0:0:
256,180,71105,2,0,B|274:126|343:107|387:145,1,160,8|8,0:0|0:0,0:0:0:0:
460,220,71605,5,4,0:0:0:0:
460,220,71771,1,0,0:0:0:0:
420,316,71938,1,4,0:0:0:0:
420,316,72105,1,4,0:0:0:0:
324,352,72271,2,0,B|280:360|244:340,1,80,4|4,0:0|0:0,0:0:0:0:
152,300,72605,6,0,B|136:124,1,160,4|0,0:0|0:0,0:0:0:0:
128,36,73105,2,0,B|176:5|242:34|252:91,1,160,8|8,0:0|0:0,0:0:0:0:
276,192,73605,2,0,B|310:210|354:198,1,80,4|0,0:0|0:0,0:0:0:0:
440,136,73938,2,0,B|464:172|456:238,1,80,8|0,0:0|0:0,0:0:0:0:
416,308,74271,1,8,0:0:0:0:
416,308,74438,1,8,0:0:0:0:
316,332,74605,6,0,B|244:300|148:320,1,160,4|0,0:0|0:0,0:0:0:0:
56,336,75105,2,0,B|2:317|-16:248|21:204,1,160,8|0,0:0|0:0,0:0:0:0:
92,128,75605,2,0,B|104:32,1,80,4|0,0:0|0:0,0:0:0:0:
188,108,75938,2,0,B|178:187,1,80,8|0,0:0|0:0,0:0:0:0:
280,160,76271,2,0,B|292:64,1,80,8|8,0:0|0:0,0:0:0:0:
392,64,76605,6,0,B|434:103|422:174|370:198,1,160,4|0,0:0|0:0,0:0:0:0:
272,236,77105,2,0,B|192:216|116:252,1,160,4|8,0:0|0:0,0:0:0:0:
128,356,77605,2,0,B|208:376|284:340,1,160,4|8,0:0|0:0,0:0:0:0:
364,272,78105,1,8,0:0:0:0:
444,204,78271,2,0,B|460:164|444:104,1,80,4|0,0:0|0:0,0:0:0:0:
368,60,78605,6,0,B|394:29|437:22,2,80,8|8|0,0:0|0:0|0:0,0:0:0:0:
292,132,79104,2,0,B|208:164|136:112,1,160,4|0,0:0|0:0,0:0:0:0:
60,48,79604,1,8,0:0:0:0:
60,48,79771,1,8,0:0:0:0:
48,152,79938,2,0,B|68:252,1,80,4|4,0:0|0:0,0:0:0:0:
144,296,80271,2,0,B|159:217,2,80,4|4|4,0:0|0:0|0:0,0:0:0:0:
256,192,80771,12,4,82604,0:0:0:0:
140,80,88604,6,0,B|96:80|60:96,2,80,2|0|0,0:0|0:0|0:0,0:0:0:0:
224,124,89604,2,0,B|268:128|316:100,1,80,2|0,0:0|0:0,0:0:0:0:
380,52,90271,1,0,0:0:0:0:
444,124,90604,6,0,B|448:168|440:208,1,80,2|0,0:0|0:0,0:0:0:0:
436,252,91104,1,0,0:0:0:0:
428,300,91271,2,0,B|392:316|344:316,1,80,0|2,0:0|0:0,0:0:0:0:
256,320,91938,1,0,0:0:0:0:
176,268,92271,1,0,0:0:0:0:
116,196,92604,6,0,B|84:228|84:276,2,80,2|0|0,0:0|0:0|0:0,0:0:0:0:
184,128,93604,1,2,0:0:0:0:
256,192,93938,1,0,0:0:0:0:
328,128,94271,1,0,0:0:0:0:
424,136,94604,6,0,B|428:92|396:56,2,80,2|0|0,0:0|0:0|0:0,0:0:0:0:
368,216,95604,2,0,B|364:260|396:296,2,80,2|0|0,0:0|0:0|0:0,0:0:0:0:
328,128,96604,6,0,B|284:136|248:116,1,80,2|0,0:0|0:0,0:0:0:0:
172,60,97271,1,0,0:0:0:0:
132,148,97604,2,0,B|92:128|80:84,2,80,2|0|0,0:0|0:0|0:0,0:0:0:0:
212,204,98604,6,0,B|216:248|196:288,1,80,2|0,0:0|0:0,0:0:0:0:
156,304,99104,2,0,B|108:312,1,40
36,256,99604,2,0,B|24:168,2,80,2|0|0,0:0|0:0|0:0,0:0:0:0:
112,200,100604,6,0,B|96:76,2,120,2|0|2,0:0|0:0|0:0,0:0:0:0:
136,344,102104,1,0,0:0:0:0:
276,316,102604,2,0,B|300:276|340:264|376:272|404:300|404:300|452:300|476:232,1,240,2|0,0:0|0:0,0:0:0:0:
452,104,103938,5,4,0:0:0:0:
452,104,104104,1,0,0:0:0:0:
372,64,104271,1,4,0:0:0:0:
372,64,104438,1,4,0:0:0:0:
288,96,104604,6,0,B|228:116|152:80,1,120.000004577637,4|0,0:0|0:0,0:0:0:0:
84,68,105104,2,0,B|44:120|64:192,1,120.000004577637,2|0,0:0|0:0,0:0:0:0:
120,248,105604,2,0,B|152:248|184:232,1,60.0000022888184
268,216,105938,2,0,B|256:185|217:157,1,60.0000022888184,2|0,0:0|0:0,0:0:0:0:
168,108,106271,2,0,B|147:130|143:162,1,60.0000022888184,8|0,0:0|0:0,0:0:0:0:
120,248,106604,6,0,B|140:276|144:300|144:300|216:320,1,120.000004577637,2|0,0:0|0:0,0:0:0:0:
308,316,107104,2,0,B|368:300|368:300|372:276|392:248,1,120.000004577637,2|2,0:0|0:0,0:0:0:0:
404,160,107604,2,0,B|448:160|468:180|468:180|496:236,2,120.000004577637,0|2|8,0:0|0:0|0:0,0:0:0:0:
228,192,108604,6,0,B|164:212|108:172,1,120.000004577637,2|0,0:0|0:0,0:0:0:0:
68,100,109104,1,2,0:0:0:0:
140,44,109271,2,0,B|172:36|199:40,1,60.0000022888184
288,48,109604,2,0,B|324:100|300:168,2,120.000004577637,0|2|8,0:0|0:0|0:0,0:0:0:0:
224,112,110438,1,2,0:0:0:0:
188,192,110604,6,0,B|165:254|201:306,1,120.000004577637,2|2,0:0|0:0,0:0:0:0:
310,306,111104,2,0,B|346:254|324:192,1,120.000004577637,2|2,0:0|0:0,0:0:0:0:
256,96,111604,1,0,0:0:0:0:
256,96,111938,5,2,0:0:0:0:
188,36,112104,1,0,0:0:0:0:
108,80,112271,1,0,0:0:0:0:
132,168,112438,1,0,0:0:0:0:
220,180,112604,6,0,B|244:240|212:299,1,120.000004577637,4|2,0:0|0:0,0:0:0:0:
148,356,113104,2,0,B|208:328|268:344,1,120.000004577637,2|0,0:0|0:0,0:0:0:0:
320,272,113604,2,0,B|292:212|308:152,2,120.000004577637,0|2|8,0:0|0:0|0:0,0:0:0:0:
396,320,114438,1,2,0:0:0:0:
468,268,114604,6,0,B|496:208|480:148,1,120.000004577637,2|2,0:0|0:0,0:0:0:0:
408,96,115104,2,0,B|340:108|288:44,1,120.000004577637,2|2,0:0|0:0,0:0:0:0:
212,57,115604,2,0,B|172:108|104:96,1,120.000004577637,0|2,0:0|0:0,0:0:0:0:
36,156,116104,2,0,B|48:276,1,120.000004577637
104,348,116604,6,0,B|164:364|220:328,1,120.000004577637,2|0,0:0|0:0,0:0:0:0:
304,256,117104,2,0,B|316:136,1,120.000004577637,2|0,0:0|0:0,0:0:0:0:
196,136,117604,2,0,B|208:256,1,120.000004577637
293,328,118104,2,0,B|348:364|408:348,1,120.000004577637,2|0,0:0|0:0,0:0:0:0:
472,284,118604,5,4,0:0:0:0:
432,108,118938,1,2,0:0:0:0:
432,108,119104,1,2,0:0:0:0:
432,108,119271,1,2,0:0:0:0:
432,108,119438,1,2,0:0:0:0:
432,108,119604,1,2,0:0:0:0:
216,76,120604,6,0,B|236:160|200:244,1,160,4|0,0:0|0:0,0:0:0:0:
128,304,121104,2,0,B|84:304|44:324,2,80,8|0|8,0:0|0:0|0:0,0:0:0:0:
228,332,121604,2,0,B|312:356|388:308,2,160,4|8|8,0:0|0:0|0:0,0:0:0:0:
128,304,122438,1,8,0:0:0:0:
56,228,122604,6,0,B|36:60,1,160,8|0,0:0|0:0,0:0:0:0:
140,60,123104,2,0,B|220:88|296:44,1,160,8|0,0:0|0:0,0:0:0:0:
396,60,123604,2,0,B|408:104|388:140,1,80,4|0,0:0|0:0,0:0:0:0:
304,196,123938,2,0,B|292:152|312:116,1,80,8|0,0:0|0:0,0:0:0:0:
464,168,124271,2,8,B|448:228,3,40
440,256,124604,6,0,B|364:260|272:276,1,160,8|8,0:0|0:0,0:0:0:0:
184,308,125104,2,0,B|151:331|107:323,2,80,8|0|8,0:0|0:0|0:0,0:0:0:0:
196,204,125604,2,0,B|113:192|40:240,2,160,4|8|8,0:0|0:0|0:0,0:0:0:0:
288,252,126438,1,8,0:0:0:0:
388,232,126604,6,0,B|432:168|412:72,1,160,4|0,0:0|0:0,0:0:0:0:
221,50,127104,2,0,B|177:114|196:204,1,160,8|8,0:0|0:0,0:0:0:0:
288,252,127604,1,4,0:0:0:0:
288,252,127771,1,4,0:0:0:0:
200,308,127938,2,0,B|176:308|148:320,3,40,4|4|4|4,0:0|0:0|0:0|0:0,0:0:0:0:
108,320,128271,2,4,B|88:308|72:276,3,40,4|4|4|4,0:0|0:0|0:0|0:0,0:0:0:0:
48,252,128604,6,0,B|10:208|29:139|83:121,1,160,4|0,0:0|0:0,0:0:0:0:
188,132,129104,2,0,B|272:156|352:112,1,160,8|8,0:0|0:0,0:0:0:0:
432,60,129604,1,4,0:0:0:0:
432,60,129938,6,0,B|456:96|444:140,1,80,8|0,0:0|0:0,0:0:0:0:
356,188,130271,2,0,B|344:228|368:264,1,80,8|8,0:0|0:0,0:0:0:0:
456,320,130604,2,0,B|438:374|369:393|325:355,1,160,4|0,0:0|0:0,0:0:0:0:
256,276,131104,2,0,B|256:112,1,160,8|0,0:0|0:0,0:0:0:0:
168,60,131604,6,0,B|80:76,1,80,4|0,0:0|0:0,0:0:0:0:
40,168,131938,2,0,B|118:153,1,80,8|0,0:0|0:0,0:0:0:0:
200,220,132271,2,0,B|112:236,1,80,8|0,0:0|0:0,0:0:0:0:
124,340,132604,6,0,B|168:378|237:359|255:305,1,160,4|0,0:0|0:0,0:0:0:0:
296,208,133104,2,0,B|340:170|409:189|427:243,1,160,4|8,0:0|0:0,0:0:0:0:
324,336,133604,2,0,B|332:292|357:257,1,80,4|0,0:0|0:0,0:0:0:0:
399,123,133938,2,0,B|436:132|464:168,2,80,8|8|4,0:0|0:0|0:0,0:0:0:0:
164,64,134604,6,0,B|182:118|251:137|295:99,1,160,4|0,0:0|0:0,0:0:0:0:
244,28,135104,2,0,B|204:192,1,160,4|0,0:0|0:0,0:0:0:0:
172,280,135604,2,0,B|136:304|96:300,1,80,4|4,0:0|0:0,0:0:0:0:
28,220,135938,2,0,B|64:196|104:200,2,80,4|0|8,0:0|0:0|0:0,0:0:0:0:
232,328,136604,6,0,B|276:366|345:347|363:293,1,160,4|0,0:0|0:0,0:0:0:0:
400,196,137104,2,0,B|444:196|472:228,2,80,8|0|8,0:0|0:0|0:0,0:0:0:0:
356,100,137604,2,0,B|374:46|443:27|487:65,2,160,4|8|8,0:0|0:0|0:0,0:0:0:0:
276,168,138438,1,8,0:0:0:0:
200,236,138604,6,0,B|156:274|87:255|69:201,1,160,8|0,0:0|0:0,0:0:0:0:
76,96,139104,2,0,B|106:46|178:44|211:91,1,160,8|8,0:0|0:0,0:0:0:0:
276,168,139604,2,0,B|316:176|356:160,1,80,4|0,0:0|0:0,0:0:0:0:
448,112,139938,1,8,0:0:0:0:
448,112,140104,1,8,0:0:0:0:
476,212,140271,2,8,B|480:236|468:272,3,40
468,304,140604,6,0,B|404:356|316:340,1,160,8|0,0:0|0:0,0:0:0:0:
256,256,141104,2,0,B|256:76,1,160,8|8,0:0|0:0,0:0:0:0:
160,52,141604,1,4,0:0:0:0:
36,220,141938,1,8,0:0:0:0:
192,356,142271,2,0,B|232:364|272:344,1,80,8|8,0:0|0:0,0:0:0:0:
336,264,142604,6,0,B|372:192|351:104,1,160,4|0,0:0|0:0,0:0:0:0:
159,108,143104,2,0,B|140:192|176:264,1,160,8|8,0:0|0:0,0:0:0:0:
256,196,143604,2,0,B|256:112,1,80,4|0,0:0|0:0,0:0:0:0:
192,32,143938,2,0,B|148:20|112:44,2,80,4|4|4,0:0|0:0|0:0,0:0:0:0:
296,52,144438,1,4,0:0:0:0:
376,120,144604,6,0,B|408:200|364:296,1,160,4|0,0:0|0:0,0:0:0:0:
292,344,145104,2,0,B|248:382|179:363|161:309,1,160,8|8,0:0|0:0,0:0:0:0:
108,220,145604,2,0,B|152:182|221:201|239:255,2,160,4|8|8,0:0|0:0|0:0,0:0:0:0:
16,172,146438,1,8,0:0:0:0:
48,72,146604,6,0,B|132:92|208:52,1,160,4|8,0:0|0:0,0:0:0:0:
308,54,147104,2,0,B|380:92|464:72,1,160,8|0,0:0|0:0,0:0:0:0:
468,176,147604,2,0,B|480:216|460:255,1,80,4|0,0:0|0:0,0:0:0:0:
368,300,147938,2,0,B|356:260|375:220,1,80,8|0,0:0|0:0,0:0:0:0:
300,152,148271,2,0,B|260:136|220:140,1,80,8|0,0:0|0:0,0:0:0:0:
116,136,148604,6,0,B|78:180|97:249|151:267,1,160,4|0,0:0|0:0,0:0:0:0:
212,352,149104,2,0,B|266:334|285:265|247:221,1,160,4|8,0:0|0:0,0:0:0:0:
200,128,149604,2,0,B|192:84|204:48,1,80,4|0,0:0|0:0,0:0:0:0:
308,48,149938,2,0,B|320:84|312:128,1,80,8|8,0:0|0:0,0:0:0:0:
336,228,150271,2,0,B|376:240|428:216,1,80,4|0,0:0|0:0,0:0:0:0:
464,316,150604,6,0,B|384:296|308:328,1,160,8|0,0:0|0:0,0:0:0:0:
204,328,151104,2,0,B|160:260|176:168,1,160,4|0,0:0|0:0,0:0:0:0:
256,108,151604,1,8,0:0:0:0:
256,108,151771,1,8,0:0:0:0:
356,72,151938,1,4,0:0:0:0:
356,72,152104,1,4,0:0:0:0:
456,104,152271,2,0,B|464:148|452:188,1,80,4|4,0:0|0:0,0:0:0:0:
376,256,152604,6,0,B|394:310|463:329|507:291,2,160,4|0|0,0:0|0:0|0:0,0:0:0:0:
160,296,153604,2,0,B|172:256|168:188,1,80,0|0,0:0|0:0,0:0:0:0:
168,112,153938,1,0,0:0:0:0:
168,112,154104,1,0,0:0:0:0:
256,60,154271,1,0,0:0:0:0:
256,60,154438,1,0,0:0:0:0:
344,112,154604,6,0,B|380:192|344:268,2,160,4|0|0,0:0|0:0|0:0,0:0:0:0:
148,184,155604,2,0,B|140:228|156:288,1,80,0|0,0:0|0:0,0:0:0:0:
196,360,155938,1,4,0:0:0:0:
300,368,156104,1,4,0:0:0:0:
392,320,156271,1,4,0:0:0:0:
420,220,156438,1,4,0:0:0:0:
368,132,156604,6,0,B|314:150|295:219|333:263,2,160,4|0|0,0:0|0:0|0:0,0:0:0:0:
168,208,157605,2,0,B|128:216|84:196,1,80,0|0,0:0|0:0,0:0:0:0:
60,100,157938,1,0,0:0:0:0:
60,100,158105,1,0,0:0:0:0:
160,80,158271,1,0,0:0:0:0:
160,80,158438,1,0,0:0:0:0:
232,156,158605,6,0,B|270:200|251:269|197:287,2,160,4|0|0,0:0|0:0|0:0,0:0:0:0:
440,184,159605,2,0,B|464:152|464:88,1,80,0|4,0:0|0:0,0:0:0:0:
348,180,159938,2,0,B|347:223|371:255,1,80,4|4,0:0|0:0,0:0:0:0:
416,356,160271,1,0,0:0:0:0:
304,340,160438,1,0,0:0:0:0:
256,236,160605,6,0,B|256:56,2,160,4|0|0,0:0|0:0|0:0,0:0:0:0:
68,332,161605,2,0,B|64:292|60:240,1,80,0|0,0:0|0:0,0:0:0:0:
48,148,161938,1,0,0:0:0:0:
48,148,162105,1,8,0:0:0:0:
136,92,162271,1,0,0:0:0:0:
136,92,162438,1,0,0:0:0:0:
240,108,162605,6,0,B|324:136|392:80,2,160,4|0|0,0:0|0:0|0:0,0:0:0:0:
128,284,163605,2,0,B|168:272|212:276,1,80,0|0,0:0|0:0,0:0:0:0:
308,296,163938,1,4,0:0:0:0:
412,288,164105,1,4,0:0:0:0:
468,200,164271,1,4,0:0:0:0:
456,96,164438,1,4,0:0:0:0:
356,64,164605,6,0,B|320:136|352:224,2,160,4|0|0,0:0|0:0|0:0,0:0:0:0:
152,96,165605,2,0,B|172:132|164:176,1,80,0|0,0:0|0:0,0:0:0:0:
112,264,165938,1,0,0:0:0:0:
28,324,166105,2,0,B|8:288|16:244,2,80,8|8|0,0:0|0:0|0:0,0:0:0:0:
124,360,166605,6,0,B|208:376|284:336,1,160,4|4,0:0|0:0,0:0:0:0:
364,276,167105,1,4,0:0:0:0:
396,176,167271,1,4,0:0:0:0:
372,76,167438,1,4,0:0:0:0:
276,36,167605,6,0,B|244:92|256:152,1,120,0|0,0:0|0:0,0:0:0:0:
256,204,167938,2,0,B|224:236|184:244,1,80,0|0,0:0|0:0,0:0:0:0:
88,212,168271,1,0,0:0:0:0:
88,212,168438,1,0,0:0:0:0:
4,272,168605,6,0,B|22:326|91:345|135:307,1,160,4|0,0:0|0:0,0:0:0:0:
240,304,169105,1,0,0:0:0:0:
336,340,169271,2,0,B|520:308,1,160,0|0,0:0|0:0,0:0:0:0:
472,104,169938,1,0,0:0:0:0:
472,104,170105,1,0,0:0:0:0:
380,60,170271,1,0,0:0:0:0:
380,60,170438,1,0,0:0:0:0:
288,112,170605,6,0,B|204:148|136:100,1,160,4|0,0:0|0:0,0:0:0:0:
44,56,171105,1,0,0:0:0:0:
4,152,171271,2,0,B|-8:236|24:312,1,160,0|0,0:0|0:0,0:0:0:0:
228,332,171938,2,0,B|248:296|240:244,1,80,8|8,0:0|0:0,0:0:0:0:
164,184,172271,2,0,B|144:220|152:272,1,80,8|8,0:0|0:0,0:0:0:0:
328,300,172605,6,0,B|376:232|352:144,1,160,4|0,0:0|0:0,0:0:0:0:
308,52,173105,1,0,0:0:0:0:
212,92,173271,2,0,B|168:130|99:111|81:57,1,160,0|0,0:0|0:0,0:0:0:0:
56,264,173938,1,0,0:0:0:0:
56,264,174105,1,0,0:0:0:0:
156,232,174271,1,0,0:0:0:0:
156,232,174438,1,0,0:0:0:0:
256,264,174605,6,0,B|340:296|408:244,2,160,4|0|0,0:0|0:0|0:0,0:0:0:0:
108,116,175605,2,0,B|88:76|100:32,1,80,4|4,0:0|0:0,0:0:0:0:
200,68,175938,1,4,0:0:0:0:
200,68,176105,1,4,0:0:0:0:
256,156,176271,2,0,B|266:193|246:233,1,80,0|0,0:0|0:0,0:0:0:0:
172,304,176605,6,0,B|248:256|324:284,1,160,4|0,0:0|0:0,0:0:0:0:
424,320,177105,1,0,0:0:0:0:
488,236,177271,2,0,B|512:156|468:80,1,160,0|0,0:0|0:0,0:0:0:0:
256,84,177938,2,0,B|216:88|168:72,1,80,0|8,0:0|0:0,0:0:0:0:
92,132,178271,2,0,B|78:170|82:210,1,80,0|0,0:0|0:0,0:0:0:0:
132,304,178605,6,0,B|216:332|288:288,1,160,4|0,0:0|0:0,0:0:0:0:
364,220,179105,1,0,0:0:0:0:
452,168,179271,2,0,B|490:212|471:281|417:299,1,160
256,164,179938,2,4,B|256:84,1,80
164,132,180271,2,4,B|164:212,1,80
164,316,180605,6,0,B|120:354|51:335|33:281,1,160,4|0,0:0|0:0,0:0:0:0:
28,176,181105,1,0,0:0:0:0:
80,88,181271,2,0,B|134:106|153:175|115:219,1,160,0|0,0:0|0:0,0:0:0:0:
292,328,181938,2,0,B|332:336|376:320,1,80,8|0,0:0|0:0,0:0:0:0:
448,252,182271,1,0,0:0:0:0:
448,252,182438,1,0,0:0:0:0:
384,168,182605,6,0,B|340:206|271:187|253:133,1,160,4|0,0:0|0:0,0:0:0:0:
340,72,183105,1,0,0:0:0:0:
444,80,183271,2,0,B|498:98|517:167|479:211,2,160,0|0|0,0:0|0:0|0:0,0:0:0:0:
384,168,184105,1,0,0:0:0:0:
308,236,184271,2,0,B|228:260|148:220,1,160,0|4,0:0|0:0,0:0:0:0:
256,192,184771,12,2,186605,0:0:0:0:
256,192,186771,12,2,188605,0:0:0:0:
256,192,188771,12,8,190605,0:0:0:0:
