osu file format v12

[General]
AudioFilename: 1 - iv-Undetermined.mp3
AudioLeadIn: 1400
PreviewTime: 152599
Countdown: 0
SampleSet: Normal
StackLeniency: 0.7
Mode: 0
LetterboxInBreaks: 0
EpilepsyWarning: 1

[Editor]
DistanceSpacing: 1
BeatDivisor: 4
GridSize: 4

[Metadata]
Title:Togameru Kage
TitleUnicode:咎める翳
Artist:momori
ArtistUnicode:momori
Creator:cRyo[iceeicee]
Version:Easy
Source:
Tags:yuiko yuikonnu meis clauson the root of heads dastinia m3-28 OnosakiHito
BeatmapID:184722
BeatmapSetID:55926

[Difficulty]
HPDrainRate:1
CircleSize:3
OverallDifficulty:2
ApproachRate:3
SliderMultiplier:1
SliderTickRate:1

[Events]
//Background and Video events
0,0,"bg.jpg",0,0
//Break Periods
2,82804,87164
//Storyboard Layer 0 (Background)
Sprite,Background,TopLeft,"bg.jpg",0,0
//Storyboard Layer 1 (Fail)
//Storyboard Layer 2 (Pass)
//Storyboard Layer 3 (Foreground)
Sprite,Foreground,Centre,"sb\1.png",320,240 M,0,-1400,16599,320,240
Sprite,Foreground,Centre,"sb\2.png",320,240 M,0,31933,48599,320,240 F,0,46599,47599,1,0
Sprite,Foreground,Centre,"sb\3.png",320,240 M,0,16599,32599,320,240 F,0,31933,32599,1,0
Sprite,Foreground,Centre,"sb\4.png",320,240 F,0,48599,49599,1,0.5 F,0,50599,51599,1,0.5 F,0,52599,53599,1,0.5 F,0,54599,55599,1,0.5 F,0,56599,57599,1,0.5 F,0,58599,59599,1,0.5 F,0,60599,61599,1,0.5 F,0,62599,63599,1,0.5 F,0,63599,64266,1,0
Sprite,Foreground,Centre,"sb\5.png",320,240 F,0,64266,64599,0,1 F,0,64599,65599,1,0.5 F,0,66599,67599,1,0.5 F,0,68599,69599,1,0.5 F,0,70599,71599,1,0.5 F,0,72599,73599,1,0.5 F,0,74599,75599,1,0.5 F,0,76599,77599,1,0.5 F,0,78599,80599,1,0
Sprite,Foreground,Centre,"sb\1.png",320,240 M,0,82599,88599,320,240
Sprite,Foreground,Centre,"sb\6.png",320,240 M,0,103933,120599,320,240 F,0,118599,119599,1,0
Sprite,Foreground,Centre,"sb\7.png",320,240 M,0,88599,104599,320,240 F,0,103933,104599,1,0
Sprite,Foreground,Centre,"sb\8.png",320,240 F,0,120599,121599,1,0.5 F,0,122599,123599,1,0.5 F,0,124599,125599,1,0.5 F,0,126599,127599,1,0.5 F,0,128599,129599,1,0.5 F,0,130599,131599,1,0.5 F,0,132599,133599,1,0.5 F,0,134599,135599,1,0.5 F,0,135599,136266,1,0 F,0,136266,136599,0,1 F,0,136599,137599,1,0.5 F,0,138599,139599,1,0.5 F,0,140599,141599,1,0.5 F,0,142599,143599,1,0.5 F,0,144599,145599,1,0.5 F,0,146599,147599,1,0.5 F,0,148599,149599,1,0.5 F,0,150599,152599,1,0
Sprite,Foreground,Centre,"sb\1.png",320,240 F,0,152599,153599,1,0 F,0,154599,155599,1,0 F,0,156599,157599,1,0 F,0,158599,159599,1,0 F,0,160599,161599,1,0 F,0,162599,163599,1,0 F,0,164599,165599,1,0 F,0,166599,167599,1,0 F,0,168599,169599,1,0 F,0,170599,171599,1,0 F,0,172599,173599,1,0 F,0,174599,175599,1,0 F,0,176599,177599,1,0 F,0,178599,179599,1,0 F,0,180599,181599,1,0 F,0,182599,184599,1,0
Sprite,Foreground,Centre,"sb\9.png",320,240 F,0,190599,194599,1,0
Sprite,Foreground,Centre,"sb\white.jpg",320,240 F,0,16433,16599,0,1 M,0,16433,16933,320,240 F,0,16599,16933,1,0 F,0,48433,48599,0,1 M,0,48433,48933,320,240 F,0,48599,48933,1,0 F,0,82433,82599,0,1 M,0,82433,82933,320,240 F,0,82599,82933,1,0 F,0,87933,88599,0,1 M,0,87933,88933,320,240 F,0,88599,88933,1,0 F,0,120433,120599,0,1 M,0,120433,120933,320,240 F,0,120599,120933,1,0 F,0,152433,152599,0,1 M,0,152433,152933,320,240 F,0,152599,152933,1,0 F,0,190433,190599,0,1 M,0,190433,190933,320,240 F,0,190599,190933,1,0
//Storyboard Sound Samples
//Background Colour Transformations
3,100,163,162,255

[TimingPoints]
605,333.333333333333,3,1,0,55,1,0
688,-100,3,1,1,55,0,0
1871,-100,3,1,3,80,0,0
2521,-100,3,1,3,55,0,0
2688,-100,3,1,1,55,0,0
3938,-100,3,1,2,65,0,0
4271,-100,3,1,2,75,0,0
4604,-100,3,1,3,55,0,0
4688,-100,3,1,1,55,0,0
5771,-100,3,2,1,45,0,0
5938,-100,3,1,3,80,0,0
6604,-100,3,1,3,55,0,0
6688,-100,3,1,1,55,0,0
7771,-100,3,1,2,65,0,0
8271,-100,3,1,3,80,0,0
8604,-100,3,1,3,55,0,0
8688,-100,3,1,1,55,0,0
9771,-100,3,2,1,45,0,0
9938,-100,3,1,3,80,0,0
10604,-100,3,1,3,55,0,0
10688,-100,3,1,1,55,0,0
11938,-100,3,1,2,65,0,0
12271,-100,3,1,2,85,0,0
12604,-100,3,1,3,55,0,0
12688,-100,3,1,1,55,0,0
13938,-100,3,1,3,80,0,0
14604,-100,3,1,3,55,0,0
16604,-133.333333333333,3,1,3,45,0,0
17604,-117.647058823529,3,1,1,35,0,0
17704,-117.647058823529,3,2,2,35,0,0
18021,-117.647058823529,3,2,1,45,0,0
19604,-117.647058823529,3,1,1,35,0,0
19704,-117.647058823529,3,2,2,35,0,0
20104,-117.647058823529,3,2,1,45,0,0
21604,-117.647058823529,3,1,1,35,0,0
21704,-117.647058823529,3,2,2,35,0,0
22104,-117.647058823529,3,2,1,45,0,0
23604,-117.647058823529,3,1,1,35,0,0
23704,-117.647058823529,3,2,1,45,0,0
24104,-117.647058823529,3,1,1,45,0,0
24604,-117.647058823529,3,2,1,45,0,0
25604,-117.647058823529,3,1,1,35,0,0
25704,-117.647058823529,3,2,2,35,0,0
26104,-117.647058823529,3,2,1,45,0,0
27604,-117.647058823529,3,1,1,35,0,0
27704,-117.647058823529,3,2,2,35,0,0
28104,-117.647058823529,3,2,1,45,0,0
29604,-117.647058823529,3,1,1,35,0,0
29704,-117.647058823529,3,2,1,45,0,0
31604,-117.647058823529,3,1,1,35,0,0
31771,-117.647058823529,3,1,1,45,0,0
32271,-117.647058823529,3,1,2,45,0,0
32604,-117.647058823529,3,1,3,40,0,0
32704,-117.647058823529,3,2,1,45,0,0
33604,-117.647058823529,3,1,1,35,0,0
33704,-117.647058823529,3,2,2,35,0,0
34021,-117.647058823529,3,2,1,45,0,0
35604,-117.647058823529,3,1,1,35,0,0
35704,-117.647058823529,3,2,2,35,0,0
36104,-117.647058823529,3,2,1,45,0,0
37604,-117.647058823529,3,1,1,35,0,0
37704,-117.647058823529,3,2,2,35,0,0
38104,-117.647058823529,3,2,1,45,0,0
39188,-117.647058823529,3,2,1,5,0,0
39604,-117.647058823529,3,1,1,35,0,0
39704,-117.647058823529,3,2,1,45,0,0
40104,-117.647058823529,3,1,1,45,0,0
40438,-117.647058823529,3,1,1,30,0,0
40604,-117.647058823529,3,2,1,45,0,0
41604,-117.647058823529,3,1,1,35,0,0
41704,-117.647058823529,3,2,2,35,0,0
42104,-117.647058823529,3,2,1,45,0,0
43604,-117.647058823529,3,1,1,35,0,0
43704,-117.647058823529,3,2,1,45,0,0
43938,-117.647058823529,3,2,2,45,0,0
44038,-117.647058823529,3,2,1,45,0,0
45604,-117.647058823529,3,1,1,35,0,0
45704,-117.647058823529,3,2,1,45,0,0
46604,-117.647058823529,3,2,2,35,0,0
48604,-100,3,1,3,60,0,0
48688,-100,3,1,1,30,0,0
49604,-100,3,1,1,60,0,0
49704,-100,3,1,1,30,0,0
50604,-100,3,1,1,35,0,0
50704,-100,3,1,1,30,0,0
51604,-100,3,1,1,60,0,0
51704,-100,3,1,1,30,0,0
52604,-100,3,1,1,35,0,0
52704,-100,3,1,1,30,0,0
53604,-100,3,1,1,60,0,0
53704,-100,3,1,1,30,0,0
54604,-100,3,1,3,45,0,0
54704,-100,3,1,1,30,0,0
55521,-100,3,1,1,60,0,0
55938,-100,3,1,2,55,0,0
56521,-100,3,1,3,60,0,0
56688,-100,3,1,1,30,0,0
57604,-100,3,1,1,60,0,0
57704,-100,3,1,1,30,0,0
58604,-100,3,1,3,45,0,0
58704,-100,3,1,1,30,0,0
59604,-100,3,1,1,60,0,0
59704,-100,3,1,1,30,0,0
60604,-100,3,1,3,50,0,0
61104,-100,3,1,1,60,0,0
61204,-100,3,1,1,40,0,0
61604,-100,3,1,1,60,0,0
61704,-100,3,1,1,30,0,0
62271,-100,3,1,1,60,0,0
62371,-100,3,1,1,30,0,0
63104,-100,3,1,1,60,0,0
63771,-100,3,1,2,60,0,0
64188,-100,3,1,1,52,0,0
64438,-100,3,1,3,65,0,0
64688,-100,3,1,1,30,0,0
65604,-100,3,1,1,60,0,0
65704,-100,3,1,1,30,0,0
66604,-100,3,1,1,35,0,0
66704,-100,3,1,1,30,0,0
67604,-100,3,1,1,60,0,0
67704,-100,3,1,1,30,0,0
68604,-100,3,1,1,35,0,0
68704,-100,3,1,1,30,0,0
69604,-100,3,1,1,60,0,0
69704,-100,3,1,1,30,0,0
70604,-100,3,1,3,40,0,0
70704,-100,3,1,1,30,0,0
71604,-100,3,1,1,60,0,0
72021,-100,3,1,2,65,0,0
72521,-100,3,1,3,55,0,0
72688,-100,3,1,1,30,0,0
73604,-100,3,1,1,60,0,0
73704,-100,3,1,1,30,0,0
74604,-100,3,1,3,45,0,0
74704,-100,3,1,1,30,0,0
75604,-100,3,1,1,60,0,0
75704,-100,3,1,1,30,0,0
76604,-100,3,1,3,40,0,0
77104,-100,3,1,1,50,0,0
77204,-100,3,1,1,40,0,0
77604,-100,3,1,1,60,0,0
77704,-100,3,1,1,30,0,0
78271,-100,3,1,1,60,0,0
78371,-100,3,1,1,30,0,0
79104,-100,3,1,3,60,0,0
79438,-100,3,1,1,40,0,0
79938,-100,3,1,2,55,0,0
80521,-100,3,1,3,75,0,0
80771,-100,3,1,3,65,0,0
88604,-133.333333333333,3,2,2,30,0,0
90854,-133.333333333333,3,2,2,5,0,0
91104,-133.333333333333,3,1,3,20,0,0
91354,-133.333333333333,3,2,2,30,0,0
92854,-133.333333333333,3,2,2,5,0,0
93021,-133.333333333333,3,2,2,30,0,0
98854,-133.333333333333,3,2,2,5,0,0
99104,-100,3,1,3,20,0,0
99438,-133.333333333333,3,2,2,30,0,0
101188,-133.333333333333,3,2,2,5,0,0
101438,-133.333333333333,3,2,2,30,0,0
102771,-133.333333333333,3,2,1,15,0,0
103604,-133.333333333333,3,2,1,35,0,0
103938,-117.647058823529,3,1,1,45,0,0
104604,-133.333333333333,3,1,3,45,0,0
104771,-117.647058823529,3,2,1,45,0,0
105604,-117.647058823529,3,1,1,35,0,0
105704,-117.647058823529,3,2,1,45,0,0
105938,-117.647058823529,3,2,2,35,0,0
106038,-117.647058823529,3,2,1,45,0,0
107604,-117.647058823529,3,1,1,35,0,0
107938,-117.647058823529,3,2,2,35,0,0
108038,-117.647058823529,3,2,1,45,0,0
109604,-117.647058823529,3,1,1,35,0,0
109938,-117.647058823529,3,2,2,35,0,0
110038,-117.647058823529,3,2,1,45,0,0
111604,-117.647058823529,3,1,1,35,0,0
111704,-117.647058823529,3,2,1,45,0,0
112104,-117.647058823529,3,1,1,35,0,0
112604,-117.647058823529,3,2,1,45,0,0
113604,-117.647058823529,3,1,1,35,0,0
113938,-117.647058823529,3,2,2,35,0,0
114038,-117.647058823529,3,2,1,45,0,0
115604,-117.647058823529,3,1,1,35,0,0
115938,-117.647058823529,3,2,2,35,0,0
116038,-117.647058823529,3,2,1,45,0,0
117604,-117.647058823529,3,1,1,35,0,0
117704,-117.647058823529,3,2,1,45,0,0
118604,-117.647058823529,3,2,2,35,0,0
120604,-100,3,1,3,50,0,0
120688,-100,3,1,1,30,0,0
121604,-100,3,1,1,60,0,0
121704,-100,3,1,1,30,0,0
122604,-100,3,1,1,35,0,0
122704,-100,3,1,1,30,0,0
123604,-100,3,1,1,60,0,0
123704,-100,3,1,1,30,0,0
124604,-100,3,1,1,35,0,0
124704,-100,3,1,1,30,0,0
125604,-100,3,1,1,60,0,0
125704,-100,3,1,1,30,0,0
126604,-100,3,1,3,60,0,0
126704,-100,3,1,1,30,0,0
127604,-100,3,1,1,60,0,0
127938,-100,3,1,2,50,0,0
128271,-100,3,1,2,45,0,0
128604,-100,3,1,3,50,0,0
128771,-100,3,1,1,30,0,0
129604,-100,3,1,1,60,0,0
129704,-100,3,1,1,30,0,0
130604,-100,3,1,3,45,0,0
130704,-100,3,1,1,30,0,0
131604,-100,3,1,1,60,0,0
131704,-100,3,1,1,30,0,0
132604,-100,3,1,3,50,0,0
133104,-100,3,1,1,60,0,0
133704,-100,3,1,1,30,0,0
134271,-100,3,1,1,50,0,0
134371,-100,3,1,1,30,0,0
135104,-100,3,1,1,60,0,0
135771,-100,3,1,2,50,0,0
136188,-100,3,1,1,40,0,0
136521,-100,3,1,3,60,0,0
136688,-100,3,1,1,30,0,0
137604,-100,3,1,1,60,0,0
137704,-100,3,1,1,30,0,0
138604,-100,3,1,1,35,0,0
138704,-100,3,1,1,30,0,0
139604,-100,3,1,1,60,0,0
139704,-100,3,1,1,30,0,0
140604,-100,3,1,1,35,0,0
140704,-100,3,1,1,30,0,0
141604,-100,3,1,1,60,0,0
141704,-100,3,1,1,30,0,0
142604,-100,3,1,3,40,0,0
142704,-100,3,1,1,30,0,0
143604,-100,3,1,1,60,0,0
144104,-100,3,1,2,60,0,0
144521,-100,3,1,3,60,0,0
144688,-100,3,1,1,30,0,0
145521,-100,3,1,1,60,0,0
145704,-100,3,1,1,30,0,0
146604,-100,3,1,3,40,0,0
146704,-100,3,1,1,30,0,0
147604,-100,3,1,1,60,0,0
147704,-100,3,1,1,30,0,0
148604,-100,3,1,3,40,0,0
149104,-100,3,1,1,60,0,0
149704,-100,3,1,1,30,0,0
150271,-100,3,1,1,60,0,0
150371,-100,3,1,1,30,0,0
151104,-100,3,1,3,60,0,0
151204,-100,3,1,1,60,0,0
151938,-100,3,1,2,55,0,0
152271,-100,3,1,2,65,0,0
152604,-100,3,1,3,55,0,0
152854,-100,3,1,1,55,0,0
153604,-100,3,1,3,90,0,0
154604,-100,3,1,3,55,0,0
154854,-100,3,1,1,55,0,0
155604,-100,3,1,3,90,0,0
155938,-100,3,1,2,60,0,0
156271,-100,3,1,2,70,0,0
156604,-100,3,1,3,55,0,0
156688,-100,3,1,1,55,0,0
157604,-100,3,1,3,90,0,0
158604,-100,3,1,3,55,0,0
158688,-100,3,1,1,55,0,0
159604,-100,3,1,3,90,0,0
159771,-100,3,1,2,55,0,0
160271,-100,3,1,3,90,0,0
160604,-100,3,1,3,55,0,0
160704,-100,3,1,1,55,0,0
161604,-100,3,1,3,90,0,0
162604,-100,3,1,3,55,0,0
162688,-100,3,1,1,55,0,0
163604,-100,3,1,3,90,0,0
163938,-100,3,1,2,60,0,0
164271,-100,3,1,2,70,0,0
164604,-100,3,1,3,55,0,0
164688,-100,3,1,1,55,0,0
165604,-100,3,1,3,90,0,0
166104,-100,3,1,2,75,0,0
166438,-100,3,1,1,55,0,0
166604,-100,3,1,3,60,0,0
166688,-100,3,1,2,55,0,0
167021,-100,3,1,2,60,0,0
167188,-100,3,1,2,65,0,0
167354,-100,3,1,2,75,0,0
167604,-100,3,1,3,90,0,0
168604,-100,3,1,3,55,0,0
168688,-100,3,1,1,55,0,0
169604,-100,3,1,3,90,0,0
170604,-100,3,1,3,55,0,0
170688,-100,3,1,1,55,0,0
171604,-100,3,1,3,90,0,0
171938,-100,3,1,2,50,0,0
172271,-100,3,1,2,60,0,0
172604,-100,3,1,3,55,0,0
172688,-100,3,1,1,55,0,0
173604,-100,3,1,3,90,0,0
174604,-100,3,1,3,55,0,0
174688,-100,3,1,1,55,0,0
175604,-100,3,1,1,50,0,0
175938,-100,3,1,2,65,0,0
176271,-100,3,1,3,90,0,0
176604,-100,3,1,3,55,0,0
176688,-100,3,1,1,55,0,0
177604,-100,3,1,3,90,0,0
178604,-100,3,1,3,55,0,0
178688,-100,3,1,1,55,0,0
179604,-100,3,1,3,90,0,0
179938,-100,3,1,2,55,0,0
180604,-100,3,1,3,55,0,0
180688,-100,3,1,1,55,0,0
181604,-100,3,1,3,90,0,0
181938,-100,3,1,2,65,0,0
182038,-100,3,1,3,90,0,0
182604,-100,3,1,3,55,0,0
182688,-100,3,1,1,55,0,0
182938,-100,3,1,3,55,0,0
183038,-100,3,1,1,55,0,0
183271,-100,3,1,3,55,0,0
183371,-100,3,1,3,90,0,0
183771,-100,3,1,2,65,0,0
184271,-100,3,1,3,90,0,0
184604,-100,3,1,3,45,0,0
184771,-100,3,1,1,10,0,0
190604,-100,3,2,3,20,0,0

[Colours]
Combo1 : 255,128,0
Combo2 : 191,0,96
Combo3 : 255,0,0

[HitObjects]
324,60,605,2,0,B|380:120|348:220,2,150,4|0|4,0:0|0:0|0:0,0:0:0:0:
224,60,1938,2,0,B|176:80|120:72,1,100,0|0,0:0|0:0,0:0:0:0:
44,128,2604,2,0,B|60:292,1,150,4|0,0:0|0:0,0:0:0:0:
192,348,3604,1,4,0:0:0:0:
288,316,3938,2,0,B|316:276|304:216,1,100,4|4,0:0|0:0,0:0:0:0:
296,120,4604,6,0,B|364:60|456:104,1,150,4|0,0:0|0:0,0:0:0:0:
476,240,5604,1,4,0:0:0:0:
420,324,5938,2,0,B|368:340|312:320,1,100,0|0,0:0|0:0,0:0:0:0:
232,276,6604,2,0,B|220:200|200:112,1,150,4|0,0:0|0:0,0:0:0:0:
56,104,7604,2,0,B|44:156|76:204,2,100,4|4|0,0:0|0:0|0:0,0:0:0:0:
124,32,8604,6,0,B|196:20|272:56,1,150,4|0,0:0|0:0,0:0:0:0:
400,128,9604,1,4,0:0:0:0:
384,228,9938,2,0,B|344:260|292:260,1,100,0|0,0:0|0:0,0:0:0:0:
192,264,10604,2,0,B|104:256|52:304,2,150,4|0|4,0:0|0:0|0:0,0:0:0:0:
268,328,11938,1,4,0:0:0:0:
368,332,12271,1,4,0:0:0:0:
456,284,12605,6,0,B|488:216|476:128,2,150,4|0|4,0:0|0:0|0:0,0:0:0:0:
368,332,13938,1,0,0:0:0:0:
276,288,14271,1,0,0:0:0:0:
256,192,14605,1,4,0:0:0:0:
256,192,14771,12,4,16605,0:0:0:0:
140,88,17605,6,0,B|96:84|56:112,2,85.0000016212464,0|2|8,0:0|0:0|0:0,0:0:0:0:
216,124,18605,2,0,B|280:144|352:112,1,127.50000243187,2|2,0:0|0:0,0:0:0:0:
436,204,19604,5,0,0:0:0:0:
388,276,19938,1,2,0:0:0:0:
304,292,20271,1,8,0:0:0:0:
220,272,20604,2,0,B|152:256|96:292,1,127.50000243187,2|2,0:0|0:0,0:0:0:0:
52,172,21604,6,0,B|96:176|152:148,1,85.0000016212464,0|2,0:0|0:0,0:0:0:0:
208,116,22271,1,8,0:0:0:0:
292,132,22604,2,0,B|324:188|308:264,2,127.50000243187,2|2|0,0:0|0:0|0:0,0:0:0:0:
348,68,23938,2,0,B|388:80|424:120,2,85.0000016212464,2|0|4,0:0|0:0|0:0,0:0:0:0:
112,164,25604,6,0,B|108:208|128:256,1,85.0000016212464,0|2,0:0|0:0,0:0:0:0:
156,328,26271,1,8,0:0:0:0:
240,336,26604,2,0,B|304:320|364:352,1,127.50000243187,2|2,0:0|0:0,0:0:0:0:
476,288,27604,5,0,0:0:0:0:
476,204,27938,1,2,0:0:0:0:
440,128,28271,1,8,0:0:0:0:
364,88,28604,2,0,B|312:128|240:104,2,127.50000243187,2|2|0,0:0|0:0|0:0,0:0:0:0:
372,344,30604,6,0,B|304:304|240:336|240:336|200:284|132:308,1,255.000004863739,2|0,0:0|0:0,0:0:0:0:
56,280,31938,2,0,B|28:244|28:196,2,85.0000016212464,0|4|4,0:0|0:0|0:0,0:0:0:0:
256,120,33604,6,0,B|276:160|256:208,2,85.0000016212464,0|2|8,0:0|0:0|0:0,0:0:0:0:
180,80,34604,2,0,B|121:111|102:182,1,127.50000243187,2|2,0:0|0:0,0:0:0:0:
96,304,35604,6,0,B|140:312|192:288,1,85.0000016212464,0|2,0:0|0:0,0:0:0:0:
256,256,36271,1,8,0:0:0:0:
316,196,36604,2,0,B|348:136|324:72,1,127.50000243187,2|2,0:0|0:0,0:0:0:0:
200,48,37604,6,0,B|156:44|112:60,2,85.0000016212464,0|2|8,0:0|0:0|0:0,0:0:0:0:
228,128,38604,2,0,B|196:188|120:196,2,127.50000243187,2|2|0,0:0|0:0|0:0,0:0:0:0:
284,64,39938,2,0,B|328:60|372:84,2,85.0000016212464,2|0|4,0:0|0:0|0:0,0:0:0:0:
64,192,41605,6,0,B|104:200|160:184,1,85.0000016212464,0|2,0:0|0:0,0:0:0:0:
228,160,42271,1,8,0:0:0:0:
308,136,42605,2,0,B|348:192|332:272,1,127.50000243187,2|2,0:0|0:0,0:0:0:0:
224,320,43605,6,0,B|204:284|212:236,2,85.0000016212464,0|2|8,0:0|0:0|0:0,0:0:0:0:
300,360,44605,2,0,B|364:384|424:344,2,127.50000243187,2|2|0,0:0|0:0|0:0,0:0:0:0:
256,108,46605,1,4,0:0:0:0:
256,108,48605,6,0,B|332:144|396:88,2,150,4|8|4,0:0|0:0|0:0,0:0:0:0:
168,60,49938,1,8,0:0:0:0:
88,120,50271,1,8,0:0:0:0:
44,212,50605,2,0,B|56:280|56:280|104:288|136:328,1,150,8|8,0:0|0:0,0:0:0:0:
268,364,51605,1,4,0:0:0:0:
364,336,51938,2,0,B|384:292|368:232,1,100,8|8,0:0|0:0,0:0:0:0:
428,160,52605,6,0,B|480:316,2,150,8|8|4,0:0|0:0|0:0,0:0:0:0:
352,92,53938,1,8,0:0:0:0:
256,72,54271,1,8,0:0:0:0:
168,120,54605,2,0,B|108:132|72:92|72:92|20:116,2,150,4|8|4,0:0|0:0|0:0,0:0:0:0:
256,172,55938,2,0,B|256:288,1,100,4|4,0:0|0:0,0:0:0:0:
184,344,56605,6,0,B|108:376|40:328,1,150,4|8,0:0|0:0,0:0:0:0:
40,180,57605,1,4,0:0:0:0:
140,200,57938,2,0,B|192:212|248:180,1,100,8|8,0:0|0:0,0:0:0:0:
332,152,58605,2,0,B|392:204|388:288,1,150,4|8,0:0|0:0,0:0:0:0:
256,356,59605,5,4,0:0:0:0:
156,344,59938,1,8,0:0:0:0:
80,280,60271,1,8,0:0:0:0:
140,200,60605,2,0,B|220:236|288:172,2,150,4|4|4,0:0|0:0|0:0,0:0:0:0:
140,100,61938,6,0,B|184:76|236:84,1,100,8|4,0:0|0:0,0:0:0:0:
336,92,62605,2,0,B|392:96|428:68|428:68|496:92,2,150,8|4|4,0:0|0:0|0:0,0:0:0:0:
256,148,63938,1,4,0:0:0:0:
204,232,64271,1,8,0:0:0:0:
256,316,64605,6,0,B|298:350|360:333|379:282,1,150,4|8,0:0|0:0,0:0:0:0:
460,156,65605,1,4,0:0:0:0:
404,72,65938,2,0,B|352:56|304:60,1,100,8|8,0:0|0:0,0:0:0:0:
208,84,66605,2,0,B|165:118|103:101|84:50,2,150,8|8|4,0:0|0:0|0:0,0:0:0:0:
305,60,67938,1,8,0:0:0:0:
380,124,68271,1,8,0:0:0:0:
376,224,68605,6,0,B|320:248|272:224|272:224|232:256,1,150,8|8,0:0|0:0,0:0:0:0:
88,248,69605,2,0,B|60:296|72:344,2,100,4|8|8,0:0|0:0|0:0,0:0:0:0:
152,168,70605,2,0,B|100:136|52:156|52:156|40:132|8:116,2,150,4|8|4,0:0|0:0|0:0,0:0:0:0:
248,192,71938,2,0,B|300:204|348:180,1,100,4|4,0:0|0:0,0:0:0:0:
396,92,72605,6,0,B|468:148|432:236,2,150,4|8|4,0:0|0:0|0:0,0:0:0:0:
296,96,73938,2,0,B|244:112|196:84,1,100,8|8,0:0|0:0,0:0:0:0:
104,56,74605,2,0,B|133:222,1,150,4|8,0:0|0:0,0:0:0:0:
156,352,75605,5,4,0:0:0:0:
244,300,75938,1,8,0:0:0:0:
344,288,76271,1,8,0:0:0:0:
436,324,76605,2,0,B|486:304|503:242|469:200,2,150,4|4|4,0:0|0:0|0:0,0:0:0:0:
344,288,77938,5,8,0:0:0:0:
256,240,78271,1,4,0:0:0:0:
168,288,78605,2,0,B|125:322|63:305|44:254,2,150,8|4|8,0:0|0:0|0:0,0:0:0:0:
256,240,79938,2,0,B|256:128,2,100,4|4|4,0:0|0:0|0:0,0:0:0:0:
256,192,80771,12,4,82604,0:0:0:0:
88,72,88604,22,0,B|128:76|168:56,1,75.0000028610231,2|0,0:0|0:0,0:0:0:0:
256,192,89604,2,0,B|224:217|210:259,2,75.0000028610231,2|0|0,0:0|0:0|0:0,0:0:0:0:
340,188,90604,2,0,B|416:216|484:176,1,150.000005722046,2|0,0:0|0:0,0:0:0:0:
496,96,91604,5,2,0:0:0:0:
428,48,91938,1,0,0:0:0:0:
344,56,92271,1,0,0:0:0:0:
288,116,92604,2,0,B|212:144|144:104,1,150.000005722046,2|0,0:0|0:0,0:0:0:0:
60,104,93604,6,0,B|44:260,1,150.000005722046,2|0,0:0|0:0,0:0:0:0:
124,280,94604,2,0,B|200:252|268:292,1,150.000005722046,2|0,0:0|0:0,0:0:0:0:
344,324,95604,2,0,B|384:328|424:304,2,75.0000028610231,2|0|0,0:0|0:0|0:0,0:0:0:0:
336,240,96604,1,2,0:0:0:0:
112,140,97604,6,0,B|72:136|28:164,2,75.0000028610231,2|0|0,0:0|0:0|0:0,0:0:0:0:
192,156,98604,2,0,B|264:188|336:140,1,150.000005722046,2|0,0:0|0:0,0:0:0:0:
404,96,99604,2,0,B|388:16,2,75.0000028610231,2|0|0,0:0|0:0|0:0,0:0:0:0:
468,148,100604,6,0,B|488:260,2,112.500004291535,2|0|2,0:0|0:0|0:0,0:0:0:0:
256,272,102604,2,0,B|192:268|160:312|160:312|96:300|88:232,1,225.000008583069,2|0,0:0|0:0,0:0:0:0:
108,140,103938,6,0,B|64:136|16:160,2,85.0000016212464,4|0|4,0:0|0:0|0:0,0:0:0:0:
280,328,105604,2,0,B|304:288|296:240,1,85.0000016212464,0|2,0:0|0:0,0:0:0:0:
288,160,106271,1,8,0:0:0:0:
348,100,106604,2,0,B|416:72|468:120,2,127.50000243187,2|2|0,0:0|0:0|0:0,0:0:0:0:
264,76,107938,5,2,0:0:0:0:
204,136,108271,1,8,0:0:0:0:
224,220,108604,2,0,B|240:292|204:344,1,127.50000243187,2|2,0:0|0:0,0:0:0:0:
92,288,109604,6,0,B|72:328|76:384,2,85.0000016212464,0|2|8,0:0|0:0|0:0,0:0:0:0:
124,208,110604,2,0,B|72:168|4:180,2,127.50000243187,2|2|0,0:0|0:0|0:0,0:0:0:0:
204,240,111938,2,0,B|248:248|300:224,1,85.0000016212464,2|0,0:0|0:0,0:0:0:0:
368,200,112604,2,0,B|424:244|412:332,1,127.50000243187,4|2,0:0|0:0,0:0:0:0:
288,340,113604,6,0,B|248:321|204:329,1,85.0000016212464,0|2,0:0|0:0,0:0:0:0:
124,304,114271,1,8,0:0:0:0:
75,234,114604,2,0,P|37:294|59:359,2,127.50000243187,2|2|0,0:0|0:0|0:0,0:0:0:0:
152,196,115938,1,2,0:0:0:0:
180,116,116271,1,8,0:0:0:0:
136,44,116604,6,0,B|68:32|16:80,2,127.50000243187,2|2|0,0:0|0:0|0:0,0:0:0:0:
256,268,118604,1,4,0:0:0:0:
256,268,120604,6,0,B|320:312|400:280,2,150,4|8|4,0:0|0:0|0:0,0:0:0:0:
188,192,121938,2,0,B|136:184|88:212,1,100,8|8,0:0|0:0,0:0:0:0:
48,120,122604,2,0,B|128:124|192:84,1,150,8|8,0:0|0:0,0:0:0:0:
340,56,123604,1,4,0:0:0:0:
420,116,123938,2,0,B|440:164|432:216,1,100,8|8,0:0|0:0,0:0:0:0:
380,300,124604,6,0,B|410:344|466:353|512:321,2,150,8|8|4,0:0|0:0|0:0,0:0:0:0:
288,260,125938,2,0,B|236:256|184:276,1,100,8|8,0:0|0:0,0:0:0:0:
92,292,126604,2,0,B|48:252|56:196|56:196|0:164,2,150,4|8|4,0:0|0:0|0:0,0:0:0:0:
152,212,127938,2,0,B|148:160|136:112,1,100,4|4,0:0|0:0,0:0:0:0:
216,52,128604,6,0,B|228:132|240:200,1,150,4|8,0:0|0:0,0:0:0:0:
264,348,129604,1,4,0:0:0:0:
364,352,129938,1,8,0:0:0:0:
456,316,130271,1,8,0:0:0:0:
484,220,130604,2,0,B|404:248|340:204,1,150,4|8,0:0|0:0,0:0:0:0:
256,80,131604,5,4,0:0:0:0:
216,172,131938,1,8,0:0:0:0:
128,220,132271,1,8,0:0:0:0:
28,226,132604,2,0,B|8:74,2,150,4|4|4,0:0|0:0|0:0,0:0:0:0:
80,312,133938,6,0,B|132:304|184:332,1,100,8|4,0:0|0:0,0:0:0:0:
272,356,134604,2,0,B|348:380|416:340,2,150,8|4|4,0:0|0:0|0:0,0:0:0:0:
256,256,135938,2,0,B|256:156,1,100,4|8,0:0|0:0,0:0:0:0:
316,76,136604,6,0,B|387:105|421:179,1,150,4|8,0:0|0:0,0:0:0:0:
404,328,137604,2,0,B|456:340|500:308,2,100,4|8|8,0:0|0:0|0:0,0:0:0:0:
308,304,138604,2,0,B|232:284|160:324,1,150,8|8,0:0|0:0,0:0:0:0:
28,256,139604,1,4,0:0:0:0:
76,168,139938,2,0,B|96:124|92:64,1,100,8|8,0:0|0:0,0:0:0:0:
188,44,140604,6,0,B|208:200,2,150,8|8|4,0:0|0:0|0:0,0:0:0:0:
284,76,141938,2,0,B|296:176,1,100,8|8,0:0|0:0,0:0:0:0:
324,272,142604,2,0,B|400:304|468:252,2,150,4|8|4,0:0|0:0|0:0,0:0:0:0:
224,264,143938,2,0,B|168:260|128:284,1,100,4|4,0:0|0:0,0:0:0:0:
28,268,144604,6,0,B|16:192|44:120,1,150,4|8,0:0|0:0,0:0:0:0:
188,76,145604,2,0,B|232:100|292:92,1,100,4|8,0:0|0:0,0:0:0:0:
384,68,146271,1,8,0:0:0:0:
452,140,146604,2,0,B|488:212|464:288,1,150,4|8,0:0|0:0,0:0:0:0:
340,368,147604,5,4,0:0:0:0:
240,380,147938,1,8,0:0:0:0:
144,356,148271,1,8,0:0:0:0:
68,292,148604,2,0,B|48:236|76:200|76:200|28:160,2,150,4|4|4,0:0|0:0|0:0,0:0:0:0:
160,252,149938,6,4,B|212:260|256:236,1,100,8|4,0:0|0:0,0:0:0:0:
352,208,150604,2,0,B|408:268|400:348,2,150,8|4|4,0:0|0:0|0:0,0:0:0:0:
336,108,151938,2,0,B|388:104|436:132,2,100,4|4|4,0:0|0:0|0:0,0:0:0:0:
236,96,152938,5,0,0:0:0:0:
140,124,153271,1,0,0:0:0:0:
72,196,153604,1,0,0:0:0:0:
84,296,153938,2,0,B|52:344|-4:344,2,100,0|0|4,0:0|0:0|0:0,0:0:0:0:
180,320,154938,5,0,0:0:0:0:
280,328,155271,1,0,0:0:0:0:
368,280,155604,1,0,0:0:0:0:
448,224,155938,2,0,B|488:260|492:320,2,100,4|4|4,0:0|0:0|0:0,0:0:0:0:
400,136,156938,5,0,0:0:0:0:
308,96,157271,1,0,0:0:0:0:
208,100,157605,1,0,0:0:0:0:
116,136,157938,2,0,B|76:172|76:224,2,100,0|0|4,0:0|0:0|0:0,0:0:0:0:
176,216,158938,5,0,0:0:0:0:
256,276,159271,1,0,0:0:0:0:
336,216,159605,2,0,B|388:200|432:224,2,100,0|4|0,0:0|0:0|0:0,0:0:0:0:
256,156,160605,1,4,0:0:0:0:
188,84,160938,6,0,B|148:120|160:184,2,100,0|0|0,0:0|0:0|0:0,0:0:0:0:
288,68,161938,2,0,B|336:80|400:60,1,100,0|0,0:0|0:0,0:0:0:0:
472,116,162605,1,4,0:0:0:0:
460,216,162938,6,0,B|448:328,1,100
356,348,163605,1,0,0:0:0:0:
260,324,163938,2,0,B|208:320|160:340,2,100,4|4|4,0:0|0:0|0:0,0:0:0:0:
328,252,164938,5,0,0:0:0:0:
248,196,165271,1,0,0:0:0:0:
148,188,165605,1,0,0:0:0:0:
56,224,165938,2,0,B|32:272|44:324,2,100,0|4|4,0:0|0:0|0:0,0:0:0:0:
88,128,166938,5,8,0:0:0:0:
176,84,167271,1,8,0:0:0:0:
276,64,167605,2,0,B|324:52|376:72,2,100,0|0|0,0:0|0:0|0:0,0:0:0:0:
316,156,168605,1,4,0:0:0:0:
256,236,168938,6,0,B|212:268|160:252,1,100
116,164,169605,1,0,0:0:0:0:
52,88,169938,2,0,B|96:56|148:72,2,100,0|0|4,0:0|0:0|0:0,0:0:0:0:
32,188,170938,6,0,B|48:288,1,100
128,348,171605,1,0,0:0:0:0:
224,320,171938,2,0,B|268:352|320:336,2,100,4|4|4,0:0|0:0|0:0,0:0:0:0:
288,244,172938,6,0,B|336:248|384:224,1,100
452,144,173605,1,0,0:0:0:0:
380,72,173938,2,0,B|420:32|476:44,2,100,0|0|4,0:0|0:0|0:0,0:0:0:0:
308,140,174938,6,0,B|256:156|204:136,1,100
112,120,175605,2,0,B|96:16,2,100,4|4|0,0:0|0:0|0:0,0:0:0:0:
128,220,176605,1,4,0:0:0:0:
148,316,176938,6,0,B|200:328|244:304,1,100
332,252,177605,1,0,0:0:0:0:
420,208,177938,2,0,B|440:260|412:308,2,100,0|0|4,0:0|0:0|0:0,0:0:0:0:
352,136,178938,5,0,0:0:0:0:
256,108,179271,1,0,0:0:0:0:
160,136,179605,1,0,0:0:0:0:
92,208,179938,2,0,B|72:260|100:308,2,100,4|4|4,0:0|0:0|0:0,0:0:0:0:
184,252,180938,5,0,0:0:0:0:
256,320,181271,1,0,0:0:0:0:
328,252,181605,1,0,0:0:0:0:
420,208,181938,2,0,B|440:260|412:308,2,100,8|0|4,0:0|0:0|0:0,0:0:0:0:
392,112,182938,5,0,0:0:0:0:
308,164,183271,1,0,0:0:0:0:
204,164,183605,1,0,0:0:0:0:
120,112,183938,1,4,0:0:0:0:
52,184,184271,2,0,B|67:282,1,100,0|4,0:0|0:0,0:0:0:0:
256,192,184938,12,8,190605,0:0:0:0:
