osu file format v9

[General]
AudioFilename: Yuuen BGM.mp3
AudioLeadIn: 0
PreviewTime: 91993
Countdown: 0
SampleSet: Normal
StackLeniency: 0.7
Mode: 0
LetterboxInBreaks: 1

[Editor]
Bookmarks: 25751,45866,93080,122560
DistanceSpacing: 1.2
BeatDivisor: 4
GridSize: 8

[Metadata]
Title:Yuuen no Amulet (Short ver.)
Artist:momo-i
Creator:kokono_tan
Version:Insane
Source:Prism Ark AWAKE
Tags:ps2 5bp momoi haruko

[Difficulty]
HPDrainRate:7
CircleSize:4
OverallDifficulty:7
ApproachRate:8
SliderMultiplier:1.6
SliderTickRate:1

[Events]
//Background and Video events
0,0,"prism-ark_BG.jpg"
Video,0,"amulet_movie.avi"
//Break Periods
//Storyboard Layer 0 (Background)
//Storyboard Layer 1 (Fail)
//Storyboard Layer 2 (Pass)
//Storyboard Layer 3 (Foreground)
//Storyboard Sound Samples
//Background Colour Transformations
3,100,163,162,255

[TimingPoints]
25797,346.820809248555,4,1,0,60,1,0
40623,-100,4,1,0,60,0,0
40797,-100,4,1,0,60,0,0
41317,-100,4,1,0,60,0,0
41577,-100,4,1,0,60,0,0
42010,-100,4,1,0,60,0,0
42184,-100,4,1,0,60,0,0
42704,-100,4,1,0,60,0,0
42877,-100,4,1,0,60,0,0
45175,-100,4,1,0,60,0,0
45869,-100,4,1,0,60,0,0
75305,-100,4,2,0,60,0,0
76346,-100,4,1,0,60,0,0
77733,-100,4,2,0,60,0,0
78080,-100,4,1,0,60,0,0
83109,-100,4,2,0,60,0,0
83629,-100,4,1,0,60,0,0
85406,-100,4,1,0,60,0,0
85580,-100,4,1,0,60,0,0
87487,-100,4,1,0,60,0,0
88875,-100,4,1,0,60,0,0
90218,-100,4,1,0,60,0,0
90392,-100,4,1,0,60,0,0
90565,-100,4,1,0,60,0,0
93036,-100,4,1,0,60,0,1
122603,-100,4,1,0,60,0,0
134872,-100,4,2,0,55,0,0
135218,-100,4,2,0,50,0,0
135565,-100,4,2,0,45,0,0
135912,-100,4,2,0,40,0,0
136259,-100,4,2,0,35,0,0
136606,-100,4,2,0,30,0,0
136953,-100,4,2,0,25,0,0
137299,-100,4,2,0,20,0,0
137646,-100,4,2,0,15,0,0
137993,-100,4,2,0,10,0,0
138340,-100,4,2,0,5,0,0

[Colours]
Combo1 : 255,0,128
Combo2 : 255,104,255
Combo3 : 255,108,38
Combo4 : 255,0,0

[HitObjects]
328,304,25796,5,0
360,296,25883,1,0
392,288,25969,1,0
416,264,26056,1,0
424,232,26143,1,0
416,200,26229,1,0
408,168,26316,1,0
384,144,26403,1,0
360,120,26489,6,0,B|344:80|296:56,1,80
208,48,26836,1,0
208,48,27009,1,0
248,136,27183,2,0,B|200:144|192:184,1,80
192,280,27530,1,0
192,280,27703,1,0
304,296,27876,6,0,B|312:344|376:352,2,80
208,200,28397,2,0,B|167:182|135:218,2,80
304,208,28917,2,2,B|320:168|376:168,1,80,0|0
240,56,29264,6,0,B|192:48|152:80,1,80
88,128,29611,1,0
120,216,29784,2,0,B|76:233|44:209,2,80
192,280,30304,2,0,B|224:320|280:304,1,80
408,232,30651,6,0,B|472:160|400:56,1,160
344,152,31171,2,0,B|280:224|352:328,1,160
424,344,31691,2,0,B|472:328|472:264,1,80,0|2
472,160,32038,5,0
384,184,32212,1,0
392,88,32385,1,0
384,184,32559,1,0
320,72,32732,5,0
312,168,32905,1,0
232,112,33079,1,0
312,168,33253,1,0
232,112,33426,2,0,B|192:208|80:200,1,160
72,80,34119,5,0
40,168,34293,5,0
40,200,34379,1,0
48,232,34466,1,0
56,264,34553,1,0
72,288,34639,1,0
96,312,34726,1,0
128,320,34813,6,0,B|224:328|256:224,1,160,2|0
136,152,35333,2,0,B|160:24|320:40,1,240,0|4
368,264,36200,6,0,B|464:256|480:136,1,160,2|0
320,72,36720,2,0,B|191:50|151:206,1,240,0|4
152,352,37587,6,0,B|56:328|64:208,1,160,2|0
352,280,38108,2,0,B|325:121|177:149,1,240,0|4
248,48,38975,6,0,B|312:-8|408:48,1,160,2|0
336,144,39495,2,0,B|216:224|288:376,1,240,0|4
376,312,40362,5,2
96,200,40709,1,4
384,216,41056,5,2
104,328,41403,1,4
384,152,41749,5,2
104,40,42096,1,4
392,40,42443,5,2
112,152,42790,1,4
384,152,43137,6,0,B|328:216|392:328,1,160,2|0
112,152,43831,2,0,B|163:239|107:303,1,160,2|0
256,72,44524,5,0
256,336,44871,1,0
376,168,45217,5,0
368,200,45304,1,0
344,224,45391,1,0
320,248,45478,1,0
288,256,45564,1,0
256,264,45651,1,0
224,256,45738,1,0
192,248,45824,1,0
160,240,45911,6,0,B|112:224|104:160,1,80,4|0
200,160,46258,2,0,B|176:120|208:80,1,80
304,120,46605,2,0,B|296:72|336:56,1,80
384,160,46952,2,0,B|424:144|456:176,1,80
384,272,47298,2,0,B|424:280|432:328,2,80,0|0|2
256,296,47819,2,0,B|259:341|210:362,2,80,0|0|2
136,288,48512,5,0
160,200,48686,2,0,B|192:104|320:120,1,160
240,40,49206,2,0,B|144:32|104:120,1,160
40,288,49900,2,0,B|40:336|88:352,1,80
176,320,50247,1,0
272,296,50421,2,0,B|312:296|352:224,1,80
328,152,50768,2,0,B|272:144|248:216,1,80
168,176,51114,1,0
208,264,51287,5,0
296,240,51460,2,0,B|384:256|440:136,1,160,0|0
424,72,51980,1,0
256,160,52327,2,0,B|160:128|104:208,3,160
176,80,54061,5,0
272,104,54235,2,0,B|368:112|384:232,1,160
344,304,54755,2,0,B|249:325|188:230,2,160
400,208,55622,5,0
400,208,55796,1,2
128,208,56143,1,0
128,208,56317,1,2
248,184,56663,5,0
248,184,56749,1,0
248,184,56836,1,0
248,184,56923,1,0
248,184,57009,6,0,B|240:136|200:128,1,80,4|0
126,205,57356,2,0,B|101:165|58:176,1,80
64,288,57703,2,0,B|18:300|-3:346,2,80
125,205,58224,1,0
208,280,58397,6,0,B|192:320|216:360,2,80
128,208,58917,2,0,B|136:168|89:128,2,80,0|0|2
272,144,59611,5,0
288,240,59784,2,0,B|304:336|408:352,1,160
408,256,60304,2,0,B|424:160|336:96,1,160
168,80,60999,1,0
256,192,61172,12,0,62213
216,160,62559,6,0,B|312:168|344:48,1,160
240,240,63252,2,0,B|232:336|128:360,2,160
304,344,64293,5,0
304,344,64466,1,0
384,288,64639,1,0
384,288,64813,1,0
408,192,64986,1,0
408,192,65160,1,0
360,112,65334,6,0,B|296:16,1,80,8|0
336,136,65681,2,0,B|256:96,1,80,8|0
336,160,66028,2,0,B|256:176,1,80,8|0
192,128,66375,1,8
192,128,66548,1,0
144,192,66720,6,0,B|144:256,2,40
216,256,67067,2,0,B|256:272,2,40
312,288,67415,2,0,B|368:216,1,80,8|2
336,64,67934,5,0
336,64,68108,2,0,B|288:48|240:72,1,80,4|0
160,80,68454,1,0
160,80,68628,1,0
80,128,68801,2,0,B|56:168|64:208,1,80
120,280,69148,1,0
120,280,69322,1,0
216,168,69496,5,0
192,264,69669,1,0
288,240,69843,1,2
384,216,70016,1,0
288,240,70190,1,0
312,144,70363,1,2
416,304,70709,5,0
384,216,70882,2,0,B|368:176|328:160,1,80
232,168,71229,2,0,B|184:176|152:128,1,80
72,104,71576,2,0,B|32:120|32:168,2,80
160,140,72096,2,0,B|256:156|280:260,1,160,0|4
400,288,73483,5,0
408,176,73656,2,0,B|369:87|251:86,1,160
283,88,74178,1,0
232,168,74351,2,0,B|128:176|88:72,2,160
320,80,75391,6,0,B|368:72|400:104,1,80
352,200,75738,2,0,B|334:244|266:244,1,80
232,336,76085,2,0,B|216:375|167:373,1,80
80,328,76431,6,0,B|176:312|224:208,1,160
432,56,77125,2,0,B|336:72|288:176,1,160
256,200,77819,6,0,B|256:120,1,80
256,272,78339,1,2
256,344,78686,1,2
408,176,79032,6,0,B|360:32|200:72,1,240,4|0
304,192,79900,2,0,B|312:288|424:272,1,160
440,144,80594,5,0
352,104,80768,1,0
304,192,80941,1,2
392,232,81114,5,0
384,136,81288,1,0
288,144,81461,1,2
88,176,81807,5,0
96,272,81980,2,0,B|112:304|160:320,1,80
184,224,82327,2,0,B|216:256|264:240,1,80
320,168,82674,2,0,B|280:144|224:176,2,80
408,64,83194,2,0,B|472:136|416:240,1,160
400,288,84061,6,0,B|448:312,2,40
312,240,84408,1,0
280,152,84582,2,0,B|256:104|208:96,1,80
272,48,84929,5,0
248,216,85103,1,0
376,136,85276,1,0
248,216,85449,5,2
376,136,85622,1,2
376,136,85969,6,0,B|400:96|368:48,2,80
328,232,86489,2,0,B|320:280|352:312,2,80
288,144,87009,1,0
208,88,87183,1,0
112,72,87356,1,0
16,96,87530,6,0,B|72:176,1,80
168,48,87876,2,0,B|264:72,1,80
160,200,88223,2,0,B|224:264,1,80
312,96,88570,2,0,B|400:128,1,80
384,232,88917,5,0
384,232,89090,1,0
432,152,89264,1,0
432,152,89437,1,0
360,88,89612,5,0
384,232,89785,1,0
360,88,89958,1,0
272,136,90132,5,0
192,80,90304,1,0
104,112,90478,1,0
80,200,90651,1,0
136,280,90824,1,0
216,296,90998,5,0
240,280,91085,1,0
264,264,91171,1,0
288,248,91258,1,0
312,232,91345,1,0
336,216,91431,1,0
360,200,91518,1,0
384,184,91605,1,0
408,168,91691,1,0
352,88,92385,5,0
328,104,92472,1,0
304,120,92559,1,0
280,136,92645,1,0
256,152,92732,1,0
232,168,92819,1,0
208,184,92905,1,0
184,200,92992,1,0
160,216,93079,6,0,B|112:232|72:208,1,80,4|0
144,136,93426,1,0
144,136,93599,1,0
240,264,93772,2,0,B|288:256|312:208,1,80
240,80,94119,1,0
240,80,94293,1,0
344,112,94466,6,0,B|328:64|376:32,2,80
360,208,94986,1,2
456,216,95160,2,0,B|480:168|440:128,2,80
416,304,95680,1,2
320,280,95853,6,0,B|264:272|272:200,1,80
304,136,96200,1,0
304,136,96374,1,0
232,72,96547,2,0,B|184:72|160:128,1,80
176,208,96894,1,0
176,208,97067,1,0
320,280,97241,6,0,B|395:276|413:166,1,160
288,72,97934,2,0,B|212:75|194:185,1,160,0|2
224,280,98628,6,0,B|224:328|272:344,2,80
144,232,99148,2,0,B|96:256|112:320,2,80
232,200,99668,2,0,B|272:176|328:224,1,80
408,288,100015,5,0
408,288,100189,1,0
384,192,100362,1,0
384,192,100535,1,0
320,120,100709,1,0
320,120,100882,1,0
232,88,101056,1,0
232,88,101229,1,0
128,64,101402,6,0,B|88:160|216:208,1,160
288,232,102096,6,0,B|288:184|240:160,2,80,0|0|4
400,216,102790,5,0
408,208,102876,1,0
416,200,102963,1,0
368,128,103137,5,0
376,120,103223,1,0
384,112,103310,1,0
280,48,103483,5,0
264,72,103570,1,0
248,96,103657,1,0
232,120,103743,1,0
216,144,103830,1,0
200,168,103917,1,0
184,192,104004,1,0
168,216,104090,1,0
152,240,104177,6,0,B|128:280|152:328,2,80
120,136,104697,2,0,B|120:88|184:80,2,80
152,240,105217,2,0,B|149:291|199:304,1,80,0|2
312,320,105564,5,0
312,320,105738,1,0
432,272,105911,1,0
432,272,106085,1,0
312,224,106258,1,0
312,224,106431,1,0
432,168,106605,1,0
432,168,106778,1,2
368,56,106952,6,0,B|320:56|296:112,1,80
208,88,107298,2,0,B|168:120|184:184,1,80
224,248,107645,1,0
136,296,107819,1,0
48,248,107992,1,0
24,152,108165,1,0
72,64,108339,6,0,B|48:128|136:232|256:176,1,240
304,96,109032,2,0,B|416:120|368:216,1,160
472,264,109553,5,0
392,312,109726,2,0,B|344:312|320:272,1,80,4|0
256,208,110073,2,0,B|232:168|184:160,1,80
112,112,110420,1,0
112,112,110593,1,0
120,208,110767,1,0
160,296,110941,2,0,B|256:152|344:296,1,240,0|4
412,276,111807,5,0
408,248,111894,1,0
400,220,111980,1,0
388,196,112067,1,0
376,172,112154,1,0
360,148,112241,1,0
336,132,112327,1,0
312,120,112414,1,0
256,192,112502,12,4,117010
256,192,117357,5,2
256,192,117703,5,2
256,192,118050,12,4,122559
328,72,122905,5,0
312,96,122992,1,0
296,120,123079,1,0
280,144,123165,1,0
264,168,123252,1,0
248,192,123339,1,0
232,216,123426,1,0
216,240,123512,1,0
200,264,123599,6,0,B|176:296|192:344,2,80
112,232,124119,2,0,B|64:232|32:288,2,80
112,136,124639,2,0,B|96:80|32:80,2,80
160,48,125160,6,0,B|208:64|208:120,1,80
296,48,125506,2,0,B|320:88|280:144,1,80
408,128,125853,2,2,B|392:176|336:176,1,80
416,256,126374,5,0
368,336,126547,1,0
304,264,126720,2,0,B|264:288|264:344,1,80
160,256,127067,5,0
112,336,127240,1,0
72,248,127413,2,0,B|78:201|35:166,1,80
184,112,127761,6,0,B|160:64|112:56,2,80
272,184,128281,1,0
352,112,128454,2,0,B|376:64|424:56,2,80,0|2|2
336,200,129148,6,0,B|384:264,1,80
176,200,129495,2,0,B|128:264,1,80
256,120,129842,2,0,B|256:32,1,80
256,264,130189,2,0,B|256:352,1,80
168,128,130535,6,0,B|104:80,1,80
344,128,130882,2,0,B|408:80,1,80
344,256,131229,2,0,B|408:304,1,80,0|2
168,256,131576,2,0,B|104:304,1,80,2|0
96,160,131923,5,0
96,160,132096,1,0
144,80,132269,1,0
144,80,132443,1,0
240,64,132616,1,0
240,64,132790,1,0
328,104,132963,1,0
328,104,133137,1,0
384,184,133310,6,2,B|384:280,1,80
296,232,133657,2,2,B|200:256,1,80
136,296,134004,5,0
128,288,134090,1,0
120,280,134177,1,0
112,272,134264,1,0
104,264,134350,2,0,B|-8:208|112:128,1,160,0|4
256,192,134784,12,0,140940
