osu file format v9

[General]
AudioFilename: Yuuen BGM.mp3
AudioLeadIn: 0
PreviewTime: 91993
Countdown: 0
SampleSet: Normal
StackLeniency: 0.7
Mode: 0
LetterboxInBreaks: 1

[Editor]
Bookmarks: 25797,45912,93080,122560
DistanceSpacing: 1
BeatDivisor: 4
GridSize: 8

[Metadata]
Title:Yuuen no Amulet (Short ver.)
Artist:momo-i
Creator:kokono_tan
Version:Hard
Source:Prism Ark AWAKE
Tags:ps2 5bp momoi haruko

[Difficulty]
HPDrainRate:5
CircleSize:4
OverallDifficulty:5
ApproachRate:7
SliderMultiplier:1.6
SliderTickRate:1

[Events]
//Background and Video events
0,0,"prism-ark_BG.jpg"
Video,0,"amulet_movie.avi"
//Break Periods
//Storyboard Layer 0 (Background)
//Storyboard Layer 1 (Fail)
//Storyboard Layer 2 (Pass)
//Storyboard Layer 3 (Foreground)
//Storyboard Sound Samples
//Background Colour Transformations
3,100,163,162,255

[TimingPoints]
25797,346.820809248555,4,1,0,55,1,0
45825,-100,4,1,0,45,0,0
93036,-100,4,1,0,55,0,1
122560,-100,4,1,0,55,0,0
134872,-100,4,2,0,50,0,0
135218,-100,4,2,0,45,0,0
135565,-100,4,2,0,40,0,0
135912,-100,4,2,0,35,0,0
136259,-100,4,2,0,30,0,0
136606,-100,4,2,0,25,0,0
136953,-100,4,2,0,20,0,0
137299,-100,4,2,0,15,0,0
137646,-100,4,2,0,10,0,0
137993,-100,4,2,0,5,0,0

[Colours]
Combo1 : 255,0,128
Combo2 : 255,104,255
Combo3 : 255,108,38
Combo4 : 255,0,0

[HitObjects]
400,96,25797,6,0,B|360:136,6,40
312,48,26490,6,0,B|216:16|144:96,1,160,4|0
80,56,27184,1,0
96,136,27357,1,0
168,176,27531,1,2
384,112,27877,6,0,B|360:200|248:224,1,160
96,296,28571,2,0,B|51:283|23:240,2,80,0|0|2
136,224,29265,6,0,B|217:222|257:315,1,160
336,336,29958,1,0
408,296,30132,1,0
408,216,30305,1,2
328,88,30652,5,0
136,88,30999,1,0
72,160,31346,2,0,B|24:176|24:224,1,80
96,248,31692,2,0,B|72:288|112:320,1,80,0|2
216,352,32039,5,0
360,232,32386,1,0
288,56,32733,2,0,B|240:48|216:96,1,80
264,152,33080,2,0,B|224:168|224:216,1,80
320,256,33427,5,0
200,152,33773,1,0
256,40,34120,2,0,B|256:96,6,40
352,64,34814,5,4
424,104,34987,1,0
360,152,35161,2,0,B|304:152|288:216,1,80,0|2
360,232,35507,5,0
432,272,35681,1,0
368,320,35854,2,0,B|328:344|288:320,1,80,0|2
216,336,36201,6,0,B|176:248|272:176,1,160,2|4
192,40,36895,2,0,B|98:45|83:140,1,160,2|4
192,256,37588,6,0,B|285:250|300:155,1,160,2|4
432,72,38282,2,0,B|472:80|488:128,1,80
432,72,38629,2,0,B|449:108|420:150,1,80
376,208,38976,6,0,B|362:300|268:305,1,160,2|4
112,296,39669,2,0,B|71:291|51:245,1,80
112,296,40016,2,0,B|91:260|116:216,1,80
256,192,40363,12,0,44178
256,160,44525,5,0
256,160,44872,5,0
376,96,45218,6,0,B|352:48,2,40
344,168,45565,2,0,B|368:208,2,40
280,104,45912,5,0
280,104,46086,1,0
224,168,46259,2,0,B|208:120|152:112,1,80
104,160,46606,2,0,B|56:152|40:112,2,80
136,56,47299,5,0
144,136,47473,1,0
184,208,47646,1,0
120,264,47820,2,2,B|144:352|264:336,1,160
246,337,48340,1,0
328,352,48513,1,0
448,280,48687,6,0,B|424:240|368:240,1,80
381,240,49033,1,0
312,280,49207,2,0,B|248:216|304:128,1,160
440,56,49901,2,0,B|488:80|464:136,1,80,0|2
368,208,51288,5,0
312,264,51461,2,0,B|264:248|272:200,1,80
200,168,51808,2,0,B|160:200|192:264,1,80
176,336,52328,5,0
264,208,52675,2,0,B|296:144|248:72|168:96,1,160
200,248,53369,1,2
320,280,54062,5,0
352,192,54236,2,0,B|384:160|432:184,2,80
224,48,54929,2,0,B|184:72|144:48,2,80
312,112,55623,5,2
312,112,55797,1,0
216,280,56143,1,2
216,280,56317,1,0
256,192,56664,2,0,B|304:192,2,40
200,112,57010,5,4
120,56,57184,2,0,B|72:64|72:120,1,80
88,208,57531,1,0
96,304,57704,2,0,B|136:296|152:240,2,80
8,256,58224,1,0
8,328,58398,6,0,B|80:400|176:304,1,160
288,320,59091,1,0
336,256,59265,1,0
288,192,59438,1,0
241,261,59612,1,0
288,320,59785,6,0,B|240:304|240:240,1,80
216,168,60132,2,0,B|168:176|160:232,1,80
104,296,60479,2,0,B|16:256|48:152,2,160,0|2|2
256,192,62560,12,4,66028
256,80,66721,5,0
256,80,66895,1,0
256,80,67068,1,0
384,72,67415,6,2,B|424:88|432:144,1,80,2|10
430,133,67762,1,0
344,176,67935,6,0,B|336:272|440:288,1,160
488,232,68802,5,0
488,312,68976,1,0
424,360,69149,1,0
272,248,69496,6,0,B|224:256|216:304,2,80
264,168,70016,2,2,B|294:137|338:159,2,80
176,56,70710,1,0
96,56,70883,6,0,B|48:56|32:112,1,80
104,144,71230,2,0,B|56:160|64:216,1,80
104,144,71577,2,0,B|160:216|128:312,1,160
272,352,72270,5,0
344,320,72444,1,0
376,248,72617,1,0
464,128,73484,5,0
400,80,73658,1,0
400,80,73831,1,0
320,104,74005,1,0
320,104,74178,1,0
240,120,74351,2,0,B|232:72|184:64,1,80
120,112,74698,2,0,B|128:160|176:168,1,80
208,200,75045,6,0,B|200:120|136:56,1,160
16,64,75739,5,0
0,144,75912,1,0
56,200,76086,1,0
168,280,76432,6,0,B|136:208,1,80
211,198,76779,2,0,B|251:286,1,80
320,264,77126,2,0,B|288:192,1,80
368,184,77473,2,0,B|408:272,1,80
480,296,77820,5,2
480,296,77993,1,2
472,200,78340,2,0,B|504:112|408:64,1,160
256,64,79033,6,0,B|120:32|80:200,1,240
328,128,79901,1,0
320,208,80074,1,0
248,240,80247,1,0
304,320,80594,6,0,B|352:320|368:264,2,80
224,336,81114,2,0,B|176:336|160:280,2,80
248,256,81635,2,0,B|247:210|293:196,1,80
432,232,81981,5,0
432,232,82155,1,0
392,160,82328,1,0
392,160,82502,1,0
360,88,82675,2,0,B|312:80|288:128,1,80
272,200,83022,1,0
292,120,83195,2,0,B|196:112|172:216,1,160
152,280,83716,1,0
96,200,84062,6,0,B|72:160,2,40
120,104,84409,2,0,B|152:80,2,40
248,80,84756,5,0
288,144,84929,1,0
344,88,85103,2,0,B|376:120|368:168,1,80
328,232,85450,5,0
328,232,85623,1,0
184,344,85970,6,0,B|85:368|24:267|66:198,1,240
184,88,86837,1,0
264,112,87010,1,0
312,176,87184,1,0
312,256,87357,1,0
240,288,87531,5,0
208,216,87704,1,0
152,304,87877,6,2,B|152:216,1,80
72,280,88224,5,0
104,208,88398,1,0
16,224,88571,6,2,B|72:160,1,80
0,120,88918,5,0
80,128,89091,1,0
40,48,89265,6,2,B|112:96,1,80
112,16,89612,2,2,B|136:96,1,80
200,24,89958,2,2,B|160:104,1,80
136,168,90305,5,0
136,248,90479,1,0
184,312,90652,1,0
264,320,90825,1,0
328,272,90999,6,0,B|320:232,3,40
328,192,91346,2,0,B|352:160,3,40
352,160,91692,5,0
432,64,92386,2,0,B|464:16,4,40
440,176,93080,6,0,B|440:224|384:240,1,80,4|0
312,248,93427,1,0
312,248,93600,1,0
240,288,93773,2,0,B|184:296|168:240,1,80
216,184,94120,2,0,B|208:136|160:136,1,80
120,200,94467,6,0,B|16:176|24:72,1,160
176,48,95161,2,2,B|256:48,1,80
312,112,95507,2,0,B|408:112,1,80
432,48,95854,5,0
432,48,96028,1,0
392,112,96201,2,0,B|408:152|360:184,1,80
328,248,96548,2,0,B|240:248|192:168,1,160
280,160,97242,6,0,B|280:112|336:104,2,80
208,304,97935,2,0,B|208:352|152:360,2,80,0|0|2
120,128,98629,6,0,B|80:96|112:48,2,80
200,112,99149,2,0,B|224:152|200:200,1,80
160,256,99496,1,0
232,288,99669,1,0
312,296,99843,1,0
392,288,100016,6,0,B|456:232|448:120,1,160
392,48,100710,1,0
320,88,100883,1,0
336,168,101057,1,0
256,192,101230,1,0
232,272,101403,2,2,B|160:320|56:264,1,160
40,136,102791,6,0,B|40:88,2,40
128,88,103138,1,0
152,168,103311,1,0
224,112,103484,2,0,B|224:72,2,40
288,184,103831,2,0,B|280:232,2,40
352,64,104178,6,0,B|384:96|384:144,1,80
456,96,104525,1,0
440,176,104698,1,0
368,208,104872,2,0,B|360:256|424:288,2,80
440,176,105392,1,0
456,96,105565,6,0,B|368:80|304:136,1,160
488,256,106259,2,2,B|426:310|338:294,1,160
248,336,106953,6,0,B|200:320|200:264,1,80
160,208,107299,2,0,B|144:168|176:128,1,80
232,80,107646,1,0
272,144,107820,1,0
208,184,107993,2,0,B|240:208|240:256,1,80
312,264,108340,6,0,B|376:192|336:80,1,160
424,256,109033,2,0,B|488:184|448:72,1,160
320,48,109727,6,0,B|280:32|240:72,1,80
224,144,110074,1,0
168,88,110247,2,0,B|120:80|96:128,1,80
128,192,110594,1,0
88,264,110768,1,0
168,296,110941,2,0,B|192:208|312:208|360:312,1,240
256,168,111808,2,0,B|256:120,4,40
256,192,112502,12,4,117010
256,192,117704,5,2
256,192,118051,12,4,122560
176,192,122906,6,0,B|152:160,2,40
320,192,123253,6,0,B|344:160,2,40
448,144,123600,5,0
448,144,123773,1,0
448,144,123947,1,0
368,152,124120,2,0,B|344:112|288:112,2,80
408,224,124640,1,0
408,224,124814,1,0
408,224,124987,1,0
408,304,125161,6,0,B|384:344|336:336,1,80
344,256,125507,2,0,B|296:240|272:272,1,80
272,352,125854,2,2,B|232:368|192:344,1,80
32,336,126375,5,0
32,336,126548,1,0
112,320,126721,2,0,B|112:272|152:256,1,80
208,200,127068,5,0
208,200,127241,1,0
288,184,127414,2,0,B|288:136|328:120,1,80
328,40,127762,6,0,B|376:40|400:88,2,80
184,40,128455,2,0,B|136:40|112:88,2,80
176,160,129149,5,0
176,160,129323,1,0
144,232,129496,2,0,B|224:232,1,80
336,160,129843,5,0
336,160,130017,1,0
368,232,130190,2,0,B|288:232,1,80
184,304,130536,2,0,B|96:304,2,80
344,304,131230,2,0,B|424:304,2,80,0|2|2
416,160,131924,6,0,B|416:80,1,80
352,168,132270,2,0,B|352:248,1,80
288,160,132617,2,0,B|288:80,1,80
224,168,132963,2,0,B|224:248,1,80
160,168,133311,2,2,B|160:88,1,80
104,176,133657,2,2,B|104:256,1,80
48,168,134005,2,0,B|48:128,4,40
256,192,134698,12,0,140941
