osu file format v14

[General]
AudioFilename: aex3.mp3
AudioLeadIn: 2000
PreviewTime: 12487
Countdown: 0
SampleSet: Soft
StackLeniency: 0.7
Mode: 0
LetterboxInBreaks: 0
EpilepsyWarning: 1
WidescreenStoryboard: 1

[Editor]
Bookmarks: 12487,24795,44487,64180,83872,104180,106641,123871,143564
DistanceSpacing: 2
BeatDivisor: 4
GridSize: 4
TimelineZoom: 3.899998

[Metadata]
Title:Welcome to Youkai Temple
TitleUnicode:Welcome to Youkai Temple
Artist:mocchie
ArtistUnicode:mocchie
Creator:K i R a
Version:Lunatic
Source:東方Project
Tags:ten desires zun temple HappyRocket88 Aex3
BeatmapID:747870
BeatmapSetID:41158

[Difficulty]
HPDrainRate:6
CircleSize:4
OverallDifficulty:7
ApproachRate:9
SliderMultiplier:1.7
SliderTickRate:1

[Events]
//Background and Video events
0,0,"bg.jpg",0,0
//Break Periods
2,64380,72810
//Storyboard Layer 0 (Background)
//Storyboard Layer 1 (Fail)
//Storyboard Layer 2 (Pass)
//Storyboard Layer 3 (Foreground)
//Storyboard Sound Samples

[TimingPoints]
180,307.692307692308,4,2,0,70,1,0
12487,-100,4,1,0,75,0,0
74026,-100,4,1,0,75,0,1
83872,-200,4,2,0,75,0,0
103872,-200,4,1,0,70,0,0
106641,307.692307692308,4,1,0,75,1,1
123871,-80,4,1,0,75,0,1
143564,-100,4,1,0,75,0,0

[Colours]
Combo1 : 200,200,200
Combo2 : 45,78,122
Combo3 : 196,137,149
Combo4 : 111,189,158
Combo5 : 128,128,128

[HitObjects]
176,80,180,6,0,P|224:84|280:108,1,85,2|0,0:0|0:0,0:0:0:0:
308,168,487,1,10,0:0:0:0:
356,240,641,2,0,P|408:204|420:168,2,85,0|2|2,0:0|0:0|0:0,0:0:0:0:
320,320,1103,2,0,P|276:332|232:324,1,85,8|0,0:0|0:0,0:0:0:0:
172,276,1410,1,2,0:0:0:0:
116,212,1564,2,0,P|100:160|112:120,1,85,0|10,0:0|0:0,0:0:0:0:
164,68,1872,1,0,0:0:0:0:
232,116,2026,5,2,0:0:0:0:
268,136,2103,2,0,P|312:136|360:120,1,85,0|0,0:0|0:0,0:0:0:0:
384,152,2333,1,8,0:0:0:0:
384,196,2410,2,0,P|332:240|288:256,1,85,0|0,0:0|0:0,0:0:0:0:
292,284,2641,2,0,L|264:340,3,42.5,2|0|0|0,0:0|0:0|0:0|0:0,0:0:0:0:
232,340,2949,2,0,P|148:340|64:268,1,170,10|2,0:0|0:0,0:0:0:0:
140,232,3410,5,2,0:0:0:0:
88,164,3564,1,8,0:0:0:0:
136,92,3718,2,0,P|184:72|244:88,1,85,2|2,0:0|0:0,0:0:0:0:
284,128,4026,1,0,0:0:0:0:
344,188,4180,38,0,P|384:148|400:96,2,85,8|0|0,0:0|0:0|0:0,0:0:0:0:
404,248,4641,2,0,P|356:288|328:296,1,85,2|10,0:0|0:0,0:0:0:0:
272,236,4949,1,0,0:0:0:0:
196,276,5103,5,2,0:0:0:0:
196,276,5180,1,0,0:0:0:0:
196,276,5256,1,0,0:0:0:0:
144,212,5410,1,8,0:0:0:0:
188,140,5564,1,0,0:0:0:0:
268,112,5718,2,0,L|312:84,3,42.5,2|0|2|0,0:0|0:0|0:0|0:0,0:0:0:0:
344,104,6026,2,0,P|376:144|368:176,1,85,8|2,0:0|0:0,0:0:0:0:
312,236,6333,5,2,0:0:0:0:
228,216,6487,1,0,0:0:0:0:
144,236,6641,2,0,P|104:276|88:320,2,85,10|2|0,0:0|0:0|0:0,0:0:0:0:
184,160,7103,1,2,0:0:0:0:
160,80,7256,38,0,P|108:64|56:76,1,85,8|0,0:0|0:0,0:0:0:0:
352,80,7564,2,0,P|404:64|456:76,1,85,2|0,0:0|0:0,0:0:0:0:
176,152,7872,1,8,0:0:0:0:
336,152,8026,1,2,0:0:0:0:
260,192,8180,6,0,L|300:216,3,42.5,2|0|2|0,0:0|0:0|0:0|0:0,0:0:0:0:
336,232,8487,2,0,L|400:208,3,42.5,10|0|0|0,0:0|0:0|0:0|0:0,0:0:0:0:
400,252,8795,2,0,P|344:336|300:320,1,127.5,2|0,0:0|0:0,0:0:0:0:
304,304,9103,2,0,L|196:304,1,85,10|0,0:0|0:0,0:0:0:0:
140,336,9410,1,0,0:0:0:0:
108,256,9564,5,2,0:0:0:0:
172,200,9718,1,8,0:0:0:0:
256,224,9872,2,0,L|256:320,1,85,0|0,0:0|0:0,0:0:0:0:
340,332,10180,1,2,0:0:0:0:
408,284,10333,1,8,0:0:0:0:
408,200,10487,2,0,L|300:200,1,85,2|0,0:0|0:0,0:0:0:0:
280,128,10795,1,2,0:0:0:0:
204,92,10949,1,8,0:0:0:0:
204,176,11103,2,0,L|256:256,1,85,2|0,0:0|0:0,0:0:0:0:
388,232,11410,38,0,L|324:312,1,85,2|8,0:0|0:0,0:0:0:0:
155,286,11718,2,0,L|118:190,1,85,6|4,0:0|0:0,0:0:0:0:
224,57,12026,2,0,L|325:73,1,85,6|12,0:0|0:0,0:0:0:0:
256,192,12333,1,0,0:0:0:0:
256,192,12487,5,6,0:0:0:0:
336,224,12641,1,0,0:0:0:0:
384,296,12795,2,0,P|432:272|456:236,2,85,8|2|0,0:0|0:0|0:0,0:0:0:0:
308,332,13256,1,0,0:0:0:0:
232,296,13410,6,0,L|148:248,1,85,10|0,0:0|0:0,0:0:0:0:
96,312,13718,2,0,L|52:212,1,85,0|2,0:0|0:0,0:0:0:0:
84,152,14026,1,8,0:0:0:0:
144,88,14180,1,0,0:0:0:0:
228,68,14333,37,2,0:0:0:0:
260,96,14410,2,0,P|292:136|276:184,1,85,0|0,0:0|0:0,0:0:0:0:
252,192,14641,1,10,0:0:0:0:
220,220,14718,2,0,P|200:264|216:296,1,85,0|0,0:0|0:0,0:0:0:0:
252,316,14949,2,0,L|296:332,3,42.5,2|0|0|0,0:0|0:0|0:0|0:0,0:0:0:0:
332,312,15256,2,0,P|396:280|416:236,2,85,10|0|6,0:0|0:0|0:0,0:0:0:0:
256,268,15718,5,0,0:0:0:0:
176,296,15872,1,8,0:0:0:0:
116,236,16026,2,0,P|76:204|64:152,1,85,2|0,0:0|0:0,0:0:0:0:
100,96,16333,1,0,0:0:0:0:
180,68,16487,6,0,P|224:60|288:76,1,85,10|0,0:0|0:0,0:0:0:0:
316,132,16795,1,0,0:0:0:0:
388,180,16949,2,0,P|424:140|420:88,2,85,2|8|0,0:0|0:0|0:0,0:0:0:0:
328,240,17410,37,2,0:0:0:0:
328,240,17487,1,0,0:0:0:0:
328,240,17564,2,0,P|268:264|212:260,1,85,2|8,0:0|0:0,0:0:0:0:
180,316,17872,1,2,0:0:0:0:
116,260,18026,2,0,L|80:212,3,42.5,2|0|2|0,0:0|0:0|0:0|0:0,0:0:0:0:
80,184,18333,2,0,P|84:120|116:88,1,85,10|0,0:0|0:0,0:0:0:0:
176,72,18641,5,2,0:0:0:0:
260,48,18795,1,0,0:0:0:0:
320,108,18949,2,0,P|360:140|408:144,1,85,8|2,0:0|0:0,0:0:0:0:
456,204,19256,2,0,P|400:244|348:252,1,85,0|0,0:0|0:0,0:0:0:0:
320,304,19564,5,10,0:0:0:0:
240,272,19718,1,0,0:0:0:0:
156,292,19872,1,0,0:0:0:0:
96,232,20026,2,0,P|48:276|40:312,2,85,2|0|0,0:0|0:0|0:0,0:0:0:0:
132,156,20487,38,0,L|160:112,3,42.5,10|0|0|0,0:0|0:0|0:0|0:0,0:0:0:0:
192,96,20795,2,0,L|236:84,3,42.5,2|0|2|0,0:0|0:0|0:0|0:0,0:0:0:0:
276,80,21103,2,0,P|340:80|372:104,1,85,10|0,0:0|0:0,0:0:0:0:
324,168,21410,1,0,0:0:0:0:
388,224,21564,2,0,P|416:264|428:312,1,85,2|4,0:0|0:0,0:0:0:0:
348,332,21872,5,2,0:0:0:0:
272,296,22026,1,8,0:0:0:0:
192,328,22180,2,0,P|140:312|112:288,1,85,0|0,0:0|0:0,0:0:0:0:
96,212,22487,1,2,0:0:0:0:
136,136,22641,1,8,0:0:0:0:
80,72,22795,2,0,P|140:48|192:60,1,85,0|0,0:0|0:0,0:0:0:0:
224,104,23103,1,2,0:0:0:0:
304,72,23256,1,8,0:0:0:0:
380,112,23410,2,0,P|384:176|344:200,1,85,0|4,0:0|0:0,0:0:0:0:
256,288,23718,6,0,L|224:376,1,85,2|8,0:0|0:0,0:0:0:0:
172,144,24026,2,0,L|112:72,1,85,0|2,0:0|0:0,0:0:0:0:
339,144,24333,2,0,L|431:127,1,85,0|2,0:0|0:0,0:0:0:0:
452,160,24564,2,0,L|488:212,2,42.5
420,188,24795,38,0,P|376:232|344:232,1,85,2|0,0:0|0:0,0:0:0:0:
272,216,25103,1,8,0:0:0:0:
220,284,25256,1,0,0:0:0:0:
124,259,25410,1,0,0:0:0:0:
124,259,25487,1,0,0:0:0:0:
124,259,25564,1,0,0:0:0:0:
180,192,25718,1,8,0:0:0:0:
132,124,25872,1,0,0:0:0:0:
188,60,26026,6,0,P|236:52|292:64,1,85,6|0,0:0|0:0,0:0:0:0:
232,132,26333,1,8,0:0:0:0:
312,164,26487,1,0,0:0:0:0:
392,196,26641,1,0,0:0:0:0:
392,196,26718,1,0,0:0:0:0:
392,196,26795,1,0,0:0:0:0:
384,280,26949,1,8,0:0:0:0:
300,300,27103,1,0,0:0:0:0:
220,272,27256,6,0,L|112:296,1,85,2|0,0:0|0:0,0:0:0:0:
56,264,27564,2,0,L|108:176,1,85,10|0,0:0|0:0,0:0:0:0:
144,120,27872,1,2,0:0:0:0:
144,120,27949,1,0,0:0:0:0:
144,120,28026,1,0,0:0:0:0:
208,64,28180,2,0,L|312:96,1,85,10|0,0:0|0:0,0:0:0:0:
372,68,28487,37,6,0:0:0:0:
448,108,28641,1,0,0:0:0:0:
476,188,28795,1,8,0:0:0:0:
440,264,28949,1,0,0:0:0:0:
364,296,29103,1,0,0:0:0:0:
364,296,29180,1,0,0:0:0:0:
364,296,29256,1,0,0:0:0:0:
284,328,29410,2,0,P|240:328|200:312,1,85,10|0,0:0|0:0,0:0:0:0:
120,340,29718,6,0,P|92:288|128:172,1,170,6|8,0:0|0:0,0:0:0:0:
176,124,30180,1,0,0:0:0:0:
252,84,30333,1,6,0:0:0:0:
252,84,30410,1,0,0:0:0:0:
252,84,30487,1,0,0:0:0:0:
336,72,30641,1,8,0:0:0:0:
420,88,30795,1,0,0:0:0:0:
436,172,30949,6,0,P|424:256|344:312,1,170,6|8,0:0|0:0,0:0:0:0:
276,304,31410,1,0,0:0:0:0:
204,260,31564,1,2,0:0:0:0:
204,260,31641,1,0,0:0:0:0:
204,260,31718,1,0,0:0:0:0:
128,224,31872,2,0,L|48:176,1,85,10|0,0:0|0:0,0:0:0:0:
108,112,32180,38,0,P|160:88|272:144,1,170,6|8,0:0|0:0,0:0:0:0:
340,100,32641,1,0,0:0:0:0:
408,152,32795,1,0,0:0:0:0:
408,152,32872,1,0,0:0:0:0:
408,152,32949,1,0,0:0:0:0:
432,236,33103,1,0,0:0:0:0:
376,300,33256,1,0,0:0:0:0:
292,316,33410,6,0,P|248:328|184:308,1,85,0|0,0:0|0:0,0:0:0:0:
244,244,33718,2,0,P|200:220|152:216,1,85,8|0,0:0|0:0,0:0:0:0:
92,172,34026,1,0,0:0:0:0:
144,108,34180,1,0,0:0:0:0:
228,96,34333,1,8,0:0:0:0:
248,84,34410,1,0,0:0:0:0:
268,76,34487,1,0,0:0:0:0:
288,68,34564,1,0,0:0:0:0:
308,60,34641,6,0,P|380:48|444:140,1,170,6|8,0:0|0:0,0:0:0:0:
412,192,35103,1,0,0:0:0:0:
344,240,35256,2,0,L|292:324,1,85,6|0,0:0|0:0,0:0:0:0:
252,240,35564,2,0,L|160:280,1,85,8|0,0:0|0:0,0:0:0:0:
120,340,35872,38,0,P|88:256|160:192,1,170,6|8,0:0|0:0,0:0:0:0:
188,136,36333,1,0,0:0:0:0:
148,60,36487,2,0,P|104:40|56:60,1,85,2|0,0:0|0:0,0:0:0:0:
24,120,36795,2,0,P|64:136|112:120,1,85,10|0,0:0|0:0,0:0:0:0:
188,136,37103,5,2,0:0:0:0:
252,80,37256,1,0,0:0:0:0:
332,108,37410,1,10,0:0:0:0:
408,68,37564,1,0,0:0:0:0:
460,136,37718,2,0,P|460:184|424:224,1,85,2|0,0:0|0:0,0:0:0:0:
368,168,38026,2,0,P|352:228|376:264,1,85,10|0,0:0|0:0,0:0:0:0:
432,296,38333,6,0,P|348:332|276:276,1,170,2|8,0:0|0:0,0:0:0:0:
244,220,38795,1,0,0:0:0:0:
184,160,38949,1,0,0:0:0:0:
160,240,39103,2,0,P|104:264|72:312,2,85,0|10|0,0:0|0:0|0:0,0:0:0:0:
184,160,39564,38,0,P|228:116|352:132,1,170,6|8,0:0|0:0,0:0:0:0:
408,80,40026,2,0,P|416:132|308:200,1,170,2|0,0:0|0:0,0:0:0:0:
372,280,40487,2,0,P|332:320|280:332,1,85,10|0,0:0|0:0,0:0:0:0:
276,248,40795,2,0,P|216:264|172:252,1,85,2|0,0:0|0:0,0:0:0:0:
232,184,41103,2,0,P|176:168|148:136,1,85,10|0,0:0|0:0,0:0:0:0:
224,100,41410,2,0,P|280:116|296:232,1,170,0|10,0:0|0:0,0:0:0:0:
232,184,41872,1,0,0:0:0:0:
152,156,42026,6,0,P|156:216|252:268,1,170,0|8,0:0|0:0,0:0:0:0:
320,228,42487,1,0,0:0:0:0:
316,312,42641,1,0,0:0:0:0:
240,352,42795,1,0,0:0:0:0:
243,268,42949,1,8,0:0:0:0:
244,184,43103,1,0,0:0:0:0:
160,168,43256,6,0,P|200:112|320:224,1,255,2|0,0:0|0:0,0:0:0:0:
328,189,43872,1,8,0:0:0:0:
200,300,44180,37,2,0:0:0:0:
200,300,44333,1,0,0:0:0:0:
132,252,44487,2,0,P|104:200|152:84,1,170,6|8,0:0|0:0,0:0:0:0:
212,64,44949,1,0,0:0:0:0:
272,124,45103,2,0,P|320:128|352:104,1,85,2|0,0:0|0:0,0:0:0:0:
416,164,45410,2,0,P|384:216|344:232,1,85,8|0,0:0|0:0,0:0:0:0:
408,300,45718,6,0,P|328:304|280:216,1,170,2|8,0:0|0:0,0:0:0:0:
364,226,46180,1,0,0:0:0:0:
320,300,46333,2,0,P|268:336|168:304,1,170,2|8,0:0|0:0,0:0:0:0:
92,336,46795,1,0,0:0:0:0:
60,256,46949,6,0,L|156:220,1,85,2|0,0:0|0:0,0:0:0:0:
204,168,47256,2,0,L|112:120,1,85,10|0,0:0|0:0,0:0:0:0:
188,68,47564,2,0,L|304:32,1,85,2|0,0:0|0:0,0:0:0:0:
276,128,47872,2,0,L|352:176,1,85,8|0,0:0|0:0,0:0:0:0:
428,140,48180,38,0,P|424:216|336:260,1,170,2|8,0:0|0:0,0:0:0:0:
280,308,48641,1,0,0:0:0:0:
200,280,48795,1,0,0:0:0:0:
124,320,48949,1,0,0:0:0:0:
72,252,49103,2,0,P|68:204|100:160,1,85,10|0,0:0|0:0,0:0:0:0:
28,108,49410,6,0,P|96:88|168:148,1,170,6|8,0:0|0:0,0:0:0:0:
212,220,49872,1,0,0:0:0:0:
484,108,50026,2,0,P|416:88|344:148,1,170,2|8,0:0|0:0,0:0:0:0:
300,220,50488,1,0,0:0:0:0:
184,300,50641,2,0,P|256:340|328:300,1,170,2|8,0:0|0:0,0:0:0:0:
256,256,51103,1,0,0:0:0:0:
200,192,51256,6,0,P|160:168|120:164,1,85,2|0,0:0|0:0,0:0:0:0:
164,88,51564,2,0,P|216:68|256:72,1,85,10|0,0:0|0:0,0:0:0:0:
308,13,51872,2,0,P|327:92|272:152,1,170,2|8,0:0|0:0,0:0:0:0:
188,136,52333,1,0,0:0:0:0:
112,172,52487,1,0,0:0:0:0:
136,256,52641,1,0,0:0:0:0:
220,252,52795,1,8,0:0:0:0:
284,308,52949,1,0,0:0:0:0:
368,328,53103,38,0,L|432:264,1,85
352,228,53410,2,0,L|272:176,1,85,8|0,0:0|0:0,0:0:0:0:
232,252,53718,2,0,L|112:224,1,85,0|2,0:0|0:0,0:0:0:0:
104,160,54026,1,12,0:0:0:0:
168,104,54180,1,0,0:0:0:0:
232,160,54333,6,0,P|288:204|392:172,1,170,2|8,0:0|0:0,0:0:0:0:
316,124,54795,1,0,0:0:0:0:
276,200,54949,2,0,P|242:262|291:359,1,170,2|8,0:0|0:0,0:0:0:0:
324,276,55410,1,0,0:0:0:0:
244,248,55564,2,0,P|188:204|84:236,1,170,2|8,0:0|0:0,0:0:0:0:
160,280,56026,1,0,0:0:0:0:
196,204,56180,2,0,P|229:141|180:44,1,170,2|8,0:0|0:0,0:0:0:0:
152,128,56641,1,0,0:0:0:0:
228,164,56795,6,0,L|340:136,1,85,6|0,0:0|0:0,0:0:0:0:
344,64,57103,2,0,L|432:132,1,85,10|0,0:0|0:0,0:0:0:0:
380,196,57410,2,0,L|328:284,1,85,2|0,0:0|0:0,0:0:0:0:
260,228,57718,2,0,L|152:204,1,85,8|0,0:0|0:0,0:0:0:0:
140,288,58026,38,0,P|92:224|148:128,1,170,2|8,0:0|0:0,0:0:0:0:
168,76,58487,1,0,0:0:0:0:
248,52,58641,1,0,0:0:0:0:
292,124,58795,2,0,P|332:88|348:44,2,85,0|14|4,0:0|0:0|0:0,0:0:0:0:
216,160,59256,6,0,P|264:204|368:160,1,170,2|8,0:0|0:0,0:0:0:0:
357,177,59718,2,0,P|324:228|372:324,1,170,2|0,0:0|0:0,0:0:0:0:
288,356,60180,1,10,0:0:0:0:
216,312,60333,1,0,0:0:0:0:
132,324,60487,2,0,P|88:260|132:164,1,170,6|8,0:0|0:0,0:0:0:0:
168,244,60949,2,0,P|196:200|140:96,1,170,2|0,0:0|0:0,0:0:0:0:
114,177,61410,1,10,0:0:0:0:
256,268,61718,1,2,0:0:0:0:
256,192,61872,12,4,63564,0:0:0:0:
256,248,64180,5,4,0:0:0:0:
164,192,73410,37,4,0:0:0:0:
336,192,73564,1,0,0:0:0:0:
256,344,73718,1,8,0:0:0:0:
236,336,73795,1,0,0:0:0:0:
216,328,73872,1,0,0:0:0:0:
200,320,73949,1,0,0:0:0:0:
184,308,74026,6,0,P|120:252|116:156,1,170,6|8,0:0|0:0,0:0:0:0:
160,100,74487,1,0,0:0:0:0:
236,64,74641,2,0,P|296:44|356:56,1,85,2|0,0:0|0:0,0:0:0:0:
292,128,74949,2,0,P|356:140|384:164,1,85,8|0,0:0|0:0,0:0:0:0:
456,156,75256,6,0,P|400:232|308:208,1,170,2|8,0:0|0:0,0:0:0:0:
248,252,75718,1,0,0:0:0:0:
216,332,75872,2,0,P|176:300|164:256,1,85,0|0,0:0|0:0,0:0:0:0:
100,212,76180,1,10,0:0:0:0:
148,144,76333,1,0,0:0:0:0:
192,72,76487,38,0,P|272:48|344:128,1,170,6|8,0:0|0:0,0:0:0:0:
256,132,76949,1,0,0:0:0:0:
328,176,77103,2,0,P|252:216|172:152,1,170,2|8,0:0|0:0,0:0:0:0:
256,132,77564,1,0,0:0:0:0:
328,176,77718,6,0,L|416:236,1,85,2|0,0:0|0:0,0:0:0:0:
328,276,78026,2,0,L|380:352,2,85,8|0|0,0:0|0:0|0:0,0:0:0:0:
248,248,78487,1,2,0:0:0:0:
168,280,78641,1,12,0:0:0:0:
104,224,78795,1,4,0:0:0:0:
40,168,78949,6,0,P|128:140|188:220,1,170,2|8,0:0|0:0,0:0:0:0:
236,120,79410,1,0,0:0:0:0:
296,60,79564,2,0,P|317:138|264:200,1,170,2|10,0:0|0:0,0:0:0:0:
312,272,80026,1,0,0:0:0:0:
256,336,80180,38,0,P|148:348|88:288,1,170,2|8,0:0|0:0,0:0:0:0:
48,248,80641,1,0,0:0:0:0:
88,172,80795,1,0,0:0:0:0:
60,92,80949,2,0,P|100:88|152:116,1,85,0|10,0:0|0:0,0:0:0:0:
224,96,81256,1,0,0:0:0:0:
304,68,81410,6,0,L|416:40,1,85,2|0,0:0|0:0,0:0:0:0:
436,137,81718,2,0,L|352:144,1,85,10|0,0:0|0:0,0:0:0:0:
372,228,82026,2,0,L|468:244,1,85,2|0,0:0|0:0,0:0:0:0:
436,339,82333,2,0,L|356:312,1,85,10|0,0:0|0:0,0:0:0:0:
280,344,82641,6,0,P|196:356|116:296,1,170,2|8,0:0|0:0,0:0:0:0:
76,244,83102,1,0,0:0:0:0:
92,160,83256,1,4,0:0:0:0:
164,116,83410,1,4,0:0:0:0:
240,80,83564,2,0,L|296:56,3,42.5,8|0|0|0,0:0|0:0|0:0|0:0,0:0:0:0:
320,56,83872,6,0,P|376:68|400:100,1,85,6|8,0:0|0:0,0:0:0:0:
344,156,84488,1,2,0:0:0:0:
364,240,84795,1,8,0:0:0:0:
300,296,85103,2,0,P|244:320|208:304,1,85,2|8,0:0|0:0,0:0:0:0:
160,260,85718,1,0,0:0:0:0:
120,184,86026,2,0,P|120:152|136:136,1,42.5,10|0,0:0|0:0,0:0:0:0:
156,112,86334,6,0,P|196:88|248:88,1,85,2|8,0:0|0:0,0:0:0:0:
276,92,86795,1,0,0:0:0:0:
316,104,86949,2,0,P|360:144|372:184,2,85,2|8|2,0:0|0:0|0:0,0:0:0:0:
264,172,87872,1,8,0:0:0:0:
196,224,88180,1,0,0:0:0:0:
156,244,88334,2,0,L|112:228,2,42.5,2|8|0,0:0|0:0|0:0,0:0:0:0:
172,284,88795,54,0,P|200:332|240:336,1,85,6|8,0:0|0:0,0:0:0:0:
300,296,89411,1,2,0:0:0:0:
328,216,89718,1,8,0:0:0:0:
384,152,90026,2,0,P|328:112|300:116,1,85,2|8,0:0|0:0,0:0:0:0:
256,52,90641,1,0,0:0:0:0:
172,68,90949,2,0,P|148:80|128:104,1,42.5,10|0,0:0|0:0,0:0:0:0:
100,116,91257,6,0,P|96:184|112:200,1,85,2|8,0:0|0:0,0:0:0:0:
168,252,91872,1,0,0:0:0:0:
248,280,92180,1,8,0:0:0:0:
312,224,92488,1,2,0:0:0:0:
216,80,93718,54,0,P|264:96|292:120,1,85,6|8,0:0|0:0,0:0:0:0:
372,140,94334,1,2,0:0:0:0:
368,224,94641,1,8,0:0:0:0:
300,276,94949,2,0,P|252:304|216:288,1,85,2|0,0:0|0:0,0:0:0:0:
160,244,95564,1,0,0:0:0:0:
128,164,95872,2,0,P|140:132|152:124,1,42.5,10|0,0:0|0:0,0:0:0:0:
180,100,96180,6,0,P|232:84|276:96,1,85,0|10,0:0|0:0,0:0:0:0:
304,100,96641,1,0,0:0:0:0:
336,128,96795,2,0,P|368:176|360:204,2,85,0|10|2,0:0|0:0|0:0,0:0:0:0:
276,188,97718,1,8,0:0:0:0:
256,272,98026,1,0,0:0:0:0:
216,284,98180,2,0,L|192:324,2,42.5,2|8|0,0:0|0:0|0:0,0:0:0:0:
180,260,98641,54,0,P|136:240|112:192,1,85,6|8,0:0|0:0,0:0:0:0:
88,128,99257,1,2,0:0:0:0:
144,64,99564,1,8,0:0:0:0:
228,84,99872,1,2,0:0:0:0:
364,300,100795,6,0,L|324:312,1,42.5,10|0,0:0|0:0,0:0:0:0:
284,328,101103,2,0,P|236:332|196:312,1,85,2|8,0:0|0:0,0:0:0:0:
172,236,101718,2,0,P|232:236|264:216,1,85,2|8,0:0|0:0,0:0:0:0:
300,152,102334,1,0,0:0:0:0:
256,192,102488,12,0,103564,0:0:0:0:
360,192,103872,54,0,L|376:204,8,10.625,0|0|0|0|0|0|0|0|2,0:0|0:0|0:0|0:0|0:0|0:0|0:0|0:0|0:0,0:0:0:0:
256,56,104795,1,2,0:0:0:0:
204,124,105103,1,8,0:0:0:0:
280,164,105411,1,6,0:0:0:0:
256,332,106026,1,0,0:0:0:0:
196,272,106334,1,10,0:0:0:0:
196,272,106488,1,0,0:0:0:0:
196,272,106641,22,0,P|152:224|152:188,1,85,6|0,0:0|0:0,0:0:0:0:
84,152,106948,1,10,0:0:0:0:
136,84,107102,1,0,0:0:0:0:
220,64,107256,2,0,P|280:76|304:104,1,85,2|0,0:0|0:0,0:0:0:0:
304,177,107564,2,0,P|263:175|232:148,1,85,10|0,0:0|0:0,0:0:0:0:
384,148,107871,6,0,P|368:240|276:256,1,170,2|8,0:0|0:0,0:0:0:0:
224,236,108333,1,0,0:0:0:0:
144,264,108487,1,0,0:0:0:0:
104,188,108641,2,0,P|56:136|48:104,2,85,2|8|0,0:0|0:0|0:0,0:0:0:0:
164,128,109102,6,0,P|224:100|324:128,1,170,6|8,0:0|0:0,0:0:0:0:
396,88,109564,1,0,0:0:0:0:
456,148,109717,2,0,P|444:192|408:224,1,85,2|0,0:0|0:0,0:0:0:0:
448,300,110025,2,0,P|396:332|360:328,1,85,8|0,0:0|0:0,0:0:0:0:
300,372,110333,38,0,P|240:356|176:256,1,170,2|8,0:0|0:0,0:0:0:0:
120,336,110794,1,0,0:0:0:0:
204,328,110948,2,0,P|256:304|308:204,1,170,0|10,0:0|0:0,0:0:0:0:
256,140,111410,1,0,0:0:0:0:
208,72,111564,6,0,L|96:84,1,85,2|0,0:0|0:0,0:0:0:0:
144,164,111871,2,0,L|60:196,1,85,10|0,0:0|0:0,0:0:0:0:
116,260,112179,2,0,L|200:292,1,85,2|0,0:0|0:0,0:0:0:0:
240,364,112487,2,0,L|308:300,1,85,8|0,0:0|0:0,0:0:0:0:
380,340,112794,6,0,P|368:248|280:224,1,170,2|8,0:0|0:0,0:0:0:0:
224,248,113256,1,0,0:0:0:0:
164,188,113410,1,4,0:0:0:0:
196,108,113564,1,0,0:0:0:0:
272,72,113717,1,8,0:0:0:0:
292,64,113794,1,0,0:0:0:0:
316,64,113871,1,0,0:0:0:0:
336,68,113948,1,0,0:0:0:0:
356,76,114025,38,0,P|412:120|392:224,1,170,2|8,0:0|0:0,0:0:0:0:
384,296,114487,1,0,0:0:0:0:
308,332,114641,2,0,P|258:339|224:334,1,85,2|0,0:0|0:0,0:0:0:0:
200,252,114948,2,0,P|156:228|132:204,1,85,10|0,0:0|0:0,0:0:0:0:
48,176,115256,6,0,P|108:120|204:152,1,170,2|8,0:0|0:0,0:0:0:0:
268,108,115717,1,0,0:0:0:0:
348,136,115871,2,0,P|392:160|400:192,1,85,0|0,0:0|0:0,0:0:0:0:
348,260,116179,1,10,0:0:0:0:
272,296,116333,1,0,0:0:0:0:
156,188,116487,6,0,P|156:140|256:104,1,170,6|8,0:0|0:0,0:0:0:0:
332,140,116948,1,0,0:0:0:0:
156,188,117102,2,0,P|156:236|256:272,1,170,2|8,0:0|0:0,0:0:0:0:
332,236,117563,1,0,0:0:0:0:
408,200,117717,38,0,P|328:152|260:192,1,170,2|8,0:0|0:0,0:0:0:0:
192,144,118179,1,0,0:0:0:0:
148,216,118333,1,0,0:0:0:0:
80,264,118487,2,0,P|64:292|72:344,2,85,2|12|4,0:0|0:0|0:0,0:0:0:0:
148,216,118948,6,0,P|220:256|328:240,1,170,2|8,0:0|0:0,0:0:0:0:
372,196,119410,1,0,0:0:0:0:
305,250,119564,2,0,P|253:198|245:154,1,85,2|0,0:0|0:0,0:0:0:0:
312,132,119871,2,0,P|272:104|228:104,1,85,10|0,0:0|0:0,0:0:0:0:
204,24,120179,6,0,P|152:104|208:180,1,170,2|8,0:0|0:0,0:0:0:0:
256,200,120641,1,0,0:0:0:0:
320,256,120794,1,0,0:0:0:0:
256,312,120948,1,0,0:0:0:0:
184,356,121102,2,0,P|152:328|136:288,1,85,10|2,0:0|0:0,0:0:0:0:
108,208,121410,37,2,0:0:0:0:
52,144,121564,1,0,0:0:0:0:
100,76,121717,1,10,0:0:0:0:
172,120,121871,1,0,0:0:0:0:
240,68,122025,1,2,0:0:0:0:
312,116,122179,1,0,0:0:0:0:
396,92,122333,1,10,0:0:0:0:
440,164,122487,2,0,P|424:204|388:228,1,85,0|2,0:0|0:0,0:0:0:0:
256,192,122794,12,2,123871,0:0:0:0:
180,96,124025,5,0,0:0:0:0:
124,188,124179,2,0,P|132:244|168:280,1,106.25,8|0,0:0|0:0,0:0:0:0:
256,224,124487,2,0,L|356:268,1,106.25,2|0,0:0|0:0,0:0:0:0:
344,160,124794,2,0,L|240:116,1,106.25,8|0,0:0|0:0,0:0:0:0:
324,44,125102,6,0,P|420:92|464:216,1,212.5,2|8,0:0|0:0,0:0:0:0:
384,256,125564,1,0,0:0:0:0:
324,44,125717,2,0,P|280:120|140:152,1,212.5,0|10,0:0|0:0,0:0:0:0:
92,80,126179,1,0,0:0:0:0:
60,180,126333,38,0,L|76:292,1,106.25,2|0,0:0|0:0,0:0:0:0:
148,208,126641,2,0,L|164:328,1,106.25,8|0,0:0|0:0,0:0:0:0:
256,368,126948,2,0,L|240:252,1,106.25,2|0,0:0|0:0,0:0:0:0:
336,312,127256,2,0,L|316:188,1,106.25,8|0,0:0|0:0,0:0:0:0:
424,228,127564,6,0,P|376:108|288:88,1,212.5,2|8,0:0|0:0,0:0:0:0:
212,140,128025,1,0,0:0:0:0:
120,88,128179,1,0,0:0:0:0:
48,164,128333,1,2,0:0:0:0:
96,260,128487,1,8,0:0:0:0:
200,244,128641,1,0,0:0:0:0:
324,100,128794,6,0,P|384:152|372:280,1,212.5,6|8,0:0|0:0,0:0:0:0:
480,256,129256,1,0,0:0:0:0:
296,204,129410,2,0,P|232:248|88:220,1,212.5,2|10,0:0|0:0,0:0:0:0:
48,324,129871,1,0,0:0:0:0:
164,172,130025,38,0,P|148:100|32:32,2,212.5,2|8|0,0:0|0:0|0:0,0:0:0:0:
256,116,130794,1,0,0:0:0:0:
348,168,130948,1,10,0:0:0:0:
380,268,131102,1,0,0:0:0:0:
200,340,131256,6,0,L|288:276,1,106.25,2|0,0:0|0:0,0:0:0:0:
92,268,131564,2,0,L|220:228,1,106.25,10|0,0:0|0:0,0:0:0:0:
28,140,131871,2,0,L|136:168,1,106.25,2|0,0:0|0:0,0:0:0:0:
280,48,132179,2,0,L|164:80,1,106.25,10|0,0:0|0:0,0:0:0:0:
368,104,132487,6,0,P|440:152|408:296,1,212.5,2|8,0:0|0:0,0:0:0:0:
348,208,132948,1,0,0:0:0:0:
268,140,133102,1,4,0:0:0:0:
184,204,133256,1,0,0:0:0:0:
216,304,133410,1,8,0:0:0:0:
192,312,133487,1,0,0:0:0:0:
164,316,133564,1,0,0:0:0:0:
136,312,133641,1,0,0:0:0:0:
112,300,133717,38,0,P|80:256|120:104,1,212.5,6|8,0:0|0:0,0:0:0:0:
16,60,134179,1,0,0:0:0:0:
208,88,134333,2,0,L|320:96,1,106.25,2|0,0:0|0:0,0:0:0:0:
492,172,134641,2,0,L|376:192,1,106.25,0|0,0:0|0:0,0:0:0:0:
200,236,134948,6,0,P|240:308|264:208,1,212.5,10|0,0:0|0:0,0:0:0:0:
232,140,135410,1,0,0:0:0:0:
144,80,135564,1,8,0:0:0:0:
72,156,135717,1,0,0:0:0:0:
84,260,135871,2,0,P|104:308|144:348,1,106.25,2|0,0:0|0:0,0:0:0:0:
336,340,136179,6,0,P|368:268|344:116,1,212.5,14|0,0:0|0:0,0:0:0:0:
452,92,136641,1,0,0:0:0:0:
176,44,136794,38,0,P|144:116|168:268,1,212.5,10|0,0:0|0:0,0:0:0:0:
60,292,137256,1,0,0:0:0:0:
244,348,137410,6,0,L|244:236,1,106.25,10|0,0:0|0:0,0:0:0:0:
292,36,137717,2,0,L|292:172,1,106.25,0|0,0:0|0:0,0:0:0:0:
96,160,138025,2,0,L|232:160,1,106.25,8|2,0:0|0:0,0:0:0:0:
412,228,138333,2,0,L|296:228,1,106.25,0|0,0:0|0:0,0:0:0:0:
160,100,138641,6,0,P|256:60|376:124,1,212.5,10|0,0:0|0:0,0:0:0:0:
436,164,139102,1,0,0:0:0:0:
352,284,139256,2,0,P|256:324|136:260,1,212.5,10|2,0:0|0:0,0:0:0:0:
76,220,139717,1,0,0:0:0:0:
264,192,139871,2,0,L|496:192,2,212.5,10|0|8,0:0|0:0|0:0,0:0:0:0:
200,108,140641,1,0,0:0:0:0:
136,192,140794,1,2,0:0:0:0:
200,280,140948,1,0,0:0:0:0:
304,300,141102,38,0,L|348:344,3,53.125,10|0|0|0,0:0|0:0|0:0|0:0,0:0:0:0:
380,300,141410,2,0,L|416:248,3,53.125,2|0|0|0,0:0|0:0|0:0|0:0,0:0:0:0:
384,212,141717,2,0,L|344:160,3,53.125,10|0|0|0,0:0|0:0|0:0|0:0,0:0:0:0:
304,144,142025,2,0,L|232:100,3,53.125,2|0|0|0,0:0|0:0|0:0|0:0,0:0:0:0:
208,96,142333,5,2,0:0:0:0:
184,88,142410,1,0,0:0:0:0:
160,80,142487,1,0,0:0:0:0:
132,84,142564,1,0,0:0:0:0:
108,96,142641,1,8,0:0:0:0:
88,112,142717,1,0,0:0:0:0:
76,136,142794,1,0,0:0:0:0:
72,164,142871,1,0,0:0:0:0:
76,192,142948,5,0,0:0:0:0:
88,216,143025,1,0,0:0:0:0:
104,236,143102,1,0,0:0:0:0:
124,256,143179,1,0,0:0:0:0:
144,272,143256,1,8,0:0:0:0:
168,284,143333,1,0,0:0:0:0:
192,292,143410,1,0,0:0:0:0:
220,296,143487,1,0,0:0:0:0:
240,292,143564,37,4,0:0:0:0:
