osu file format v8

[General]
AudioFilename: bleach_opening_new.mp3
AudioLeadIn: 1985
PreviewTime: 54031
Countdown: 0
SampleSet: Soft
StackLeniency: 0.7
Mode: 0
LetterboxInBreaks: 1

[Editor]
DistanceSpacing: 1.6
BeatDivisor: 4
GridSize: 8

[Metadata]
Title:chAngE (TV Size)
Artist:miwa
Creator:Sekuyi
Version:Hollow
Source:BLEACH
Tags:Ichigo Kon Urahara Kuroneko-sHerald

[Difficulty]
HPDrainRate:7
CircleSize:4
OverallDifficulty:7
ApproachRate:8
SliderMultiplier:1
SliderTickRate:2

[Events]
//Background and Video events
0,0,"bg_ichigo.jpg"
Video,0,"BleachOpening_xvid.avi"
//Break Periods
2,13667,17808
2,42758,44536
//Storyboard Layer 0 (Background)
//Storyboard Layer 1 (Fail)
//Storyboard Layer 2 (Pass)
//Storyboard Layer 3 (Foreground)
//Storyboard Sound Samples
//Background Colour Transformations
3,100,163,162,255

[TimingPoints]
377,363.636363636364,4,2,0,50,1,0
18558,-100,4,1,0,50,0,0
45104,-100,4,2,0,50,0,0
50377,-100,4,1,0,50,0,0
54195,-100,4,1,0,50,0,1
60023,-100,4,1,0,50,0,0
65831,-100,4,1,0,50,0,1
70558,-100,4,1,0,50,0,0

[Colours]
Combo1 : 234,234,234
Combo2 : 242,79,0
Combo3 : 249,213,66
Combo4 : 165,3,3

[HitObjects]
64,56,377,1,0
128,104,558,1,0
64,152,740,1,0
128,200,922,1,0
64,248,1104,1,0
136,288,1286,1,0
184,352,1467,1,0
232,288,1649,1,0
296,336,1831,5,0
352,280,2013,1,0
432,264,2195,1,0
456,184,2377,1,0
464,104,2558,1,0
424,32,2740,1,0
344,48,2922,1,0
272,88,3104,1,0
200,56,3286,2,0,B|232:80|192:120|208:152,1,100
144,200,3831,5,0
144,280,4013,1,0
224,280,4195,1,0
224,360,4377,1,0
224,280,4558,1,0
224,200,4740,1,0
304,200,4922,5,0
384,200,5104,1,0
384,120,5286,1,0
464,120,5467,1,0
304,32,5831,1,0
224,32,6013,1,0
144,32,6195,2,0,B|112:56|152:96|136:128,1,100
136,288,6922,5,0
184,224,7104,1,0
232,288,7286,1,0
272,224,7467,1,0
320,288,7649,1,0
360,224,7831,1,0
408,288,8013,1,0
448,224,8195,1,0
496,288,8377,1,0
248,304,8740,6,0,B|224:336|184:296|152:312,1,100
248,184,9467,1,0
248,24,9831,1,0
248,184,10195,2,0,B|272:216|312:176|344:192,1,100,0|0
256,192,11104,12,4,13467
240,192,18558,6,0,B|272:192,6,25
192,256,19286,6,0,B|128:256|152:216|120:192,1,100
40,56,20013,1,0
120,56,20195,1,0
200,56,20376,1,8
248,120,20558,1,0
296,56,20740,2,0,B|328:40|352:64|384:80|400:80,1,100,0|0
448,232,21467,1,0
392,288,21649,1,0
320,328,21831,1,8
240,328,22013,1,0
240,248,22195,5,0
80,248,22558,1,0
80,88,22922,1,0
128,152,23104,1,0
176,88,23286,1,8
224,152,23467,1,0
272,88,23649,2,0,B|304:56|360:104|376:104,1,100
208,88,24377,1,0
352,152,24740,2,0,B|296:152,2,50,0|8|0
272,296,25467,5,0
432,296,25831,1,0
272,296,26195,1,0
192,296,26377,1,8
272,296,26558,1,0
192,160,26922,1,0
112,296,27286,1,0
272,296,27649,2,0,B|272:240,2,50,0|8|0
432,296,28377,5,0
432,136,28740,1,0
272,136,29104,2,0,B|344:136,2,50,0|8|0
224,72,29649,1,0
144,72,29831,1,0
104,144,30013,1,0
104,224,30195,2,0,B|104:280,4,50,0|8|0|8|4
72,40,31286,5,0
64,120,31467,1,0
136,88,31649,1,0
120,168,31831,1,0
192,136,32013,1,0
176,216,32195,1,0
248,184,32377,1,8
416,304,32740,5,0
472,40,33104,5,0
392,56,33286,1,0
448,112,33467,1,0
368,128,33649,1,0
424,184,33831,1,8
88,80,34195,5,0
32,352,34558,5,0
40,272,34740,1,0
104,320,34922,1,0
104,240,35104,1,0
168,280,35286,1,8
400,304,35649,5,0
296,40,36013,5,0
312,120,36195,1,0
368,64,36377,1,0
384,144,36558,1,0
440,88,36740,1,8
464,248,37104,5,0
384,248,37286,1,8
224,240,37649,1,0
256,312,37831,1,0
176,312,38013,1,0
144,240,38195,1,8
64,240,38376,1,0
96,312,38558,1,0
64,240,38740,1,8
64,80,39104,2,0,B|88:48|152:72|168:88|224:80,1,150,8|0
392,200,40013,5,0
312,200,40195,1,0
312,280,40376,1,8
224,120,40740,5,0
224,200,40922,1,0
144,200,41104,1,8
144,328,41467,5,0
224,328,41649,1,0
304,328,41831,2,0,B|328:304|280:288|328:232,1,100,8|0
328,72,42558,1,4
56,272,45286,5,0
104,336,45467,1,2
152,272,45649,1,0
200,336,45831,1,2
248,272,46013,1,0
296,336,46195,1,10
456,336,46558,6,0,B|440:312|448:272,1,50,2|0
376,248,46922,1,8
216,248,47286,1,2
80,168,47649,1,8
208,72,48013,1,2
256,136,48195,1,0
304,72,48376,1,10
456,120,48740,1,2
456,280,49104,1,8
456,120,49467,2,0,B|416:80|376:120|352:120,1,100,2|8
200,120,50195,1,2
368,32,50558,6,0,B|344:72|344:96|328:136|384:160|368:192|344:224|336:240,1,200,8|4
144,352,51831,1,4
384,352,52376,1,0
384,192,52740,1,4
144,192,53286,1,4
384,192,53831,1,0
256,192,54195,5,4
488,352,54740,5,0
472,272,54922,1,8
424,336,55104,1,0
408,256,55286,1,8
360,320,55467,1,0
344,240,55649,1,8
296,304,55831,1,0
280,224,56013,1,8
232,288,56195,1,0
216,208,56376,1,8
168,272,56558,1,0
152,192,56740,1,0
176,112,56922,5,0
192,72,57013,1,0
224,48,57104,1,0
304,48,57286,1,0
456,88,57649,1,8
304,128,58013,1,0
272,200,58195,1,0
248,280,58376,1,0
168,280,58558,5,8
168,200,58740,1,0
168,160,58831,1,0
168,120,58922,1,0
248,120,59104,1,0
328,120,59286,1,8
408,120,59467,1,0
408,200,59649,2,0,B|408:232,2,25
344,152,60013,6,0,B|344:120|296:96|256:96,1,100,4|8
344,240,60740,2,0,B|240:240,1,100,0|8
264,112,61467,2,8,B|232:144|200:144|192:112|160:112,1,100,4|8
16,112,62195,2,0,B|-8:136|40:160|32:184|0:200,1,100,4|8
48,264,62740,1,8
128,264,62922,2,0,B|144:288|176:256|208:256|232:272,1,100,4|8
272,112,63649,5,4
336,256,64013,1,8
392,104,64376,1,0
392,24,64558,1,0
392,184,64922,1,4
256,192,65013,12,4,65831
472,336,66376,6,0,B|408:336,3,50,0|0|0|8
376,272,67104,1,0
328,208,67286,2,0,B|264:208,3,50
200,208,68013,1,8
144,152,68195,1,0
88,208,68376,1,0
152,288,68558,5,0
192,288,68649,1,0
232,288,68740,1,0
312,288,68922,1,8
472,288,69286,1,0
312,288,69649,1,8
312,128,70013,1,0
232,128,70195,1,12
40,40,70740,5,0
72,112,70922,1,12
72,272,71286,1,0
40,344,71467,1,12
256,192,71831,12,0,73831
64,304,74376,5,0
144,304,74558,1,8
224,304,74740,1,0
304,304,74922,2,0,B|328:256|272:232|296:208|312:192,1,100,0|8
456,208,75649,1,0
456,128,75831,5,0
376,128,76013,1,8
296,128,76195,1,0
216,128,76376,1,0
216,208,76558,2,0,B|216:264,1,50,0|8
216,258,77104,1,0
256,192,77286,12,0,79649
456,312,80013,5,0
376,312,80195,1,0
296,312,80376,2,0,B|240:312,1,50,8|0
248,232,80740,1,0
328,232,80922,1,0
408,232,81104,2,0,B|464:232,1,50,8|0
456,152,81467,1,0
456,72,81649,1,0
376,72,81831,2,0,B|320:64|288:56|264:72,1,100,8|0
200,64,82376,1,0
200,144,82558,2,0,B|168:152|208:184|184:224|160:240,1,100,8|0
56,80,83286,5,8
56,240,83649,1,0
136,240,83831,1,0
216,240,84013,1,8
376,240,84376,1,0
376,320,84558,1,0
336,320,84649,1,0
296,320,84740,1,8
216,320,84922,1,0
56,320,85286,1,8
72,64,85649,6,0,B|40:80|56:112,1,50
136,112,86013,1,0
216,112,86195,2,0,B|248:128|232:160,1,50,8|0
392,120,86740,1,0
96,296,87104,5,0
176,296,87286,1,0
256,296,87467,1,0
288,224,87649,1,8
224,176,87831,1,0
192,152,87922,1,0
160,128,88013,1,8
112,192,88195,1,0
144,216,88286,1,0
176,240,88376,1,8
256,248,88558,1,0
336,248,88740,1,0
336,168,88922,1,12
