osu file format v8

[General]
AudioFilename: bleach_opening_new.mp3
AudioLeadIn: 1985
PreviewTime: 54031
Countdown: 0
SampleSet: Soft
StackLeniency: 0.7
Mode: 0
LetterboxInBreaks: 1

[Editor]
DistanceSpacing: 1
BeatDivisor: 6
GridSize: 8

[Metadata]
Title:chAngE (TV Size)
Artist:miwa
Creator:Sekuyi
Version:Bankai
Source:BLEACH
Tags:Ichigo Kon Urahara Kuroneko-sHerald

[Difficulty]
HPDrainRate:6
CircleSize:4
OverallDifficulty:7
ApproachRate:7
SliderMultiplier:1
SliderTickRate:2

[Events]
//Background and Video events
0,0,"bg_kisuke.jpg"
Video,0,"BleachOpening_xvid.avi"
//Break Periods
2,13667,18386
2,42758,44386
//Storyboard Layer 0 (Background)
//Storyboard Layer 1 (Fail)
//Storyboard Layer 2 (Pass)
//Storyboard Layer 3 (Foreground)
//Storyboard Sound Samples
//Background Colour Transformations
3,100,163,162,255

[TimingPoints]
377,363.636363636364,4,2,0,50,1,0
19286,-100,4,1,0,50,0,0
54195,-100,4,1,0,50,0,1
60013,-100,4,1,0,50,0,0
65831,-100,4,1,0,50,0,1
70558,-100,4,1,0,50,0,0

[Colours]
Combo1 : 209,209,163
Combo2 : 0,64,0
Combo3 : 128,128,64

[HitObjects]
64,56,377,1,0
64,152,740,1,0
64,256,1104,1,0
136,328,1467,1,0
208,256,1831,1,0
208,152,2195,1,0
208,56,2558,1,0
312,56,2922,5,0
360,72,3104,1,0
408,96,3286,2,0,B|440:120|400:160|416:192,1,100
416,288,4013,5,0
312,288,4376,1,0
240,224,4740,1,0
328,176,5104,1,0
248,120,5467,1,0
248,32,5831,1,0
160,80,6195,6,0,B|128:104|168:144|152:176,1,100
160,272,6922,1,0
240,336,7286,1,0
312,272,7649,1,0
384,336,8013,1,0
456,272,8377,1,0
440,168,8740,6,0,B|416:200|376:160|344:176,1,100
248,176,9467,1,0
248,72,9831,1,0
144,72,10195,2,0,B|120:104|80:64|48:80,1,100,0|0
256,192,11104,12,4,13467
64,64,19286,5,8
128,136,19649,1,0
200,64,20013,2,0,B|240:96|272:80|296:80,1,100
344,88,20558,1,0
392,104,20740,1,8
472,168,21104,1,0
384,208,21467,1,0
280,328,21831,5,0
240,296,22013,1,0
240,248,22195,1,8
240,152,22558,1,0
240,48,22922,1,0
344,48,23286,5,0
384,72,23467,1,0
408,120,23649,1,8
408,224,24013,1,0
408,328,24376,1,0
312,328,24740,2,0,B|256:328,2,50,0|0|8
144,328,25467,5,0
144,224,25831,1,0
96,136,26195,1,0
144,120,26376,1,0
192,136,26558,1,8
144,224,26922,5,0
144,328,27286,1,0
248,328,27649,2,0,B|248:272,2,50,0|0|8
352,328,28376,5,0
352,232,28740,1,0
328,136,29104,2,0,B|400:136,2,50,0|0|8
232,136,29831,1,0
136,136,30195,2,0,B|136:192,4,50,0|8|0|8|4
120,288,31286,5,0
192,360,31649,1,0
264,288,32013,1,0
192,216,32376,1,8
120,288,32740,1,0
192,360,33104,1,0
264,288,33467,1,0
264,184,33831,1,12
264,80,34195,5,0
336,152,34558,1,0
408,80,34922,1,0
336,16,35286,1,8
264,80,35649,1,0
336,152,36013,1,0
408,80,36376,1,0
408,176,36740,1,12
408,280,37104,5,0
360,280,37286,1,0
264,280,37649,1,0
216,304,37831,1,0
176,280,38013,1,0
136,304,38195,1,8
96,272,38377,1,0
72,232,38558,1,0
104,192,38740,1,8
104,88,39104,2,0,B|128:56|192:80|208:96|264:88,1,150,8|0
384,168,40013,5,0
312,240,40377,1,8
248,168,40740,1,0
184,240,41104,1,8
88,240,41467,1,0
88,136,41831,2,0,B|112:112|64:96|112:40,1,100,8|0
208,40,42558,1,4
440,56,45286,6,8,B|400:80|400:80|440:112|440:112|408:128|408:128|432:152|432:152|408:168|408:168|432:184|432:184|400:200,1,250
312,200,46558,1,8
264,200,46740,1,0
216,200,46922,1,8
112,200,47286,1,0
112,104,47649,1,8
216,104,48013,6,0,B|256:80|288:112|320:112,1,100,0|8
416,112,48740,1,0
416,216,49104,1,8
320,216,49467,2,0,B|280:176|240:216|216:216,1,100,0|8
128,216,50195,1,0
56,288,50558,6,0,B|96:312|120:312|160:328|184:272|216:288|248:312|264:320,1,200,8|4
400,312,51831,1,4
400,160,52377,1,0
400,64,52740,1,4
248,64,53286,1,4
96,64,53831,1,0
256,192,54195,5,4
456,352,54740,5,0
456,304,54922,1,8
408,320,55104,1,0
408,272,55286,1,8
368,296,55467,1,0
360,248,55649,1,8
320,280,55831,1,0
312,232,56013,1,8
280,272,56195,1,0
272,224,56377,1,8
240,264,56558,1,0
232,216,56740,1,0
184,208,56922,5,0
136,200,57104,2,8,B|120:168|152:160,1,50
248,160,57649,1,8
352,160,58013,1,0
400,160,58195,1,0
456,160,58377,1,0
456,208,58558,5,8
456,256,58740,1,0
408,256,58922,1,0
352,256,59104,1,0
328,296,59286,1,8
296,336,59467,1,0
272,296,59649,1,8
272,248,59831,1,8
288,200,60013,6,0,B|288:168|336:144|376:144,1,100,4|8
464,144,60740,2,8,B|472:104|432:96|400:120|368:112,1,100,4|8
288,112,61467,2,8,B|256:144|224:144|216:112|184:112,1,100,4|8
96,104,62195,2,0,B|72:128|120:152|112:176|80:192,1,100,4|8
88,240,62740,1,8
112,280,62922,2,0,B|128:304|160:272|192:272|216:288,1,100,4|8
304,280,63649,1,4
408,280,64013,1,8
408,176,64377,1,0
408,128,64558,1,4
256,192,64740,12,4,65831
360,192,66377,6,0,B|296:192,3,50,0|0|0|8
256,192,67104,1,0
208,192,67286,2,0,B|144:192,3,50
104,192,68013,1,8
104,240,68195,1,0
104,288,68377,1,0
152,288,68558,5,0
200,288,68740,2,8,B|256:288,1,50,8|0
352,288,69286,1,0
448,288,69649,1,0
448,184,70013,1,0
448,136,70195,1,12
256,192,70740,12,0,73831
40,40,74377,5,0
40,88,74558,2,0,B|80:72|104:88|128:96|152:80,1,100
240,88,75286,1,0
240,184,75649,1,0
240,232,75831,1,0
240,280,76013,2,0,B|200:264|176:280|152:288|128:272,1,100
44,280,76740,2,0,B|84:264|108:280|132:288|156:272,1,100
256,192,77286,12,0,79649
456,56,80013,5,0
456,104,80195,1,0
456,152,80377,2,0,B|440:192|472:216|464:256,1,100,8|0
416,248,80922,1,0
368,248,81104,2,0,B|352:208|384:184|376:144,1,100,8|0
376,104,81649,1,0
328,96,81831,2,0,B|296:72|264:80|248:96|224:96,1,100,8|0
136,96,82558,1,8
72,176,82922,1,0
72,312,83286,5,8
136,240,83649,1,0
184,240,83831,1,0
232,240,84013,1,8
336,240,84377,2,0,B|352:208|344:184,1,50
344,144,84740,1,8
344,96,84922,1,0
240,96,85286,1,8
432,96,85649,6,0,B|464:112|448:144,1,50
448,184,86013,1,0
448,232,86195,2,0,B|416:256|400:240,1,50,8|0
304,240,86740,1,8
112,80,87104,5,0
160,80,87286,1,0
208,80,87467,1,0
224,128,87649,2,8,B|256:112|296:136|336:128,1,100
352,168,88195,1,0
304,168,88377,1,0
256,168,88558,1,0
208,184,88740,2,8,B|192:152|224:136,1,50,0|12
