osu file format v12

[General]
AudioFilename: Sayonara.mp3
AudioLeadIn: 0
PreviewTime: 149605
Countdown: 0
SampleSet: Soft
StackLeniency: 0.7
Mode: 0
LetterboxInBreaks: 1
WidescreenStoryboard: 0

[Editor]
Bookmarks: 1404,11604,21204,23604,26004,28404,30204,50004,68604,87804,107605,110005,131605,150205,169405,189205,208406,227006,246206,266006,275606
DistanceSpacing: 1.2
BeatDivisor: 12
GridSize: 4

[Metadata]
Title:Sayonara
TitleUnicode:サヨナラ
Artist:miwa
ArtistUnicode:miwa
Creator:Azure
Version:Sayonara
Source:
Tags:Delight Nymph Zero__wind Fycho
BeatmapID:290762
BeatmapSetID:111843

[Difficulty]
HPDrainRate:7
CircleSize:4
OverallDifficulty:7
ApproachRate:8
SliderMultiplier:2
SliderTickRate:2

[Events]
//Background and Video events
0,0,"SayonaraBG.png",0,0
//Break Periods
2,21404,30054
2,189405,205256
//Storyboard Layer 0 (Background)
//Storyboard Layer 1 (Fail)
//Storyboard Layer 2 (Pass)
//Storyboard Layer 3 (Foreground)
Sprite,Foreground,Centre,"Az.png",320,240 F,0,1104,1404,0,1 M,0,1404,,475,395 F,0,1404,20304,1 F,0,20304,20604,1,0
Sprite,Foreground,Centre,"Ny.png",320,240 F,0,30504,30804,0,1 M,0,30804,,475,390 F,0,30804,49704,1 F,0,49704,50004,1,0
Sprite,Foreground,Centre,"Zw.png",320,240 F,0,49704,50004,0,1 M,0,50004,,475,390 F,0,50004,68304,1 F,0,68304,68604,1,0
Sprite,Foreground,Centre,"Az.png",320,240 F,0,68904,69204,0,1 M,0,69204,,475,385 F,0,69204,87504,1 F,0,87504,87804,1,0
Sprite,Foreground,Centre,"Fy.png",320,240 F,0,88104,88404,0,1 M,0,88404,,475,390 F,0,88404,109705,1 F,0,109705,110005,1,0
Sprite,Foreground,Centre,"Az.png",320,240 F,0,109705,110005,0,1 M,0,110005,,475,390 F,0,110005,131305,1 F,0,131305,131605,1,0
Sprite,Foreground,Centre,"Fy.png",320,240 F,0,131305,131605,0,1 M,0,131605,,475,385 F,0,131605,150205,1 F,0,150205,150505,1,0
Sprite,Foreground,Centre,"Ny.png",320,240 F,0,150505,150805,0,1 M,0,150805,,475,385 F,0,150805,169105,1 F,0,169105,169405,1,0
Sprite,Foreground,Centre,"Zw.png",320,240 F,0,169705,170005,0,1 M,0,170005,,475,390 F,0,170005,188905,1 F,0,188905,189205,1,0
Sprite,Foreground,Centre,"Zw.png",320,240 F,0,208106,208406,0,1 M,0,208406,,475,395 F,0,208406,227006,1 F,0,227006,227306,1,0
Sprite,Foreground,Centre,"Fy.png",320,240 F,0,227306,227606,0,1 M,0,227606,,475,385 F,0,227606,245906,1 F,0,245906,246206,1,0
Sprite,Foreground,Centre,"Az.png",320,240 F,0,246506,246806,0,1 M,0,246806,,475,385 F,0,246806,265706,1 F,0,265706,266006,1,0
//Storyboard Sound Samples
//Background Colour Transformations
3,100,128,128,128

[TimingPoints]
-396,600.006000060001,4,2,1,10,1,0
1404,-133.333333333333,4,2,2,15,0,0
2004,-133.333333333333,4,2,1,20,0,0
11604,-117.647058823529,4,2,1,35,0,0
30204,-100,4,2,4,40,0,0
48804,-100,4,2,4,30,0,0
50004,-100,4,2,1,50,0,0
68754,-100,4,2,1,40,0,0
68904,-100,4,2,1,50,0,0
69204,-83.3333333333333,4,2,1,55,0,1
87054,-100,4,2,1,50,0,1
87804,-100,4,2,1,45,0,0
87804,-100,4,2,2,30,0,0
88404,-100,4,2,1,45,0,0
89604,-200,4,2,1,45,0,0
90204,-100,4,2,1,45,0,0
92004,-200,4,2,1,45,0,0
92454,-100,4,2,1,45,0,0
94404,-200,4,2,1,45,0,0
94854,-100,4,2,1,45,0,0
96804,-200,4,2,1,45,0,0
97254,-100,4,2,1,45,0,0
110005,-100,4,2,4,45,0,0
131605,-100,4,2,1,40,0,0
141205,-100,4,2,1,50,0,0
146005,-100,4,2,1,40,0,0
150205,-100,4,2,3,55,0,0
150505,-100,4,2,3,55,0,0
150805,-100,4,2,3,60,0,1
152155,-100,4,2,3,30,0,1
152230,-100,4,2,3,60,0,1
152805,-100,4,2,3,10,0,1
152905,-100,4,2,3,60,0,1
153105,-100,4,2,3,10,0,1
153205,-100,4,2,3,60,0,1
154555,-100,4,2,3,30,0,1
154630,-100,4,2,3,60,0,1
155205,-100,4,2,3,10,0,1
155305,-100,4,2,3,60,0,1
155505,-100,4,2,3,10,0,1
155605,-100,4,2,3,60,0,1
157605,-100,4,2,3,40,0,1
157705,-100,4,2,3,60,0,1
157905,-100,4,2,3,40,0,1
158005,-100,4,2,3,60,0,1
159105,-100,4,2,3,10,0,1
159205,-100,4,2,3,60,0,1
159405,-100,4,2,3,10,0,1
159505,-100,4,2,3,60,0,1
159705,-100,4,2,3,10,0,1
159805,-100,4,2,3,60,0,1
160005,-100,4,2,3,10,0,1
160105,-100,4,2,3,60,0,1
160305,-100,4,2,3,10,0,1
160405,-100,4,2,3,60,0,1
162405,-100,4,2,3,10,0,1
162505,-100,4,2,3,60,0,1
162705,-100,4,2,3,10,0,1
162805,-100,4,2,3,60,0,1
163905,-100,4,2,3,10,0,1
164005,-100,4,2,3,60,0,1
164205,-100,4,2,3,10,0,1
164305,-100,4,2,3,60,0,1
164505,-100,4,2,3,10,0,1
164605,-100,4,2,3,60,0,1
164805,-100,4,2,3,10,0,1
164905,-100,4,2,3,60,0,1
165105,-100,4,2,3,10,0,1
165205,-100,4,2,3,60,0,1
167305,-100,4,2,3,45,0,1
167405,-100,4,2,3,60,0,1
169005,-100,4,2,3,10,0,1
169105,-100,4,2,3,60,0,1
169305,-100,4,2,3,10,0,1
169405,-100,4,2,3,60,0,1
169605,-100,4,2,3,10,0,1
169705,-100,4,2,3,60,0,1
169905,-100,4,2,3,10,0,1
170005,-100,4,2,1,50,0,0
174355,-100,4,2,1,40,0,0
174505,-100,4,2,1,50,0,0
179005,-100,4,2,2,40,0,0
179305,-100,4,2,1,50,0,0
181555,-100,4,2,1,40,0,0
181705,-100,4,2,1,50,0,0
183955,-100,4,2,1,40,0,0
184105,-100,4,2,1,50,0,0
184405,-100,4,2,1,40,0,0
184855,-100,4,2,1,50,0,0
186805,-100,4,2,1,40,0,0
187105,-100,4,2,1,50,0,0
188755,-100,4,2,1,40,0,0
188905,-100,4,2,1,50,0,0
189205,-100,4,2,1,30,0,0
206306,-100,4,2,1,40,0,0
206606,-100,4,2,1,50,0,0
206906,-100,4,2,1,60,0,0
207206,-100,4,2,1,70,0,0
207506,-100,4,2,1,80,0,0
207806,-100,4,2,1,50,0,0
208406,-100,4,2,1,45,0,0
208406,-100,4,2,1,50,0,0
219956,-100,4,2,1,40,0,0
220106,-100,4,2,1,50,0,0
222356,-100,4,2,1,40,0,0
222506,-100,4,2,1,50,0,0
224756,-100,4,2,1,40,0,0
224906,-100,4,2,1,50,0,0
227606,-100,4,2,1,55,0,1
246206,-100,4,2,0,30,0,0
246806,-100,4,2,1,50,0,0
266006,-133.333333333333,4,2,1,30,0,0

[Colours]
Combo1 : 217,196,145
Combo2 : 255,191,191
Combo3 : 217,209,142
Combo4 : 216,180,181

[HitObjects]
144,168,1404,1,2,0:0:0:0:
152,176,1704,1,2,0:0:0:0:
160,184,2004,2,0,P|208:212|280:224,1,112.500004291535
324,180,2604,2,0,P|292:156|252:152,1,75.0000028610231,2|0,1:0|0:0,0:0:0:0:
264,224,3054,1,0,0:0:0:0:
264,224,3204,2,0,P|296:248|332:252,2,75.0000028610231,0|0|2,0:0|0:0|1:0,0:0:0:0:
184,144,4104,1,0,0:0:0:0:
96,76,4404,6,0,P|164:36|232:44,1,150.000005722046,0|2,0:0|1:0,0:0:0:0:
296,136,5304,1,0,0:0:0:0:
296,136,5454,2,0,L|368:156,1,75.0000028610231
412,248,5904,2,0,L|340:228,1,75.0000028610231,0|2,0:0|1:0,0:0:0:0:
236,256,6504,1,0,0:0:0:0:
132,208,6804,6,0,P|84:264|8:280,1,150.000005722046,0|2,0:0|1:0,0:0:0:0:
24,140,7704,1,0,0:0:0:0:
36,132,7854,2,0,L|152:132,1,112.500004291535
288,96,8604,1,2,1:0:0:0:
160,136,8904,1,0,0:0:0:0:
280,88,9204,6,0,P|320:92|356:88,2,75.0000028610231,0|0|2,0:0|0:0|1:0,0:0:0:0:
472,184,10104,1,0,0:0:0:0:
460,192,10254,2,0,P|420:188|384:192,1,75.0000028610231
384,192,10704,1,2,1:0:0:0:
272,220,11004,1,2,1:0:0:0:
264,212,11304,1,0,0:0:0:0:
256,204,11604,6,0,L|212:124,1,85.0000016212464,6|0,0:0|0:0,0:0:0:0:
64,80,12204,2,0,L|104:154,1,85.0000016212464,0|2,1:0|0:0,0:0:0:0:
108,172,12654,1,0,0:0:0:0:
112,188,12804,2,0,L|152:262,1,85.0000016212464,0|2,0:0|0:0,0:0:0:0:
212,364,13404,1,0,1:0:0:0:
88,360,13704,2,0,L|3:360,2,85.0000016212464,2|0|0,0:0|0:0|0:0,0:0:0:0:
277,267,14604,5,0,1:0:0:0:
384,220,14904,2,0,L|432:208,1,42.5000008106232,2|0,0:0|0:0,0:0:0:0:
468,204,15204,2,0,P|440:172|432:128,1,85.0000016212464,0|2,0:0|0:0,0:0:0:0:
480,0,15804,1,0,1:0:0:0:
472,8,16104,1,2,0:0:0:0:
464,16,16404,6,0,P|404:60|336:64,1,127.50000243187,2|0,0:0|0:0,0:0:0:0:
280,52,17004,2,0,P|236:52|192:72,1,85.0000016212464,0|2,1:0|0:0,0:0:0:0:
148,120,17454,2,0,P|72:112|28:76,1,127.50000243187,0|2,0:0|0:0,0:0:0:0:
124,196,18204,2,0,P|116:240|92:280,1,85.0000016212464,0|2,1:0|0:0,0:0:0:0:
96,276,18804,5,0,0:0:0:0:
104,284,19404,1,0,1:0:0:0:
220,340,19704,1,2,0:0:0:0:
228,348,19854,1,0,0:0:0:0:
236,356,20004,2,0,B|300:368|300:368|356:352|368:296,1,170.000003242493,0|0,0:0|1:0,0:0:0:0:
368,296,21204,5,4,0:0:0:0:
140,40,30804,6,0,P|143:115|113:202,1,166.666666666667,4|0,0:0|0:0,0:0:0:0:
62,297,31404,2,0,P|64:246|75:198,1,100,8|2,0:0|0:0,0:0:0:0:
182,308,32004,2,0,P|216:346|261:360,2,100,8|2|8,0:0|0:0|0:0,0:0:0:0:
274,47,32904,2,0,L|277:118,1,66.6666666666667,2|0,0:0|0:0,0:0:0:0:
306,75,33204,6,0,P|314:149|337:224,1,150,0|0,1:0|0:0,0:0:0:0:
438,338,33804,2,0,P|472:301|482:250,1,100,8|2,0:0|0:0,0:0:0:0:
323,351,34404,2,0,L|221:363,2,100,8|2|8,0:0|0:0|0:0,0:0:0:0:
127,298,35304,2,0,L|57:311,1,66.6666666666667,2|0,0:0|0:0,0:0:0:0:
44,291,35604,6,0,P|31:242|38:184,1,100,0|2,1:0|0:0,0:0:0:0:
61,98,36104,1,2,0:0:0:0:
61,98,36204,2,0,P|110:85|168:92,1,100,8|0,0:0|0:0,0:0:0:0:
353,163,36804,2,0,P|402:167|450:154,1,100,8|2,0:0|0:0,0:0:0:0:
496,243,37304,1,0,0:0:0:0:
496,243,37404,2,0,L|478:347,1,100,8|2,0:0|0:0,0:0:0:0:
246,263,38004,6,0,P|210:335|126:364,1,166.666666666667,0|0,1:0|0:0,1:0:0:0:
35,207,38604,2,0,L|52:305,1,100,8|0,0:0|0:0,0:0:0:0:
133,54,39204,2,0,P|168:55|198:41,1,66.6666666666667,8|0,0:0|0:0,0:0:0:0:
272,60,39504,2,0,L|261:129,1,66.6666666666667,2|0,0:0|0:0,0:0:0:0:
260,142,39804,1,8,0:0:0:0:
457,227,40104,2,0,L|470:159,1,66.6666666666667,2|0,0:0|0:0,0:0:0:0:
434,252,40404,6,0,P|419:301|383:337,1,100,0|0,1:0|0:0,0:0:0:0:
294,316,40904,1,2,0:0:0:0:
294,316,41004,2,0,P|244:313|199:331,1,100,8|2,0:0|0:0,0:0:0:0:
105,312,41504,1,0,0:0:0:0:
105,312,41604,2,0,P|71:277|65:228,1,100,8|2,0:0|0:0,0:0:0:0:
110,110,42104,2,0,L|117:147,1,33.3333333333333,0|8,0:0|0:0,0:0:0:0:
308,167,42504,2,0,L|377:153,1,66.6666666666667,2|0,0:0|0:0,0:0:0:0:
425,91,42804,6,0,P|454:134|450:180,1,100,0|2,1:0|0:0,0:0:0:0:
404,340,43304,1,2,0:0:0:0:
404,340,43404,2,0,P|375:299|379:250,1,100,8|2,0:0|0:0,0:0:0:0:
191,359,43904,1,0,0:0:0:0:
191,359,44004,2,0,L|125:370,1,66.6666666666667,8|0,0:0|0:0,0:0:0:0:
111,297,44304,2,0,L|45:308,1,66.6666666666667,2|0,0:0|0:0,0:0:0:0:
28,311,44604,1,8,0:0:0:0:
118,36,44904,2,0,L|123:104,1,66.6666666666667,2|0,0:0|0:0,0:0:0:0:
157,98,45204,6,0,P|175:143|180:195,1,100,0|2,1:0|0:0,0:0:0:0:
86,342,45704,1,2,0:0:0:0:
86,342,45804,2,0,P|68:297|63:245,1,100,8|2,0:0|0:0,0:0:0:0:
243,369,46304,1,0,0:0:0:0:
243,369,46404,2,0,L|347:356,1,100,8|2,0:0|0:0,0:0:0:0:
431,344,46854,1,0,0:0:0:0:
490,276,47004,2,0,L|480:227,2,50,8|0|2,0:0|0:0|0:0,0:0:0:0:
427,120,47504,6,0,L|435:80,1,33.3333333333333,0|0,0:0|1:0,0:0:0:0:
244,139,47904,2,0,L|257:71,1,66.6666666666667,2|0,0:0|0:0,0:0:0:0:
266,34,48204,1,8,0:0:0:0:
146,147,48504,2,0,L|135:217,1,66.6666666666667,2|0,0:0|0:0,0:0:0:0:
132,252,48804,2,0,P|167:357|102:266,1,300,0|0,0:0|0:0,0:0:0:0:
146,147,50004,6,0,P|205:198|272:188,1,150,6|2,0:0|0:0,0:0:0:0:
363,148,50604,1,0,1:0:0:0:
448,272,50904,1,2,0:0:0:0:
448,272,51054,2,0,L|312:336,1,150,2|2,0:1|0:0,0:0:0:0:
230,124,51804,1,0,1:0:0:0:
136,48,52104,1,2,0:0:0:0:
20,212,52404,6,0,P|0:264|12:304,1,100,2|2,0:0|0:1,0:0:0:0:
100,352,52854,1,2,0:0:0:0:
100,352,53004,2,0,L|200:372,1,100,0|2,1:0|0:0,0:0:0:0:
328,296,53454,2,0,L|180:266,1,150,2|2,0:1|0:0,0:0:0:0:
302,178,54204,1,0,1:0:0:0:
328,296,54504,1,2,0:0:0:0:
140,224,54804,6,0,P|120:172|132:128,1,100,2|2,0:0|0:1,0:0:0:0:
130,130,55254,1,2,0:0:0:0:
130,130,55404,1,0,1:0:0:0:
396,176,55704,1,2,0:0:0:0:
396,176,55854,2,0,P|388:240|328:296,1,150,2|2,0:1|0:0,0:0:0:0:
304,100,56604,1,0,1:0:0:0:
416,57,56904,1,2,0:0:0:0:
396,176,57204,5,2,0:0:0:0:
396,176,57654,1,2,0:0:0:0:
396,176,57804,2,0,P|396:232|420:272,1,100,0|2,1:0|0:0,0:0:0:0:
360,352,58254,2,0,P|280:376|220:352,1,150,2|2,0:1|0:0,0:0:0:0:
120,240,59004,1,0,1:0:0:0:
120,90,59304,1,2,0:0:0:0:
290,180,59604,6,0,L|290:280,1,100,2|2,0:0|0:1,0:0:0:0:
220,352,60054,1,2,0:0:0:0:
220,352,60204,2,0,P|168:363|126:347,1,100,0|2,1:0|0:0,0:0:0:0:
40,296,60654,2,0,P|24:228|64:160,1,150,2|2,0:1|0:0,0:0:0:0:
220,352,61404,1,0,1:0:0:0:
120,240,61704,1,2,0:0:0:0:
204,116,62004,5,2,0:0:0:0:
116,32,62304,1,2,0:1:0:0:
116,32,62454,1,2,0:0:0:0:
116,32,62604,1,0,1:0:0:0:
204,116,62904,1,2,0:0:0:0:
204,116,63054,2,0,P|272:128|336:84,1,150,2|2,0:1|0:0,0:0:0:0:
204,116,63804,1,0,1:0:0:0:
244,232,64104,1,2,0:0:0:0:
312,332,64404,6,0,P|376:368|448:352,1,150,2|2,0:0|0:0,0:0:0:0:
482,259,65004,2,0,P|430:262|392:288,1,100,0|2,1:0|0:0,0:0:0:0:
482,259,65454,2,0,P|512:192|488:124,1,150,2|2,0:1|0:0,0:0:0:0:
360,48,66204,1,0,1:0:0:0:
406,189,66504,1,2,0:0:0:0:
296,288,66804,5,2,0:0:0:0:
200,216,67104,1,2,0:1:0:0:
120,308,67404,2,0,L|216:344,1,100,0|2,1:0|0:0,0:0:0:0:
296,288,67854,2,0,P|320:208|300:148,1,150,2|2,0:1|0:0,0:0:0:0:
92,24,68604,5,0,1:0:0:0:
52,32,68754,1,2,0:0:0:0:
22,60,68904,1,0,0:0:0:0:
32,300,69204,6,0,P|120:284|132:200,1,179.999994506836,6|2,0:0|0:0,0:0:0:0:
100,136,69804,2,0,P|148:172|208:172,1,119.999996337891,0|0,1:0|0:0,0:0:0:0:
276,136,70254,2,0,P|232:96|172:100,1,119.999996337891,0|0,0:0|0:0,0:0:0:0:
108,56,70704,1,2,0:0:0:0:
168,176,71004,1,0,1:0:0:0:
240,288,71304,1,2,0:0:0:0:
240,288,71604,6,0,P|296:284|348:244,2,119.999996337891,2|0|0,0:0|0:0|1:0,0:0:0:0:
120,232,72504,1,2,0:0:0:0:
120,232,72654,2,0,P|56:176|72:88,1,179.999994506836,0|2,0:0|0:0,0:0:0:0:
188,32,73404,2,0,P|184:96|152:140,1,119.999996337891,0|0,1:0|0:0,0:0:0:0:
64,236,74004,6,0,P|120:224|180:244,1,119.999996337891,2|0,0:0|0:0,0:0:0:0:
272,336,74604,1,0,1:0:0:0:
372,252,74904,1,2,0:0:0:0:
372,252,75054,2,0,P|392:168|476:120,1,179.999994506836,0|2,0:0|0:0,0:0:0:0:
500,248,75804,1,0,1:0:0:0:
396,168,76104,1,2,0:0:0:0:
440,44,76404,6,0,L|320:56,1,119.999996337891,2|0,0:0|0:0,0:0:0:0:
396,168,77004,2,0,L|276:180,1,119.999996337891,0|2,1:0|0:0,0:0:0:0:
200,172,77454,1,0,0:0:0:0:
200,172,77604,2,0,P|216:228|272:256,1,119.999996337891,0|2,0:0|0:0,0:0:0:0:
396,168,78204,2,0,L|356:52,1,119.999996337891,0|0,1:0|0:0,0:0:0:0:
160,60,78804,6,0,L|200:176,1,119.999996337891,6|0,0:0|0:0,0:0:0:0:
216,248,79254,1,0,0:0:0:0:
216,248,79404,1,0,1:0:0:0:
116,336,79704,1,2,0:0:0:0:
116,336,79854,2,0,P|52:328|12:288,1,119.999996337891
8,212,80304,1,2,0:0:0:0:
32,72,80604,1,0,1:0:0:0:
144,164,80904,1,2,0:0:0:0:
168,24,81204,6,0,P|228:0|280:12,2,119.999996337891,2|0|0,0:0|0:0|1:0,0:0:0:0:
144,164,82104,1,2,0:0:0:0:
144,164,82254,2,0,P|92:200|32:212,1,119.999996337891
28,136,82704,2,0,L|148:164,1,119.999996337891,2|0,0:0|1:0,0:0:0:0:
276,188,83304,1,0,0:0:0:0:
408,172,83604,6,0,P|468:156|512:108,1,119.999996337891,2|0,0:0|0:0,0:0:0:0:
404,36,84204,1,0,1:0:0:0:
408,172,84504,1,2,0:0:0:0:
408,172,84654,2,0,L|408:292,1,119.999996337891
408,292,85104,1,2,0:0:0:0:
284,340,85404,1,0,1:0:0:0:
256,320,85554,1,0,0:0:0:0:
240,288,85704,1,2,0:0:0:0:
208,88,86004,5,2,0:0:0:0:
208,88,86454,5,0,0:0:0:0:
208,88,86604,2,0,P|188:144|136:184,1,119.999996337891,0|2,1:0|0:0,0:0:0:0:
84,136,87054,2,0,P|136:172|172:256,1,150,0|2,0:0|0:0,0:0:0:0:
355,132,87804,1,4,0:0:0:0:
355,132,88404,6,0,L|255:148,1,100,4|0,0:0|0:0,0:0:0:0:
189,186,88854,1,2,0:0:0:0:
189,186,89004,2,0,P|163:232|165:281,1,100,0|2,1:0|0:0,0:0:0:0:
301,296,89604,6,0,P|275:267|229:251,1,75,2|2,0:1|0:0,0:0:0:0:
167,313,90204,6,0,P|118:326|70:315,1,100,0|2,1:0|0:0,0:0:0:0:
34,154,90804,5,2,0:0:0:0:
34,154,91104,1,0,0:0:0:0:
34,154,91254,1,2,0:0:0:0:
107,200,91404,2,0,P|159:185|192:153,1,100,0|2,1:0|0:0,0:0:0:0:
272,205,92004,6,0,P|283:164|274:122,1,75,2|2,0:1|0:0,0:0:0:0:
226,65,92604,6,0,P|201:112|207:162,1,100,0|2,1:0|0:0,0:0:0:0:
351,259,93204,6,0,P|368:208|356:161,1,100,4|0,0:0|0:0,0:0:0:0:
311,104,93654,1,2,0:0:0:0:
311,104,93804,2,0,P|286:156|291:198,1,100,0|2,1:0|0:0,0:0:0:0:
395,241,94404,6,0,L|362:160,1,75,2|2,0:1|0:0,0:0:0:0:
311,104,95004,6,0,P|286:156|291:198,1,100,0|2,1:0|0:0,0:0:0:0:
423,301,95604,5,2,0:0:0:0:
441,256,95754,1,2,0:0:0:0:
460,213,95904,1,2,0:0:0:0:
481,167,96054,1,2,0:0:0:0:
502,118,96204,1,0,1:0:0:0:
502,118,96504,1,2,0:0:0:0:
502,118,96804,6,0,P|459:124|430:115,1,75,2|2,0:1|0:0,0:0:0:0:
338,64,97404,6,0,P|293:27|244:21,1,100,0|2,1:0|0:0,0:0:0:0:
70,39,98004,6,0,P|39:88|43:138,1,100,4|0,0:0|0:0,0:0:0:0:
113,178,98454,1,2,0:0:0:0:
113,178,98604,2,0,P|130:236|120:283,1,100,0|2,1:0|0:0,0:0:0:0:
243,136,99204,1,2,0:0:0:0:
254,152,99805,1,0,1:0:0:0:
292,286,100105,1,2,0:0:0:0:
345,59,100405,6,0,L|357:161,1,100,2|0,0:0|0:0,0:0:0:0:
352,208,100855,1,2,0:0:0:0:
343,256,101005,1,0,1:0:0:0:
212,283,101305,1,2,0:0:0:0:
41,165,101605,1,2,0:0:0:0:
27,179,102205,1,0,1:0:0:0:
102,337,102505,1,2,0:0:0:0:
27,179,102805,6,0,P|53:138|101:114,1,100,4|0,0:0|0:0,0:0:0:0:
152,117,103255,1,2,0:0:0:0:
207,94,103405,2,0,P|255:86|293:51,1,100,0|2,1:0|0:0,0:0:0:0:
195,223,104005,1,2,0:0:0:0:
206,239,104605,1,0,1:0:0:0:
318,341,104905,1,2,0:0:0:0:
487,260,105205,5,4,0:0:0:0:
263,285,105505,1,2,0:0:0:0:
416,320,105805,1,0,1:0:0:0:
177,253,106105,1,2,0:0:0:0:
400,239,106405,1,2,0:0:0:0:
198,346,106705,1,2,0:0:0:0:
324,298,107005,1,0,1:0:0:0:
108,316,107305,1,2,0:0:0:0:
464,178,107605,5,4,0:0:0:0:
256,192,107755,12,0,109405,1:0:0:0:
108,180,110005,6,0,P|184:184|236:108,1,166.666666666667,4|0,0:0|0:0,0:0:0:0:
252,80,110605,2,0,P|272:60|296:52,2,50,8|0|0,0:0|0:0|0:0,0:0:0:0:
340,164,111205,2,0,P|360:212|360:268,2,100,8|0|8,0:0|0:0|0:0,0:0:0:0:
152,228,112305,1,0,0:0:0:0:
152,228,112405,2,0,P|128:176|96:148,1,100,0|0,1:0|0:0,0:0:0:0:
24,244,113005,6,0,P|80:224|112:196,1,100,8|0,0:0|0:0,0:0:0:0:
184,104,113605,2,0,L|156:32,1,66.6666666666667,8|0,0:0|0:0,0:0:0:0:
256,60,113905,2,0,L|284:132,1,66.6666666666667
400,204,114205,2,0,L|364:110,1,100,8|0,0:0|0:0,0:0:0:0:
184,104,114805,6,0,P|156:96|124:100,2,50,0|0|0,1:0|0:0|0:0,0:0:0:0:
148,168,115255,2,0,P|120:216|84:244,1,100
80,352,115705,2,0,P|100:324|132:304,1,66.6666666666667
164,288,116005,2,0,P|212:284|264:268,1,100,8|0,0:0|0:0,0:0:0:0:
412,128,116605,2,0,P|380:112|344:108,1,66.6666666666667,8|0,0:0|0:0,0:0:0:0:
320,28,116905,2,0,P|288:44|264:80,1,66.6666666666667
272,160,117205,6,0,P|324:212|404:208,1,150,0|0,1:0|0:0,0:0:0:0:
452,192,117805,1,8,0:0:0:0:
432,312,118105,1,0,0:0:0:0:
312,328,118405,2,0,P|276:320|248:300,1,66.6666666666667,8|0,0:0|0:0,0:0:0:0:
176,372,118705,2,0,P|156:344|152:312,1,66.6666666666667
196,232,119005,1,8,0:0:0:0:
252,128,119305,1,2,0:0:0:0:
344,48,119605,6,0,P|384:76|404:136,1,100,0|0,1:0|0:0,0:0:0:0:
252,128,120205,2,0,L|168:68,1,100,8|0,0:0|0:0,0:0:0:0:
108,28,120655,1,0,0:0:0:0:
108,28,120805,2,0,B|76:60|88:100|88:100|144:144,1,150,8|0,0:0|0:0,0:0:0:0:
204,184,121405,2,0,P|180:236|132:252,1,100,8|2,0:0|0:0,0:0:0:0:
24,256,122005,5,0,1:0:0:0:
84,152,122305,1,0,0:0:0:0:
116,344,122605,1,8,0:0:0:0:
220,284,122905,1,0,0:0:0:0:
320,216,123205,2,0,L|384:176,1,66.6666666666667,8|0,0:0|0:0,0:0:0:0:
372,84,123505,2,0,L|308:124,1,66.6666666666667
228,80,123805,6,0,L|316:24,1,100,8|0,0:0|0:0,0:0:0:0:
320,216,124405,2,0,P|340:228|376:232,2,50,0|0|0,1:0|0:0|0:0,0:0:0:0:
368,152,124905,1,0,0:0:0:0:
368,152,125005,2,0,P|420:148|464:112,1,100,8|0,0:0|0:0,0:0:0:0:
292,144,125605,2,0,L|200:188,1,100,8|0,0:0|0:0,0:0:0:0:
56,216,126205,1,8,0:0:0:0:
200,264,126505,2,0,L|292:308,1,100,2|0,0:0|1:0,0:0:0:0:
56,216,127705,6,0,P|56:252|76:284,1,66.6666666666667,2|0,0:0|0:0,0:0:0:0:
128,232,128005,2,0,P|180:220|216:184,1,100,8|2,0:0|0:0,0:0:0:0:
108,80,128605,2,0,L|208:104,1,100,0|2,1:0|0:0,0:0:0:0:
288,140,129205,5,0,1:0:0:0:
288,140,130105,1,0,0:0:0:0:
108,80,130305,1,0,0:0:0:0:
108,80,130405,2,0,P|156:88|208:68,1,100
312,20,131005,1,0,1:0:0:0:
204,72,131305,1,2,0:0:0:0:
181,202,131605,6,0,P|234:222|313:173,1,150,4|2,0:0|0:0,0:0:0:0:
323,99,132205,1,0,1:0:0:0:
181,201,132505,1,2,0:0:0:0:
181,201,132655,2,0,P|209:265|279:300,1,150,2|2,0:0|0:0,0:0:0:0:
426,231,133405,2,0,L|410:330,1,100,0|2,1:0|0:0,0:0:0:0:
200,353,134005,5,2,0:0:0:0:
270,210,134305,1,2,0:0:0:0:
200,353,134605,1,0,1:0:0:0:
361,350,134905,1,2,0:0:0:0:
361,350,135055,2,0,P|365:302|344:255,1,100,2|0,0:0|0:0,0:0:0:0:
300,191,135505,1,2,0:0:0:0:
300,191,135805,2,0,P|263:229|205:235,1,100,0|2,1:0|0:0,0:0:0:0:
39,158,136405,5,2,0:0:0:0:
24,287,136705,1,2,0:0:0:0:
59,254,136855,1,2,0:0:0:0:
99,224,137005,1,0,1:0:0:0:
196,135,137305,1,2,0:0:0:0:
196,135,137455,2,0,P|205:84|186:28,1,100,2|0,0:0|0:0,0:0:0:0:
124,96,137905,2,0,P|113:155|129:198,1,100,2|0,0:0|1:0,0:0:0:0:
246,226,138505,1,2,0:0:0:0:
94,339,138805,5,2,0:0:0:0:
246,226,139105,1,2,0:0:0:0:
212,196,139255,1,2,0:0:0:0:
176,171,139405,1,0,1:0:0:0:
182,275,139705,2,0,L|209:325,1,50,2|2,0:0|0:0,0:0:0:0:
246,226,140005,2,0,L|231:115,1,100,0|2,0:0|0:0,0:0:0:0:
164,41,140605,1,0,1:0:0:0:
315,118,140905,1,2,0:0:0:0:
182,275,141205,5,4,0:0:0:0:
317,266,141505,2,0,P|338:305|337:369,1,100,2|0,0:0|1:0,0:0:0:0:
245,223,142105,1,2,0:0:0:0:
319,185,142255,2,0,P|392:180|456:231,1,150,2|2,0:0|0:0,0:0:0:0:
407,347,143005,1,0,1:0:0:0:
451,223,143305,1,2,0:0:0:0:
407,347,143605,6,0,P|351:364|306:356,1,100,0|2,0:0|0:0,0:0:0:0:
239,321,144055,1,2,0:0:0:0:
239,321,144205,2,0,L|134:308,1,100,0|2,1:0|0:0,0:0:0:0:
70,269,144655,2,0,B|88:234|88:234|148:215|200:239,1,150,2|2,0:0|0:0,0:0:0:0:
327,306,145405,1,0,1:0:0:0:
264,212,145705,1,2,0:0:0:0:
393,111,146005,6,0,P|426:158|422:217,1,100,2|2,0:0|0:0,0:0:0:0:
427,199,146455,1,2,0:0:0:0:
394,284,146605,2,0,L|296:256,1,100,0|2,1:0|0:0,0:0:0:0:
299,330,147055,2,0,L|255:239,1,100,2|0,0:0|0:0,0:0:0:0:
192,184,147505,2,0,L|289:208,1,100,2|0,0:0|1:0,0:0:0:0:
425,128,148105,1,2,0:0:0:0:
356,254,148405,5,2,0:0:0:0:
338,102,148705,1,2,0:0:0:0:
315,76,148855,1,2,0:0:0:0:
281,60,149005,2,0,P|229:45|169:60,1,100,0|2,1:0|0:0,0:0:0:0:
95,91,149455,2,0,P|133:139|218:136,1,150,2|2,0:0|0:0,0:0:0:0:
363,199,150205,5,0,1:0:0:0:
384,32,150505,1,2,0:0:0:0:
168,84,150705,1,0,0:0:0:0:
168,84,150805,6,0,L|136:232,1,150,4|2,0:0|0:0,0:0:0:0:
117,318,151405,1,0,1:0:0:0:
384,129,151705,1,2,0:0:0:0:
339,207,151855,2,0,L|447:195,1,100
291,280,152305,1,2,0:0:0:0:
309,33,152605,2,0,L|230:43,1,66.6666666666667,0|0,1:0|0:0,0:0:0:0:
205,120,152905,2,0,L|127:130,1,66.6666666666667,2|0,0:0|0:0,0:0:0:0:
139,128,153205,6,0,L|175:284,1,150,2|2,0:0|0:0,0:0:0:0:
77,252,153805,1,0,1:0:0:0:
313,355,154105,1,2,0:0:0:0:
367,283,154255,2,0,L|341:171,1,100
453,317,154705,1,2,0:0:0:0:
185,359,155005,2,0,L|110:359,1,66.6666666666667,0|0,1:0|0:0,0:0:0:0:
117,271,155305,2,0,L|43:271,1,66.6666666666667,2|0,0:0|0:0,0:0:0:0:
98,46,155605,6,0,P|88:126|136:169,1,150,2|2,0:0|0:0,0:0:0:0:
283,270,156205,2,0,L|255:386,1,100,0|2,1:0|0:0,0:0:0:0:
188,264,156655,1,0,0:0:0:0:
491,153,156955,1,0,0:0:0:0:
391,163,157105,1,2,0:0:0:0:
491,153,157405,1,0,1:0:0:0:
430,272,157605,2,0,L|414:303,1,33.3333333333333,0|2,0:0|0:0,0:0:0:0:
283,322,157905,2,0,L|267:351,1,33.3333333333333,0|2,0:0|0:0,0:0:0:0:
124,241,158305,1,0,0:0:0:0:
176,68,158605,5,0,1:0:0:0:
353,36,158805,1,0,0:0:0:0:
353,36,158905,2,0,L|414:77,1,66.6666666666667,2|0,0:0|0:0,0:0:0:0:
491,153,159205,2,0,L|470:229,1,66.6666666666667,2|0,0:0|0:0,0:0:0:0:
358,312,159505,2,0,L|377:241,1,66.6666666666667,2|0,0:0|0:0,0:0:0:0:
316,118,159805,2,0,L|294:193,1,66.6666666666667,0|0,1:0|0:0,0:0:0:0:
183,277,160105,2,0,L|203:205,1,66.6666666666667,2|0,0:0|0:0,0:0:0:0:
174,8,160405,6,0,P|155:78|90:111,1,150,4|2,0:0|0:0,0:0:0:0:
37,184,161005,1,0,1:0:0:0:
121,342,161305,1,2,0:0:0:0:
211,299,161455,1,0,0:0:0:0:
121,342,161755,1,0,0:0:0:0:
211,299,161905,1,2,0:0:0:0:
367,96,162205,2,0,L|348:167,1,66.6666666666667,0|0,1:0|0:0,0:0:0:0:
365,318,162505,2,0,L|382:249,1,66.6666666666667,2|0,0:0|0:0,0:0:0:0:
448,347,162805,5,2,0:0:0:0:
164,128,163105,1,0,0:0:0:0:
98,203,163255,1,2,0:0:0:0:
112,300,163405,1,0,1:0:0:0:
306,253,163705,2,0,L|380:274,1,75,2|0,0:0|0:0,0:0:0:0:
512,227,164005,2,0,L|438:206,1,75
410,51,164305,2,0,L|389:123,1,75,2|0,0:0|0:0,0:0:0:0:
220,125,164605,2,0,L|295:125,1,75,0|0,1:0|0:0,0:0:0:0:
156,49,164905,2,0,L|81:49,1,75,2|0,0:0|0:0,0:0:0:0:
141,194,165205,6,0,L|105:350,1,150,2|2,0:0|0:0,0:0:0:0:
51,204,165805,2,0,L|23:320,1,100,0|0,1:0|0:0,0:0:0:0:
348,224,166255,1,0,0:0:0:0:
488,192,166555,1,0,0:0:0:0:
348,224,166705,1,2,0:0:0:0:
463,85,167005,5,0,1:0:0:0:
330,102,167205,2,0,L|312:63,1,33.3333333333333
348,224,167505,1,0,0:0:0:0:
348,224,167605,2,0,P|298:287|232:302,1,150,2|2,0:0|0:0,0:0:0:0:
463,85,168205,6,0,P|417:96|379:133,1,100,0|2,1:0|0:0,0:0:0:0:
97,52,168805,6,0,L|65:126,1,66.6666666666667
129,215,169105,2,0,L|161:141,1,66.6666666666667,2|0,0:0|0:0,0:0:0:0:
100,65,169405,6,0,L|68:139,1,66.6666666666667,0|0,1:0|0:0,0:0:0:0:
132,228,169705,2,0,L|164:154,1,66.6666666666667,2|0,0:0|0:0,0:0:0:0:
36,272,170005,6,0,P|80:320|160:312,1,150,6|2,0:0|0:0,0:0:0:0:
224,236,170605,2,0,L|265:139,1,100,0|2,1:0|0:0,0:0:0:0:
413,152,171205,2,0,P|455:180|503:176,1,100,2|2,0:1|0:0,0:0:0:0:
432,308,171805,1,0,1:0:0:0:
296,368,172105,1,2,0:0:0:0:
148,332,172405,6,0,P|96:284|100:208,1,150,2|2,0:0|0:0,0:0:0:0:
181,153,173005,1,0,1:0:0:0:
95,278,173305,2,0,L|0:309,1,100,2|2,0:0|0:1,0:0:0:0:
36,112,173905,1,2,0:0:0:0:
181,153,174205,1,0,1:0:0:0:
205,177,174355,1,2,0:0:0:0:
229,201,174505,1,2,0:0:0:0:
228,52,174805,6,0,P|164:18|88:28,1,150,2|2,0:0|0:0,0:0:0:0:
36,112,175405,2,0,P|28:164|48:208,1,100,0|2,1:0|0:0,0:0:0:0:
191,287,176005,2,0,P|224:246|229:201,1,100,2|2,0:1|0:0,0:0:0:0:
364,136,176605,1,0,1:0:0:0:
240,52,176905,1,2,0:0:0:0:
228,200,177205,5,2,0:0:0:0:
364,136,177505,1,2,0:1:0:0:
364,136,177655,1,2,0:0:0:0:
364,136,177805,1,0,1:0:0:0:
444,44,178105,1,0,0:0:0:0:
444,224,178405,2,0,P|464:267|511:282,1,100,2|2,0:1|0:0,0:0:0:0:
364,136,179005,2,0,P|313:134|276:164,1,100,4|2,1:2|0:0,0:0:0:0:
500,165,179605,6,0,P|500:96|444:44,1,150,6|2,0:0|0:0,0:0:0:0:
352,4,180205,2,0,L|256:36,1,100,0|2,1:0|0:1,0:0:0:0:
250,42,181105,1,2,0:0:0:0:
148,104,181405,1,0,1:0:0:0:
117,86,181555,1,2,0:0:0:0:
87,69,181705,1,2,0:0:0:0:
250,42,182005,6,0,P|266:119|232:180,1,150,4|2,0:1|0:0,0:0:0:0:
196,272,182605,2,0,L|96:304,1,100,0|2,1:0|0:1,0:0:0:0:
93,295,183505,1,2,0:0:0:0:
233,179,183805,1,0,1:0:0:0:
258,204,183955,1,2,0:0:0:0:
282,228,184105,1,2,0:0:0:0:
432,360,184405,6,0,P|492:328|508:252,1,150,4|2,0:1|0:0,0:0:0:0:
408,264,185005,2,0,L|316:304,1,100,0|2,1:0|0:1,0:0:0:0:
302,318,185905,1,2,0:0:0:0:
408,264,186205,2,0,P|422:209|408:170,1,100,0|2,1:0|0:0,0:0:0:0:
306,58,186805,5,6,0:0:0:0:
154,145,187105,1,2,0:1:0:0:
253,112,187405,1,0,1:0:0:0:
101,91,187705,1,2,0:0:0:0:
234,40,188005,1,2,0:1:0:0:
234,40,188155,1,0,0:0:0:0:
234,40,188305,1,2,0:0:0:0:
83,165,188605,1,0,1:0:0:0:
83,165,188755,1,2,0:0:0:0:
83,165,188905,1,2,0:0:0:0:
80,336,189205,5,4,0:0:0:0:
256,192,206006,12,2,207806,0:1:0:0:
224,340,208406,6,0,P|288:296|304:228,1,150,6|2,0:0|0:0,0:0:0:0:
400,200,209006,2,0,P|370:152|331:133,1,100,0|2,1:0|0:0,0:0:0:0:
176,220,209606,2,0,L|216:252,1,50,2|0,0:1|0:0,0:0:0:0:
320,320,209906,2,0,L|369:327,1,50,2|0,0:0|0:0,0:0:0:0:
204,368,210206,2,0,P|150:366|116:336,1,100,2|2,1:0|0:0,0:0:0:0:
40,272,210656,1,0,0:0:0:0:
40,272,210806,6,0,L|80:180,1,100,2|2,0:0|0:1,0:0:0:0:
68,80,211256,1,2,0:0:0:0:
68,80,211406,2,0,P|91:72|116:75,2,50,0|0|2,1:0|0:0|0:0,0:0:0:0:
256,16,212006,2,0,P|269:65|255:112,1,100,2|2,0:1|0:0,0:0:0:0:
238,129,212456,1,0,0:0:0:0:
220,146,212606,1,2,1:0:0:0:
372,80,212906,1,2,0:0:0:0:
396,73,213056,1,0,0:0:0:0:
420,80,213206,6,0,P|472:116|484:200,1,150,2|2,0:0|0:0,0:0:0:0:
440,288,213806,2,0,L|344:320,1,100,0|2,1:0|0:0,0:0:0:0:
356,140,214406,2,0,L|400:164,1,50,2|0,0:1|0:0,0:0:0:0:
392,304,214706,2,0,L|428:338,1,50,2|0,0:0|0:0,0:0:0:0:
284,372,215006,2,0,P|237:376|190:356,1,100,2|2,1:0|0:0,0:0:0:0:
176,256,215456,1,0,0:0:0:0:
176,256,215606,6,0,L|272:296,1,100,2|2,0:0|0:1,0:0:0:0:
189,355,216056,1,2,0:0:0:0:
189,355,216206,2,0,L|140:368,1,50,0|2,1:0|0:1,0:0:0:0:
80,288,216506,1,2,0:0:0:0:
28,116,216806,2,0,L|56:72,1,50,2|0,0:1|0:0,0:0:0:0:
248,112,217106,2,0,L|221:154,1,50,2|0,0:0|0:0,0:0:0:0:
124,172,217406,2,0,L|97:214,1,50,2|0,1:0|0:0,0:0:0:0:
152,56,217706,2,0,L|178:13,1,50,2|0,0:0|0:0,0:0:0:0:
336,24,218006,6,0,L|255:150,1,150,2|2,0:0|0:0,0:0:0:0:
284,248,218606,2,0,P|311:207|356:188,1,100,0|2,1:0|0:0,0:0:0:0:
192,220,219206,1,2,0:1:0:0:
204,340,219506,1,2,0:0:0:0:
322,342,219806,1,0,1:0:0:0:
348,317,219956,1,2,0:0:0:0:
372,292,220106,1,2,0:0:0:0:
104,252,220406,6,0,P|132:316|204:340,1,150,2|2,0:0|0:0,0:0:0:0:
260,256,221006,2,0,L|330:182,1,100,0|2,1:0|0:0,0:0:0:0:
457,328,221606,2,0,P|408:324|372:292,1,100,2|2,0:1|0:0,0:0:0:0:
260,201,222206,1,0,1:0:0:0:
292,188,222356,1,2,0:0:0:0:
329,183,222506,1,2,0:0:0:0:
508,152,222806,6,0,P|520:80|476:20,1,150,2|2,0:0|0:0,0:0:0:0:
400,84,223406,2,0,P|352:64|328:24,1,100,0|2,1:0|0:0,0:0:0:0:
200,100,224006,1,2,0:1:0:0:
120,12,224306,1,2,0:0:0:0:
200,100,224606,1,0,1:0:0:0:
174,125,224756,1,2,0:0:0:0:
150,150,224906,2,0,L|100:164,1,50,2|2,0:0|0:1,0:0:0:0:
12,284,225206,6,0,P|28:332|72:356,1,100,2|2,0:0|0:1,0:0:0:0:
168,364,225656,2,0,L|216:352,1,50,2|0,0:0|1:0,0:0:0:0:
148,248,225956,2,0,L|100:236,2,50,2|2|0,0:1|0:0|0:0,0:0:0:0:
292,288,226406,2,0,P|332:256|340:208,1,100,2|2,0:1|0:0,0:0:0:0:
432,172,226856,1,2,0:1:0:0:
432,172,227006,2,0,P|441:220|480:249,1,100,0|2,1:0|0:0,0:0:0:0:
454,77,227606,6,0,L|307:35,1,150,4|0,0:0|0:0,0:0:0:0:
202,64,228206,2,0,P|228:105|278:122,1,100,0|2,1:0|0:0,0:0:0:0:
350,102,228656,1,0,0:0:0:0:
350,102,228806,2,0,L|361:164,1,50
407,210,229106,1,2,0:0:0:0:
407,210,229406,2,0,L|427:325,1,100,0|0,1:0|0:0,0:0:0:0:
246,370,230006,6,0,P|193:330|196:250,1,150,2|2,0:0|0:0,0:0:0:0:
267,217,230606,1,0,1:0:0:0:
69,306,230906,2,0,L|84:248,1,50,2|0,0:0|0:0,0:0:0:0:
19,212,231131,2,0,P|70:183|143:199,1,125,0|2,0:0|0:0,0:0:0:0:
267,217,231806,1,0,1:0:0:0:
157,98,232106,1,2,0:0:0:0:
108,255,232406,5,2,0:0:0:0:
123,269,233006,1,0,1:0:0:0:
205,124,233306,1,2,0:0:0:0:
205,124,233456,1,0,0:0:0:0:
215,137,233906,1,2,0:0:0:0:
45,117,234206,2,0,L|18:59,1,50,0|0,1:0|0:0,0:0:0:0:
117,118,234506,2,0,L|138:163,1,50,2|0,0:0|0:0,0:0:0:0:
237,213,234806,6,0,L|195:112,1,100,2|2,0:0|0:0,0:0:0:0:
181,266,235406,1,0,1:0:0:0:
302,174,235706,1,2,0:0:0:0:
237,213,235856,2,0,L|219:318,1,100
220,311,236306,1,2,0:0:0:0:
486,228,236606,2,0,P|442:245|385:236,1,100,0|2,1:0|0:0,0:0:0:0:
309,49,237206,5,4,0:0:0:0:
320,66,237806,1,0,1:0:0:0:
320,66,238106,1,2,0:0:0:0:
296,139,238256,2,0,P|337:176|343:231,1,100
296,284,238706,1,2,0:0:0:0:
399,136,239006,1,0,1:0:0:0:
296,284,239306,1,2,0:0:0:0:
145,225,239606,6,0,L|101:127,1,100,2|2,0:0|0:0,0:0:0:0:
200,7,240206,1,0,1:0:0:0:
178,122,240506,2,0,L|200:173,1,50,2|0,0:0|0:0,0:0:0:0:
273,162,240806,2,0,P|283:215|261:255,1,100,0|2,0:0|0:0,0:0:0:0:
175,364,241406,1,0,1:0:0:0:
91,234,241706,1,2,0:0:0:0:
376,192,242006,5,2,0:0:0:0:
369,212,242606,1,0,1:0:0:0:
307,86,242906,1,2,0:0:0:0:
269,149,243056,2,0,L|173:184,1,100
106,186,243506,1,2,0:0:0:0:
77,222,243656,1,0,0:0:0:0:
81,262,243806,2,0,P|106:311|145:327,1,100,0|2,1:0|0:0,0:0:0:0:
264,238,244406,6,0,L|262:298,1,50,2|2,0:0|0:0,0:0:0:0:
341,191,244706,2,0,L|339:251,1,50,2|2,0:0|0:0,0:0:0:0:
414,147,245006,2,0,L|412:207,1,50,0|0,1:0|0:0,0:0:0:0:
488,91,245306,2,0,L|486:151,1,50,2|2,0:0|0:0,0:0:0:0:
488,91,245606,2,0,L|388:50,1,100,2|2,0:0|0:0,0:0:0:0:
250,88,246206,1,4,0:0:0:0:
244,100,246806,6,0,P|200:120|140:124,1,100,4|0,0:0|0:0,0:0:0:0:
72,104,247256,1,0,0:0:0:0:
72,104,247406,2,0,L|92:208,1,100,0|2,1:0|0:0,0:0:0:0:
76,312,248006,2,0,P|140:312|216:276,1,150,0|0,0:0|0:0,0:0:0:0:
144,256,248606,2,0,P|154:315|182:339,1,100,0|2,1:0|0:0,0:0:0:0:
408,344,249206,5,2,0:0:0:0:
408,344,249656,1,0,0:0:0:0:
408,344,249806,2,0,L|456:256,1,100,0|0,1:0|0:0,0:0:0:0:
460,148,250406,2,0,P|388:156|308:144,1,150
368,96,251006,2,0,P|384:144|364:196,2,100,0|0|2,1:0|0:0|0:0,0:0:0:0:
312,144,252056,5,0,0:0:0:0:
312,144,252206,2,0,P|276:176|224:184,1,100,0|0,1:0|0:0,0:0:0:0:
160,148,252656,2,0,L|120:108,1,50
64,152,252956,2,0,L|24:112,2,50,0|2|0,0:0|0:0|0:0,0:0:0:0:
116,212,253406,2,0,P|156:244|212:256,1,100,0|2,1:0|0:0,0:0:0:0:
328,80,254006,6,0,P|404:80|456:132,1,150,2|0,0:0|0:0,0:0:0:0:
480,212,254606,2,0,L|464:268,1,50,0|0,1:0|0:0,0:0:0:0:
360,308,254906,2,0,L|373:259,1,50,2|0,0:0|0:0,0:0:0:0:
304,160,255206,2,0,L|288:216,1,50,0|0,0:0|0:0,0:0:0:0:
180,280,255506,2,0,L|193:231,1,50,2|0,0:0|0:0,0:0:0:0:
120,140,255806,2,6,L|93:236,2,100,0|0|6,1:0|0:0|0:0,0:0:0:0:
176,44,256706,5,0,0:0:0:0:
248,128,257006,1,0,1:0:0:0:
300,32,257306,2,0,P|344:64|400:80,1,100,2|0,0:0|0:0,0:0:0:0:
460,72,257756,1,0,0:0:0:0:
460,72,257906,2,0,P|460:124|492:168,2,100,2|0|2,0:0|1:0|0:0,0:0:0:0:
512,232,258806,5,2,0:0:0:0:
512,232,259406,1,0,1:0:0:0:
376,300,259706,1,2,0:0:0:0:
376,300,259856,2,0,L|356:244,1,50,0|0,0:0|0:0,0:0:0:0:
256,184,260156,2,0,L|276:240,2,50,0|2|0,0:0|0:0|0:0,0:0:0:0:
186,249,260606,2,0,L|220:344,1,100,0|2,1:0|0:0,0:0:0:0:
176,164,261206,6,0,P|108:136|56:56,1,150,6|0,0:0|0:0,0:0:0:0:
136,84,261806,2,0,P|112:128|64:152,1,100,0|2,1:0|0:0,0:0:0:0:
64,76,262706,1,2,0:0:0:0:
52,276,263006,1,0,1:0:0:0:
236,196,263306,1,2,0:0:0:0:
248,184,263456,1,0,0:0:0:0:
260,172,263606,2,0,P|320:124|392:120,1,150,6|0,0:0|0:0,0:0:0:0:
460,148,264206,5,0,1:0:0:0:
448,296,264506,1,0,0:0:0:0:
316,224,264806,1,0,0:0:0:0:
472,136,265106,1,2,0:0:0:0:
300,236,265406,1,0,1:0:0:0:
312,36,265706,1,2,0:0:0:0:
448,296,266006,5,4,0:0:0:0:
