osu file format v9

[General]
AudioFilename: shougakusei.mp3
AudioLeadIn: 0
PreviewTime: 61494
Countdown: 0
SampleSet: Soft
StackLeniency: 0.7
Mode: 0
LetterboxInBreaks: 1

[Editor]
Bookmarks: 20040,21949,39676,48403,52767,54949,57131,61494,70222,81131,89858,102676,107313,111403,116040,120131,129131,133494,137858,142222,157494,159676,168403,177131,190222,194585,198949,212040,222949
DistanceSpacing: 1.8
BeatDivisor: 4
GridSize: 4

[Metadata]
Title:waga mei ha shougakusei
Artist:mitsudomoe
Creator:Farmer_Player
Version:collab love
Source:mitsudomoe
Tags:

[Difficulty]
HPDrainRate:5
CircleSize:4
OverallDifficulty:7
ApproachRate:9
SliderMultiplier:1.6
SliderTickRate:1

[Events]
//Background and Video events
0,0,"28_100903141922_1.jpg"
//Break Periods
2,23648,159076
2,159876,167803
//Storyboard Layer 0 (Background)
//Storyboard Layer 1 (Fail)
//Storyboard Layer 2 (Pass)
//Storyboard Layer 3 (Foreground)
//Storyboard Sound Samples
//Background Colour Transformations
3,100,163,162,255

[TimingPoints]
11313,272.727272727273,4,2,0,76,1,0
21131,-200,4,2,0,76,0,0
22085,-100,4,2,0,76,0,0

[Colours]
Combo1 : 255,151,151
Combo2 : 5,240,5
Combo3 : 140,255,255

[HitObjects]
156,76,11313,2,0,B|100:88|64:140|72:180|76:204,1,160
232,128,11858,2,0,B|176:140|140:192|148:232|152:256,1,160
316,184,12403,2,0,B|260:196|224:248|232:288|236:312,1,160
148,300,12813,1,0
64,264,12949,1,0
40,176,13085,1,0
44,84,13222,1,0
104,24,13358,1,0
156,104,13494,6,0,B|196:144|244:124,1,80
176,200,13767,2,0,B|136:160|88:180,1,80,0|0
156,104,14040,1,0
176,200,14176,1,0
268,168,14313,1,0
272,256,14449,1,0
368,160,14585,5,0
396,148,14653,1,0
424,164,14722,1,0
460,236,14858,1,0
416,300,15131,1,0
388,312,15199,1,0
360,296,15268,1,0
320,224,15404,1,0
88,324,15676,6,0,B|172:324,1,80
92,220,15949,2,0,B|4:220,1,80
168,324,16222,6,0,B|252:324,1,80
172,220,16495,2,0,B|84:220,1,80
392,208,16767,2,0,B|444:272|372:308|380:304,3,80
112,40,17313,5,0
464,232,17585,1,0
344,72,17858,1,0
256,104,17994,1,0
308,200,18131,1,0
180,212,18267,1,0
180,212,18403,2,0,B|240:240|240:288,1,80
236,265,18676,1,0
328,308,18949,6,0,B|364:332|396:280,1,80
412,196,19222,1,0
440,112,19358,2,0,B|452:64|400:40,1,80
252,104,19767,1,0
104,132,20040,6,0,B|124:104|112:56|112:52,1,80
112,54,20313,2,0,B|156:32|212:68,1,80
196,136,20585,1,0
140,220,20722,1,0
256,220,20858,1,0
196,136,20994,1,0
336,88,21131,6,0,B|368:48|408:96,1,80
400,292,21676,2,0,B|368:332|328:284,1,80
332,289,22222,5,0
236,188,22494,1,0
180,248,22631,1,0
236,188,22767,1,0
296,128,22903,1,0
352,68,23040,1,0
352,68,23176,2,0,B|448:196,1,160
256,192,159676,5,0
256,184,168403,5,0
