osu file format v7

[General]
AudioFilename: misa - Only Treasure.mp3
AudioLeadIn: 0
PreviewTime: 0
Countdown: 0
SampleSet: Normal
StackLeniency: 0.4
Mode: 0
LetterboxInBreaks: 1

[Editor]
Bookmarks: 151970,152018,188893,188941
DistanceSpacing: 1
BeatDivisor: 4
GridSize: 8

[Metadata]
Title:Only Treasure
Artist:misa
Creator:Aakiha
Version:Treasure
Source:Touhou
Tags:osu_CN_yaya tsukamaete DYSTOPIA A-One Neiziro

[Difficulty]
HPDrainRate:7
CircleSize:4
OverallDifficulty:7
SliderMultiplier:1.8
SliderTickRate:1

[Events]
//Background and Video events
0,0,"all.jpg"
//Break Periods
2,43746,44953
2,140284,146492
2,267592,275723
2,283361,284953
//Storyboard Layer 0 (Background)
//Storyboard Layer 1 (Fail)
//Storyboard Layer 2 (Pass)
//Storyboard Layer 3 (Foreground)
Sprite,Foreground,Centre,"Mini Light.png",320,240 M,0,25046,26200,320,240,319,208 F,0,25046,26200,0,1 S,0,25046,26200,0.9119999,0.96 R,0,25046,26200,0,-0.2719998 M,0,26200,27354,319,208,319,245 F,0,26200,27354,1,0.7875143 S,0,26200,27354,0.96,0.9120001 R,0,26200,27354,-0.2719998,-0.6399997 M,0,27354,28508,319,245,314,280 F,0,27354,28508,0.7875143,0.7857268 S,0,27354,28508,0.9120001,0.8160002 R,0,27354,28508,-0.6399997,-0.8479999 M,0,28508,29662,314,280,314,255 F,0,28508,29662,0.7857268,0.6990112 S,0,28508,29662,0.8160002,0.9120001 R,0,28508,29662,-0.8479999,-1.072 M,0,29662,30816,314,255,312,223 F,0,29662,30816,0.6990112,0.7809648 S,0,29662,30816,0.9120001,0.9920003 R,0,29662,30816,-1.072,-1.311999 M,0,30816,31970,312,223,329,263 F,0,30816,31970,0.7809648,1 S,0,30816,31970,0.9920003,0.9120001 R,0,30816,31970,-1.311999,-1.567999 M,0,31970,33123,329,263,318,249 F,0,31970,33123,1,0.7670904 S,0,31970,33123,0.9120001,0.8240002 R,0,31970,33123,-1.567999,-1.807999 S,0,33123,33171,0.8240002,0.9076608 M,0,33123,34277,318,249,325,267 F,0,33123,34277,0.7670904,0.620794 R,0,33123,34277,-1.807999,-2.016 S,0,33171,34277,0.9076608,0.9120003 M,0,34277,35431,325,267,340,261 F,0,34277,35431,0.620794,1 S,0,34277,35431,0.9120003,0.9840001 R,0,34277,35431,-2.016,-2.191999 M,0,35431,36585,340,261,328,280 F,0,35431,36585,1,0.5712076 S,0,35431,36585,0.9840001,0.9120001 R,0,35431,36585,-2.191999,-2.415999 M,0,36585,37739,328,280,316,296 F,0,36585,37739,0.5712076,1 S,0,36585,37739,0.9120001,0.8560001 R,0,36585,37739,-2.415999,-2.608 M,0,37739,38893,316,296,324,280 F,0,37739,38893,1,0.6392243 S,0,37739,38893,0.8560001,0.9120001 R,0,37739,38893,-2.608,-2.832 M,0,38893,40046,324,280,307,286 F,0,38893,40046,0.6392243,0.929971 S,0,38893,40046,0.9120001,0.9839999 R,0,38893,40046,-2.832,-3.168 M,0,40046,41200,307,286,322,289 F,0,40046,41200,0.929971,0.6847858 S,0,40046,41200,0.9839999,0.9119999 R,0,40046,41200,-3.168,-3.52 M,0,41200,42354,322,289,304,291 F,0,41200,42354,0.6847858,0.9916006 S,0,41200,42354,0.9119999,0.848 R,0,41200,42354,-3.52,-3.887999 M,0,42354,43508,304,291,308,281 F,0,42354,43508,0.9916006,0.5944155 S,0,42354,43508,0.848,0.9120001 R,0,42354,43508,-3.887999,-4.255999 M,0,43508,44662,308,281,317,286 F,0,43508,44662,0.5944155,0.7704156 S,0,43508,44662,0.9120001,1.008 R,0,43508,44662,-4.255999,-4.479999 F,0,44662,45816,0.7704156,0 S,0,44662,45816,1.008,3.136 R,0,44662,45816,-4.479999,-10.304
//Storyboard Sound Samples
//Background Colour Transformations
3,100,128,255,255

[TimingPoints]
22777,384.615384615385,3,2,1,60,1,0
94123,-100,3,1,0,51,0,0
96575,-200,3,2,1,40,0,0
98113,-200,3,2,1,21,0,0
98738,-100,3,2,1,59,0,0
108354,-100,3,2,0,61,0,0
129844,-100,3,2,1,60,0,0
147200,-100,3,2,1,61,0,0
152007,-100,3,2,1,60,0,0
155469,-200,3,2,1,61,0,0
156238,-100,3,2,1,59,0,0
158161,-200,3,2,2,61,0,0
158738,-100,3,2,1,61,0,0
176623,-200,3,2,2,61,0,0
177200,-100,3,2,1,61,0,0
188834,-100,3,2,0,80,0,0
190757,-100,3,2,0,61,0,0
191046,-100,3,2,0,80,0,0
193065,-100,3,2,0,61,0,0
193353,-100,3,1,0,71,0,0
193738,-100,3,2,0,61,0,0
193930,-100,3,1,0,61,0,0
194315,-100,3,2,0,61,0,0
194603,-100,3,1,0,61,0,0
195084,-100,3,2,0,61,0,0
195277,-100,3,1,0,61,0,0
195661,-100,3,2,0,61,0,0
195757,-100,3,1,0,81,0,0
196046,-100,3,2,0,61,0,0
196142,-100,3,1,0,81,0,0
196430,-100,3,2,0,61,0,0
196527,-100,3,1,0,81,0,0
196815,-100,3,2,0,61,0,0
196911,-100,3,1,0,81,0,0
197200,-100,3,2,0,61,0,0
197296,-100,3,1,0,81,0,0
197680,-100,3,1,0,61,0,0
197969,-100,3,2,0,61,0,0
198065,-200,3,1,0,61,0,0
199027,-100,3,2,0,61,0,0
199700,-100,3,1,0,61,0,0
199988,-100,3,2,0,61,0,0
200373,-100,3,1,0,61,0,0
200950,-100,3,2,0,61,0,0
201142,-100,3,1,0,61,0,0
201334,-100,3,2,0,61,0,0
201527,-100,3,1,0,61,0,0
202777,-100,3,1,0,81,0,0
203257,-100,3,2,0,61,0,0
203450,-100,3,2,0,59,0,0
203738,-100,3,2,0,61,0,0
203834,-100,3,1,0,81,0,0
204411,-100,3,2,0,61,0,0
204603,-100,3,2,0,59,0,0
204892,-100,3,2,0,61,0,0
204988,-100,3,1,0,59,0,0
205565,-100,3,2,0,61,0,0
205853,-100,3,2,0,81,0,0
206046,-100,3,2,0,61,0,0
206142,-100,3,1,0,81,0,0
206719,-100,3,2,0,61,0,0
207296,-100,3,1,0,81,0,0
207777,-100,3,2,0,81,0,0
208450,-100,3,1,0,81,0,0
208642,-100,3,2,0,81,0,0
209603,-100,3,1,0,81,0,0
209988,-100,3,2,0,81,0,0
210277,-100,3,1,0,81,0,0
210373,-100,3,2,0,81,0,0
210853,-100,3,2,1,81,0,0
211430,-100,3,2,0,81,0,0
211815,-100,3,1,0,81,0,0
212488,-100,3,2,0,81,0,0
213065,-100,3,1,0,81,0,0
213642,-100,3,2,0,81,0,0
214219,-100,3,1,0,81,0,0
215084,-100,3,2,0,81,0,0
215373,-100,3,1,0,81,0,0
215950,-100,3,2,0,81,0,0
216334,-100,3,1,0,81,0,0
217007,-100,3,2,0,81,0,0
217692,-100,3,1,0,81,0,0
217969,-100,3,2,0,81,0,0
218834,-100,3,1,0,81,0,0
219123,-100,3,2,0,81,0,0
219988,-100,3,1,0,81,0,0
220180,-100,3,2,0,81,0,0
221142,-100,3,1,0,81,0,0
221719,-100,3,2,0,61,0,0
222296,-100,3,1,0,81,0,0
222873,-100,3,2,0,61,0,0
223450,-100,3,1,0,81,0,0
224027,-100,3,2,0,61,0,0
224603,-100,3,1,0,81,0,0
225180,-100,3,2,0,61,0,0
225757,-100,3,1,0,81,0,0
226334,-100,3,2,0,61,0,0
226911,-100,3,1,0,81,0,0
227680,-100,3,2,0,61,0,0
228065,-100,3,1,0,81,0,0
228642,-100,3,2,0,61,0,0
229219,-100,3,1,0,81,0,0
229892,-100,3,2,0,49,0,0
232584,-100,3,2,0,0,0,0
232680,-100,3,1,0,61,0,0
233257,-100,3,2,0,61,0,0
233834,-100,3,1,0,61,0,0
234411,-100,3,2,0,61,0,0
237200,-100,3,2,0,0,0,0
237296,-200,3,2,1,61,0,0
238930,-200,3,2,1,40,0,0
239507,-100,3,2,1,61,0,0
251238,-200,3,2,1,61,0,0
253546,-100,3,2,1,61,0,0
260469,-200,3,2,1,61,0,0
262767,-100,3,2,1,61,0,0
278930,-200,3,2,1,61,0,0
281046,-100,3,2,1,61,0,0
304315,-100,3,2,1,80,0,0

[Colours]
Combo1 : 0,255,255
Combo2 : 255,128,255
Combo3 : 128,0,255
Combo4 : 0,128,255

[HitObjects]
256,192,22777,12,0,25084
456,264,25853,5,2
392,328,26046,1,2
360,248,26238,1,10
144,88,26815,5,2
80,24,27007,1,2
48,104,27200,1,2
144,88,27392,2,2,B|184:168|64:248,1,180,0|0
40,160,27969,1,2
120,200,28161,1,2
56,264,28353,1,2
144,280,28546,2,2,B|336:280,2,180,8|0|0
208,112,29700,5,2
288,64,29892,1,2
288,152,30084,1,2
208,112,30277,1,2
288,64,30469,1,2
288,152,30661,1,0
376,128,30853,2,2,B|376:240|264:208|280:288,1,180,8|0
240,352,31430,2,2,B|176:336|176:248,1,90
56,160,32007,5,2
104,80,32200,1,2
56,160,32392,2,2,B|72:208|168:192,1,90
224,184,32777,1,2
208,272,32969,1,0
224,184,33161,2,2,B|304:184|296:72|352:56,1,180,8|0
432,32,33738,1,2
400,120,33930,1,2
448,296,34315,5,2
360,320,34507,1,2
288,272,34700,1,2
208,240,34892,1,2
128,280,35084,1,2
64,216,35277,1,0
128,152,35469,2,2,B|184:80|248:192|336:112,1,180,8|0
392,112,36046,1,2
456,56,36238,1,2
456,56,36623,5,2
392,112,36815,1,2
304,136,37007,1,2
216,128,37200,1,2
128,152,37392,1,2
80,80,37584,1,0
168,48,37777,1,10
264,200,38161,1,0
320,272,38353,1,2
408,272,38546,1,2
224,280,38930,6,2,B|176:256|136:288,1,90
96,208,39315,2,2,B|120:160|88:120,1,90
152,56,39700,2,2,B|200:80|240:48,1,90,2|0
328,40,40084,2,2,B|280:160|432:192,1,180,8|0
432,96,40661,2,2,B|440:192|280:192,1,180
200,176,41238,5,2
120,128,41430,1,2
192,80,41623,1,2
200,176,41815,1,2
120,128,42007,1,2
192,80,42200,1,0
272,120,42392,1,10
448,328,42969,1,0
176,328,43546,1,4
72,80,45853,5,0
248,72,46238,1,0
328,112,46430,1,0
328,200,46623,1,8
96,264,47007,2,0,B|176:336,1,90
272,304,47392,2,0,B|192:240,1,90
192,136,47776,2,0,B|264:192,1,90,8|0
320,96,48161,1,0
320,96,48546,5,0
320,184,48738,1,0
320,272,48930,1,8
320,272,49315,2,0,B|256:304|232:168|144:208,1,180
144,288,49892,1,0
72,232,50084,1,8
96,144,50276,1,0
176,120,50469,2,0,B|216:224|336:224,1,180
376,160,51046,5,0
344,80,51238,1,8
256,56,51430,1,0
200,128,51623,2,0,B|160:232|40:232,1,180
64,230,52392,1,8
72,144,52584,1,0
120,72,52776,2,0,B|176:24|264:112|320:56,2,180,0|0|8
120,72,53930,1,0
472,280,55084,6,0,B|272:312,1,180
208,288,55661,1,0
152,216,55853,1,8
120,40,56238,2,0,B|19:59|19:171,2,180,0|0|8
200,80,57200,1,0
280,128,57392,2,0,B|336:104|408:208|472:168,1,180
488,96,57969,1,0
424,32,58161,1,8
336,56,58353,1,0
336,56,58546,2,0,L|152:80,2,180,0|0|8
272,168,59507,5,0
200,256,59700,2,0,L|144:336,1,90
80,240,60084,2,0,L|40:144,1,90
152,136,60469,2,0,L|216:56,1,90,8|0
288,144,60853,2,0,L|320:248,2,90
288,144,61623,1,8
448,288,62007,6,0,L|352:336,1,90
360,152,62392,2,0,L|304:64,1,90
136,96,62776,2,0,L|88:176,1,90,8|0
40,344,63161,2,0,L|144:288,1,90
256,184,63546,1,0
256,184,63930,1,8
472,216,64315,6,0,B|368:208|352:88,1,180,4|0
280,48,64892,1,0
192,72,65084,1,8
48,200,65469,1,0
136,224,65661,1,0
208,168,65853,1,0
248,88,66046,1,0
312,32,66238,1,8
368,104,66430,1,0
368,104,66623,6,0,B|312:200|176:136,1,180
128,120,67200,1,0
160,40,67392,2,0,B|216:80|296:32,1,135,8|0
336,40,67776,2,0,B|224:32|192:160,1,180
80,328,68546,6,0,B|56:280|88:208,1,90,8|0
96,152,68930,2,0,B|120:56|248:72,1,180,0|0
328,88,69507,1,0
400,144,69700,1,8
408,232,69892,1,0
368,312,70084,1,0
400,136,70469,2,0,B|368:32|224:64,1,180,0|8
176,96,71046,1,0
128,176,71238,1,0
232,320,71623,5,0
320,304,71815,1,0
360,224,72007,1,8
424,160,72200,1,0
472,232,72392,2,0,B|451:288|387:304|315:280,1,180
232,256,72969,1,0
192,336,73161,1,8
384,184,73546,6,0,B|392:312|272:312,1,180,4|0
192,304,74123,1,0
136,224,74315,1,8
176,32,74700,1,0
176,32,75084,2,0,B|120:40|152:160|96:192,1,180,0|8
48,96,75661,5,0
48,96,75853,2,0,B|56:152|176:120|208:176,1,180
224,272,76430,1,0
128,320,76623,1,8
128,320,77007,2,0,B|184:312|152:192|208:160,1,180
304,144,77584,1,0
360,232,77776,1,8
160,304,78161,6,0,B|160:240|240:224,1,90
368,288,78546,2,0,B|304:288|288:208,1,90
352,80,78930,2,0,B|352:144|272:160,1,90,8|0
144,96,79315,2,0,B|208:96|224:176,2,90
144,96,80084,1,8
144,96,80469,6,0,B|80:192,1,90
176,288,80853,2,0,B|296:288,1,90
392,224,81238,2,0,B|392:112,1,90,8|0
296,24,81623,2,0,B|296:120,1,90
152,96,82007,1,0
152,96,82103,1,0
152,96,82200,1,0
256,192,82392,1,8
40,32,82776,6,0,B|40:216,2,180,0|0|8
128,40,83738,1,0
208,72,83930,2,0,B|248:168|376:144,1,180
440,104,84507,1,0
440,192,84700,1,8
296,304,85084,6,0,B|232:304|232:88|144:80,1,270
96,144,85853,1,8
152,320,86238,2,0,B|225:315|225:99|289:99,1,270
368,136,87007,1,8
320,304,87392,5,0
232,256,87584,1,8
232,256,87680,1,8
232,256,87776,1,8
128,272,87969,1,8
88,168,88161,1,8
264,48,88546,5,8
368,88,88738,1,8
368,88,88834,1,8
368,88,88930,1,8
312,184,89123,1,8
384,264,89315,1,8
288,320,89507,1,8
184,296,89700,6,8,B|88:112,1,180,12|8
112,32,90276,1,8
8,32,90469,2,8,B|200:32,1,180
432,104,91238,2,8,B|344:168,1,90
272,248,91623,2,8,B|192:160,1,90
112,112,92007,5,8
224,48,92200,1,8
224,48,92296,1,8
224,48,92392,1,8
312,136,92584,1,8
424,72,92776,1,8
184,304,93161,5,8
448,64,93546,1,8
88,56,93930,1,8
368,280,94315,1,0
232,296,94507,5,0
136,200,94700,1,0
192,80,94892,1,0
320,56,95084,1,0
416,152,95276,1,0
296,208,95469,1,0
200,296,95661,1,0
200,296,95757,1,0
200,296,95853,1,0
152,168,96046,1,0
288,152,96238,1,0
360,40,96430,1,0
464,240,96623,6,0,B|408:288|336:304|256:256|232:192,1,270,4|8
168,80,98353,1,8
168,80,98546,1,8
384,184,98930,5,0
200,296,99315,2,0,B|88:296,2,90,0|0|8
304,112,100084,6,0,B|376:56,1,90
416,152,100469,2,0,B|376:240,1,90
304,312,100853,2,0,B|264:216,1,90,8|0
336,144,101238,2,0,B|312:64|248:48|184:96,1,180
136,160,101815,1,0
152,248,102007,1,8
376,328,102392,2,0,B|304:376|240:328|224:256,1,180
272,200,102969,1,0
328,128,103161,6,0,B|376:128|424:128,2,90,8|0|0
152,88,103930,1,0
216,152,104123,1,0
168,232,104315,1,8
104,168,104507,1,0
168,232,104700,2,0,B|264:224|272:296|352:280,2,180,0|0|8
168,232,105853,1,0
256,160,106046,1,0
256,160,106142,1,0
256,160,106238,1,0
368,152,106430,1,0
368,152,106623,1,8
368,152,107007,6,0,B|368:208|312:224,1,90
240,144,107392,2,0,B|192:152|168:88,2,90,0|0|8
256,248,107969,1,0
256,248,108065,1,0
256,248,108161,2,0,B|176:248|176:312|72:320,2,180
256,248,109315,1,0
136,72,109700,6,0,B|200:80|200:160,1,90
312,112,110084,2,2,B|304:176|224:168,1,90
143,265,110469,2,0,B|192:248|184:192,2,90
144,264,111238,1,0
224,304,111430,5,0
264,280,111526,1,0
304,256,111623,2,2,B|344:224|408:184,1,90
432,128,112007,1,2
432,128,112392,1,0
344,120,112584,5,0
304,136,112680,1,0
264,152,112776,2,2,B|184:184|160:192,1,90,2|0
64,240,113161,2,0,B|0:168|40:96|96:56,1,180
304,64,113930,5,2
392,120,114123,1,0
440,216,114315,2,0,B|384:336|280:296,1,180
192,272,114892,1,0
96,224,115084,2,0,B|48:216|16:280,2,90,2|0|0
96,224,115853,1,0
184,168,116046,5,0
184,168,116142,1,0
184,168,116238,2,0,B|232:160|240:72,1,90,2|0
320,168,116623,2,0,B|272:176|264:264,1,90
268,234,117007,1,2
376,240,117200,5,0
376,240,117296,1,0
376,240,117392,2,0,B|440:232|392:112|480:96,2,180,0|2|2
376,240,118546,2,0,B|304:216|296:312|212:305,1,180,0|2
144,96,119315,1,2
232,32,119507,1,2
320,96,119700,2,0,B|384:80|384:224|464:216,2,180,2|2|2
128,192,120853,5,0
232,224,121046,1,0
152,296,121238,1,2
128,192,121430,1,0
232,224,121623,1,2
152,296,121815,1,0
256,192,122007,12,0,123930
256,192,124315,12,0,126238
256,192,126623,12,0,128546
256,184,128930,5,0
424,56,129315,1,2
472,152,129507,1,2
432,248,129700,1,2
216,264,130084,1,2
128,208,130276,1,0
128,208,130373,1,0
128,208,130469,2,2,B|96:168|152:88,1,90,2|10
200,40,130853,1,8
200,40,131046,1,8
304,72,131238,5,0
392,136,131430,1,0
392,136,131526,1,0
392,136,131623,1,0
456,224,131815,1,0
456,224,132007,1,8
368,288,132200,1,0
264,320,132392,2,0,B|208:240|128:320|88:248,1,180
176,184,132969,1,0
120,96,133161,5,8
120,96,133257,1,0
120,96,133353,1,0
224,72,133546,2,0,B|288:88|272:192|352:184,1,180
400,88,134123,1,0
464,176,134315,1,8
416,272,134507,1,0
312,264,134700,1,0
288,160,134892,2,0,B|224:160,2,45
392,184,135276,2,0,B|448:144|440:80,2,90,0|8|0
392,184,135757,5,0
392,184,135853,1,0
312,264,136046,2,0,B|232:320,1,90
192,216,136430,2,0,B|88:216,1,90,0|8
64,112,136815,1,0
64,112,136911,1,0
64,112,137007,2,0,B|248:112,1,180
352,104,137584,2,0,B|352:56,2,45,0|0|8
424,184,137969,5,0
424,184,138065,1,0
424,184,138161,2,0,B|376:208|376:272,1,90
272,256,138546,2,0,B|272:208|224:184,1,90
120,192,138930,2,0,B|72:216|72:280,1,90,8|0
176,280,139315,2,0,B|176:96,1,180
176,100,140084,1,8
456,72,147392,5,2
456,72,147584,1,2
72,320,147969,5,2
72,320,148161,1,2
80,48,148546,5,2
80,48,148738,1,2
448,320,149123,5,2
448,320,149315,1,2
360,216,149507,5,0
360,216,149603,1,0
360,216,149700,2,2,B|304:192|312:128,1,90
184,96,150084,2,2,B|160:152|96:144,1,90
40,256,150469,2,2,B|64:312|128:304,1,90,2|2
192,240,150853,6,2,B|232:280,3,45,10|2|2|2
272,248,151238,2,2,B|312:288,3,45,2|2|10|2
344,256,151623,2,2,B|384:288,3,45
376,280,152007,6,0,B|488:272|488:136|488:136,1,180,8|0
432,64,152584,1,0
368,136,152776,2,0,B|184:136|184:136,1,180,8|0
120,64,153353,1,0
56,136,153546,1,0
120,208,153738,1,0
56,280,153930,6,0,B|16:320|32:376,2,90,8|0|0
456,280,154700,2,0,B|496:320|480:376,2,90,0|0|8
256,336,155469,2,0,B|296:248|211:230|267:128|267:128,1,180,0|8
256,72,156430,1,0
336,32,156623,2,0,B|416:120|328:208|328:208,1,180
176,32,157200,2,0,B|96:120|184:208|184:208,1,180
256,248,157776,1,0
256,248,158161,2,0,B|296:192|224:176|256:112|256:112,1,135
256,40,158930,5,0
40,192,159315,1,0
256,344,159700,1,8
472,192,160084,1,0
384,248,160276,6,0,B|384:344,2,90
384,136,160853,2,0,B|384:32|384:32,1,90,8|0
296,48,161238,6,0,B|192:136|304:208|304:208,1,180
360,256,161815,1,0
304,328,162007,2,0,B|112:328|112:328,1,180,8|0
256,64,162776,1,0
388,328,163161,1,8
320,256,163353,1,0
256,328,163546,6,0,B|160:368|64:320|64:320,1,180
24,256,164123,1,0
80,184,164315,1,8
136,256,164507,1,0
192,184,164700,2,0,B|272:128|240:8,2,180,0|0|8
248,256,165661,1,0
304,184,165853,6,0,B|376:112|376:112,1,90
208,184,166238,2,0,B|136:112|136:112,1,90
256,112,166623,2,0,B|256:8,2,90,8|0|0
256,208,167200,1,0
256,304,167392,1,0
256,80,167776,1,8
464,296,168161,6,0,C|464:200|464:200,1,90
376,88,168546,2,0,C|376:184|376:184,1,90,0|0
288,296,168930,2,0,C|288:192|288:192,1,90,8|0
208,88,169315,2,0,B|136:176|216:264,2,180,0|8|8
472,192,170469,6,0,B|280:192|280:192,1,180,4|0
200,192,171046,1,0
128,248,171238,2,0,B|24:192|88:64|88:64,1,180,8|0
152,40,171815,1,0
232,88,172007,1,0
312,40,172200,1,0
392,88,172392,1,8
312,136,172584,1,0
392,176,172776,6,0,B|400:296|280:312|280:312,1,180
256,192,173353,1,0
120,176,173546,2,0,B|112:296|232:312|232:312,1,180,8|0
256,56,174315,1,0
256,328,174700,5,8
160,328,174892,1,0
64,328,175084,2,0,B|0:256|40:136|40:136,1,180
120,160,175661,1,0
200,104,175853,1,8
280,160,176046,1,0
352,224,176238,1,0
352,224,176623,2,0,B|400:184|360:136|416:88|416:88,1,135
464,40,177392,5,0
376,344,177776,1,0
256,32,178161,1,8
136,344,178546,2,0,B|24:288|72:160|72:160,1,180
144,152,179123,1,0
226,183,179315,1,8
472,56,179700,6,0,B|288:56|288:56,1,180
200,56,180276,1,0
104,56,180469,1,8
136,232,180853,2,0,B|200:232|208:144|208:144,1,90
376,232,181238,2,0,B|312:232|304:144|304:144,1,90
256,112,181623,1,8
256,200,181815,1,0
256,288,182007,6,0,B|64:288|64:288,1,180
16,224,182584,1,0
72,152,182776,1,8
168,152,182969,1,0
232,224,183161,2,0,B|343:204|327:60,2,180,0|0|8
168,288,184123,1,0
232,352,184315,6,0,B|320:304|320:304,1,90
280,80,184700,2,0,B|192:32|192:32,1,90
256,192,185084,2,0,B|352:192|352:192,1,90,8|0
432,192,185469,2,0,B|464:240|432:296,2,90
80,192,186238,1,8
269,156,186623,5,0
366,168,186815,1,0
407,246,187007,1,0
363,333,187200,1,0
273,317,187392,1,8
232,240,187584,1,0
320,248,187776,2,0,B|264:336|128:304,2,180,0|0|8
256,48,188930,5,2
168,56,189123,1,0
96,112,189315,1,2
72,200,189507,1,0
104,288,189700,1,2
408,96,190084,5,2
440,184,190276,1,0
416,272,190469,1,2
344,328,190661,1,0
256,336,190853,1,4
144,56,191238,5,2
196,133,191430,1,0
138,208,191623,1,2
50,175,191815,1,0
53,81,192007,1,2
368,328,192392,5,2
316,251,192584,1,0
374,176,192776,1,2
462,209,192969,1,0
459,303,193161,1,4
64,32,193546,6,0,B|64:144,1,90
208,104,194123,2,0,B|208:208,1,90,0|2
208,194,194507,1,2
280,272,194700,2,0,B|400:248|432:144,1,180
424,64,195276,2,0,B|224:64,1,180
152,72,195853,6,0,B|72:144,1,90,0|2
104,216,196238,2,0,B|192:248,1,90,0|2
264,200,196623,2,0,B|240:96,1,90,0|2
392,48,197007,2,0,B|464:144,1,90,0|2
400,320,197392,2,0,B|352:224,1,90,0|0
152,32,197776,2,0,B|125:126,1,90
72,320,198161,2,0,B|169:338|231:261,1,180
464,56,199315,6,0,B|366:37|304:114,1,180,2|0
256,192,199892,1,0
184,272,200084,2,0,B|80:272,1,90,2|0
48,192,200469,2,0,B|152:192,1,90
192,120,200853,5,0
192,120,201046,1,2
320,120,201238,1,0
320,120,201430,1,2
416,192,201623,5,0
392,280,201815,1,0
392,280,201911,1,0
392,280,202007,1,0
304,288,202200,1,0
216,264,202392,1,0
192,256,202488,1,0
168,248,202584,1,0
144,240,202680,1,0
120,232,202776,6,0,B|80:136|120:48,1,180,4|0
200,128,203353,1,2
312,128,203546,2,0,B|416:128,1,90,8|2
456,216,203930,2,0,B|400:336|288:328,1,180,0|0
240,256,204507,1,2
114,104,204700,2,0,B|168:176,1,90,8|0
272,176,205084,6,0,B|296:72|408:48,1,180,0|0
392,160,205661,2,0,B|392:250,2,90,0|8|0
392,250,206238,1,0
120,134,206623,1,0
224,136,206815,2,0,B|328:136,1,90,2|8
424,136,207200,1,2
392,250,207392,6,0,B|320:336|200:320,1,180,0|8
144,272,207969,1,0
80,184,208161,1,8
144,96,208353,1,0
240,192,208546,1,0
352,304,208738,5,0
472,216,208930,1,8
384,72,209123,1,0
256,168,209315,1,8
104,288,209507,1,0
104,176,209700,2,0,B|104:64,1,90
208,112,210084,2,0,B|208:232,1,90,8|0
200,312,210469,2,0,B|288:360|408:304,2,180,8|10|10
312,48,211623,1,8
48,112,212007,6,0,B|48:320,1,180
152,272,212584,2,0,B|160:168,1,90,2|8
168,72,212969,1,0
240,152,213161,2,0,B|344:208|448:152,1,180
352,80,213738,1,2
304,272,213930,2,0,B|327:185,1,90,8|0
272,88,214315,6,0,B|144:64|96:144,1,180
168,216,214892,2,0,B|280:216,2,90,0|8|0
344,152,215469,2,0,B|400:224|352:328,1,180
248,296,216046,2,0,B|144:264,1,90,2|8
64,232,216430,1,0
64,232,216526,1,0
64,232,216623,6,0,B|64:32,1,180,0|8
152,112,217200,1,2
152,216,217392,1,8
152,320,217584,1,0
248,272,217776,2,0,B|338:220,1,90,0|2
388,292,218161,1,8
427,214,218353,1,2
387,145,218546,1,8
307,135,218738,1,2
224,208,218930,6,0,B|133:260,1,90,0|2
48,264,219315,1,8
32,160,219507,1,2
88,72,219700,1,8
192,64,219892,1,2
280,128,220084,1,0
360,192,220276,1,2
384,216,220373,1,0
408,240,220469,2,0,B|408:352,1,90,8|0
240,352,220853,5,8
240,352,221046,1,0
240,352,221238,2,0,B|152:296|152:176,1,180
153,202,221815,1,2
272,64,222007,2,0,B|192:144,1,90,8|0
248,232,222392,2,0,B|360:208|392:96,1,180
248,136,222969,1,2
64,104,223161,2,0,B|160:104,1,90,8|0
168,352,223546,6,0,B|80:296|96:192,1,180
256,192,224123,1,2
256,192,224315,1,8
256,192,224507,1,0
344,32,224700,2,0,B|432:88|416:192,1,180
288,336,225276,2,0,B|360:264,2,90,2|8|0
184,336,225853,1,0
328,48,226238,1,0
416,104,226430,2,0,B|416:216,1,90,2|8
328,256,226815,1,2
240,192,227007,6,0,B|40:192,1,180
112,96,227584,1,0
224,96,227776,2,0,B|320:96,1,90,8|0
424,96,228161,2,8,B|496:200|408:280,1,180,0|0
320,264,228738,2,0,B|248:192,1,90,2|8
184,120,229123,1,0
80,136,229315,2,0,B|24:240|112:328,1,180
91,304,230084,5,8
192,264,230276,1,2
256,192,230469,12,0,232584
40,72,232776,6,0,B|120:24|232:72,1,180
213,64,233257,1,0
213,64,233353,1,2
176,168,233546,2,0,B|176:288,1,90,8|0
416,336,233930,2,0,B|336:384|224:336,1,180
243,344,234411,1,0
243,344,234507,1,2
272,248,234700,5,8
296,144,234892,1,2
328,32,235084,1,8
256,192,235180,12,0,237200
128,64,237392,6,0,B|24:64,2,90
128,64,238546,1,8
288,56,239123,1,8
288,56,239315,1,8
480,152,239700,6,0,B|488:264|384:312,1,180
296,312,240276,1,0
296,312,240469,1,8
104,224,240853,2,0,B|40:216|48:120,1,90
160,160,241238,2,0,B|224:168|216:264,1,90
320,184,241623,2,0,B|320:88,1,90,8|0
224,32,242007,6,0,B|96:48|72:120,1,180
64,224,242584,1,0
136,304,242776,1,8
352,304,243161,2,0,B|416:288|368:176|440:144,2,180,0|0|8
304,208,244123,1,0
208,160,244315,1,0
64,56,244700,5,0
56,144,244892,1,0
112,216,245084,1,8
136,304,245276,1,0
224,304,245469,2,0,B|40:304,2,180,0|0|8
224,304,246623,1,0
256,192,246719,12,8,248546
360,336,248930,6,0,B|448:280|408:136,1,180
360,88,249507,2,0,B|288:144,1,90,0|8
288,143,249892,1,0
224,224,250084,2,0,B|96:80,1,180
104,89,250661,1,0
88,192,250853,2,0,B|96:296,1,90,8|0
176,320,251238,6,0,B|288:320,2,90,0|0|8
344,256,252392,2,0,B|296:176,1,90
208,152,252969,1,0
192,240,253161,1,8
144,320,253353,1,0
64,312,253546,6,0,B|24:208|104:104,1,180
152,56,254123,1,0
256,32,254315,2,0,B|352:32,1,90,8|0
448,72,254700,2,0,B|488:176|408:280,1,180
360,328,255276,1,0
256,352,255469,1,8
160,160,255853,6,0,B|256:160,1,90
352,192,256238,2,0,B|400:104,2,90,0|0|8
176,312,257007,2,0,B|96:256,1,90
40,176,257392,2,0,B|224:176,1,180,0|8
220,176,257969,1,0
288,88,258161,6,0,B|344:96|336:224|448:216,1,180
464,144,258738,1,0
416,72,258930,1,8
416,72,259315,2,0,B|360:80|368:208|256:200,1,180
208,168,259892,1,0
272,112,260084,1,8
296,200,260276,1,0
320,280,260469,6,0,B|216:296,1,90,0|0
144,312,261238,1,8
144,312,261623,2,0,B|96:272|152:216,1,90
168,200,262200,1,0
168,152,262392,1,8
168,104,262584,1,0
168,104,262776,6,0,B|384:104,2,180,0|0|8
80,104,263738,1,0
32,32,263930,2,0,B|136:200,1,180
216,176,264507,2,0,B|216:280,1,90,0|8
216,266,264892,1,0
304,296,265084,6,0,B|400:296,3,90,0|0|0|0
392,184,265853,2,0,B|344:104,1,90,8|0
240,72,266238,2,0,B|224:176,1,90
208,272,266623,5,0
176,272,266719,1,0
176,240,266815,1,0
144,256,266911,1,0
144,224,267007,5,8
112,232,267103,1,0
112,192,267200,1,0
80,208,267296,1,0
80,176,267392,1,12
448,128,276623,6,0,B|464:240|328:288,1,180
304,208,277200,1,0
280,296,277392,1,8
280,296,277776,2,0,B|168:312|120:176,1,180
200,152,278353,1,0
120,112,278546,1,8
120,112,278930,6,0,B|152:64|240:72,1,90
198,73,279700,1,8
288,88,280084,2,0,B|336:120|328:208,1,90
328,165,280853,1,8
432,328,281238,6,0,B|208:328,1,180
252,328,282007,1,8
80,56,282392,2,0,B|304:56,1,180
260,56,283161,1,8
456,312,285853,5,4
448,280,285950,1,2
432,256,286046,1,2
400,248,286142,1,2
376,272,286238,1,2
360,304,286334,1,2
328,320,286430,1,2
296,320,286527,1,2
264,312,286623,2,2,B|176:256|240:128,1,180
272,72,287200,6,2,B|320:88,1,45
304,128,287392,2,2,B|344:216,1,90
272,264,287777,1,2
248,240,287873,1,2
224,264,287969,1,2
200,240,288065,1,2
176,264,288161,6,2,B|104:168,1,90
40,144,288546,2,2,B|88:48,1,90
176,32,288930,2,2,B|264:104,1,90
320,168,289315,2,2,B|432:168,1,90
456,168,289603,1,2
504,168,289700,2,0,B|480:256|376:288,1,180,0|8
272,296,290277,5,2
224,296,290373,1,2
176,296,290469,2,0,B|80:296,1,90
120,184,290853,2,0,B|192:80,1,90,2|2
272,32,291238,2,0,B|312:144,1,90,10|0
344,248,291623,1,0
216,312,291815,1,2
216,312,291911,1,2
216,312,292007,1,2
104,208,292200,1,2
168,64,292392,1,2
336,48,292584,1,2
480,160,292777,6,0,B|416:248,3,90,0|0|0|2
264,296,293546,2,2,B|168:248,1,90,10|2
48,168,293930,2,0,B|160:128,3,90,0|0|0|2
272,72,294700,2,2,B|304:160,1,90,10|2
352,296,295084,5,0
216,304,295277,1,0
160,192,295469,1,0
232,96,295661,1,2
288,192,295853,1,10
288,192,296238,5,2
288,192,296334,1,2
288,192,296430,1,2
288,192,296527,1,2
288,192,296623,1,2
288,192,296719,1,2
288,192,296815,1,2
288,192,296911,1,2
288,192,297007,2,2,B|192:184|216:312|120:304,1,180,0|4
96,208,297584,1,0
96,208,297777,2,0,B|192:200|168:328|264:320,1,180,0|8
328,296,298353,5,2
360,264,298450,1,2
392,232,298546,2,2,B|472:144|376:48,1,180
312,48,299123,1,0
312,48,299315,2,2,B|312:176,1,90
304,224,299700,5,2
280,264,299796,1,2
248,296,299892,1,2
208,304,299988,1,2
176,280,300084,1,2
160,240,300180,1,2
136,208,300277,1,2
96,192,300373,1,2
64,216,300469,1,2
48,256,300565,1,2
48,296,300661,1,2
80,320,300757,1,2
112,304,300853,1,2
192,208,301046,5,2
224,184,301142,1,2
264,168,301238,1,2
344,200,301430,1,2
376,232,301527,1,2
400,264,301623,1,2
336,320,301815,1,2
288,328,301911,1,2
240,336,302007,2,2,B|136:336,1,90
88,272,302392,2,2,B|96:160,1,90
104,96,302777,2,2,B|224:80,1,90
288,64,303161,2,2,B|360:160,1,90
416,216,303546,2,2,B|344:304,1,90
256,184,303930,5,2
256,184,304027,1,2
256,184,304123,1,2
256,184,304219,1,2
256,184,304315,1,6
