osu file format v13

[General]
AudioFilename: mintea - Natsu ga kuru yo!.mp3
AudioLeadIn: 0
PreviewTime: 118888
Countdown: 0
SampleSet: Soft
StackLeniency: 0.7
Mode: 0
LetterboxInBreaks: 1
WidescreenStoryboard: 0

[Editor]
DistanceSpacing: 1.5
BeatDivisor: 4
GridSize: 4
TimelineZoom: 1.8

[Metadata]
Title:Natsu ga Kuru yo
TitleUnicode:夏がくるよ
Artist:mintea
ArtistUnicode:mintea
Creator:Kyubey
Version:Hard
Source:
Tags:Synchronicity C84 comiket LYDIA GRAVE 沖林仁之介 Jinnosuke Okibayashi teadrops aka
BeatmapID:418774
BeatmapSetID:169041

[Difficulty]
HPDrainRate:5
CircleSize:4
OverallDifficulty:6
ApproachRate:8
SliderMultiplier:1.5
SliderTickRate:2

[Events]
//Background and Video events
0,0,"bg.jpg",0,0
//Break Periods
2,158441,163315
2,209241,226844
//Storyboard Layer 0 (Background)
//Storyboard Layer 1 (Fail)
//Storyboard Layer 2 (Pass)
//Storyboard Layer 3 (Foreground)
//Storyboard Sound Samples
//Background Colour Transformations
3,100,163,162,255

[TimingPoints]
15830,352.941176470588,4,2,0,55,1,0
15830,-133.333333333333,4,2,0,55,0,0
27124,-133.333333333333,4,2,1,65,0,0
49712,-117.647058823529,4,2,1,75,0,0
60477,-117.647058823529,4,2,3,75,0,0
60565,-117.647058823529,4,2,1,75,0,0
63300,-117.647058823529,4,2,3,75,0,0
63388,-117.647058823529,4,2,1,75,0,0
69477,-117.647058823529,4,2,1,15,0,0
69829,-117.647058823529,4,2,1,24,0,0
70182,-117.647058823529,4,2,1,33,0,0
70535,-117.647058823529,4,2,1,42,0,0
70888,-117.647058823529,4,2,1,51,0,0
71241,-117.647058823529,4,2,1,60,0,0
71594,-117.647058823529,4,2,1,69,0,0
71947,-117.647058823529,4,2,1,78,0,0
73712,-117.647058823529,4,2,0,65,0,0
96300,-133.333333333333,4,2,0,45,0,0
101594,-133.333333333333,4,2,2,45,0,0
101682,-133.333333333333,4,2,0,45,0,0
104771,-125,4,2,0,50,0,0
105477,-117.647058823529,4,2,0,55,0,0
106182,-111.111111111111,4,2,0,60,0,0
106888,-105.263157894737,4,2,0,65,0,0
107594,-117.647058823529,4,2,0,65,0,0
109006,-111.111111111111,4,2,0,70,0,0
110418,-105.263157894737,4,2,0,75,0,0
111829,-100,4,2,0,80,0,0
113241,-100,4,2,0,80,0,0
118359,-66.6666666666667,4,1,0,75,0,0
118888,-100,4,2,1,90,0,1
130094,-100,4,2,0,90,0,0
130182,-100,4,2,1,75,0,1
140065,-133.333333333333,4,2,0,75,0,1
140418,-100,4,2,1,75,0,1
140771,-80,4,2,0,75,0,1
141124,-66.6666666666667,4,2,1,75,0,1
141477,-100,4,2,1,75,0,0
164065,-133.333333333333,4,2,0,45,0,0
172535,-133.333333333333,4,2,0,50,0,0
173241,-117.647058823529,4,2,0,55,0,0
173947,-105.263157894737,4,2,0,60,0,0
174653,-86.9565217391304,4,2,0,65,0,0
175359,-100,4,2,0,65,0,0
176771,-100,4,2,0,70,0,0
178182,-100,4,2,0,75,0,0
179594,-100,4,2,0,80,0,0
181006,-100,4,2,0,85,0,0
186653,-100,4,2,1,75,0,1
208888,-100,4,2,1,75,0,0
231829,-100,4,2,1,75,0,1
231918,-100,4,2,1,75,0,0
254065,-66.6666666666667,4,2,1,75,0,1
254418,-133.333333333333,4,2,1,50,0,0
275594,-133.333333333333,4,2,1,40,0,0
275947,-133.333333333333,4,2,1,45,0,0
276300,-133.333333333333,4,2,1,50,0,0
276653,-133.333333333333,4,2,1,55,0,0

[Colours]
Combo1 : 255,94,55
Combo2 : 173,255,95
Combo3 : 255,88,100
Combo4 : 17,254,176

[HitObjects]
192,112,15830,5,6,0:0:0:0:
192,112,16006,1,0,0:0:0:0:
192,112,16182,2,0,L|204:192,1,56.2500021457673,2|0,0:0|0:0,0:0:0:0:
272,153,16535,2,0,L|284:233,1,56.2500021457673,2|0,0:0|0:0,0:0:0:0:
351,189,16888,2,0,L|363:269,1,56.2500021457673,2|0,0:0|0:0,0:0:0:0:
412,112,17241,5,6,0:0:0:0:
412,112,17418,1,0,0:0:0:0:
412,112,17594,2,0,L|344:96,1,56.2500021457673,2|0,0:0|0:0,0:0:0:0:
312,32,17947,2,0,L|244:16,2,56.2500021457673,2|0|2,0:0|0:0|0:0,0:0:0:0:
392,28,18477,5,4,0:0:0:0:
392,28,18653,1,2,0:0:0:0:
392,28,18830,1,0,0:0:0:0:
392,28,19006,2,0,L|400:104,1,56.2500021457673,2|0,0:0|0:0,0:0:0:0:
329,175,19359,2,0,L|324:120,1,56.2500021457673,2|0,0:0|0:0,0:0:0:0:
256,212,19712,2,0,L|264:288,1,56.2500021457673,2|0,0:0|0:0,0:0:0:0:
188,304,20065,5,2,0:0:0:0:
188,304,20241,1,0,0:0:0:0:
188,304,20418,2,0,L|112:284,1,56.2500021457673,2|0,0:0|0:0,0:0:0:0:
80,220,20771,2,0,L|152:200,2,56.2500021457673,6|0|0,0:0|0:0|0:0,0:0:0:0:
52,304,21300,1,4,0:0:0:0:
133,289,21477,5,2,0:0:0:0:
133,289,21653,1,0,0:0:0:0:
133,289,21830,2,0,L|204:268,1,56.2500021457673,2|0,0:0|0:0,0:0:0:0:
184,192,22182,2,0,L|254:170,1,56.2500021457673,2|0,0:0|0:0,0:0:0:0:
236,92,22535,2,0,L|306:70,1,56.2500021457673,2|0,0:0|0:0,0:0:0:0:
380,44,22888,5,6,0:0:0:0:
380,44,23065,1,0,0:0:0:0:
380,44,23241,2,0,L|364:120,1,56.2500021457673,0|2,0:0|0:0,0:0:0:0:
440,140,23594,2,0,L|456:216,2,56.2500021457673,6|0|2,0:0|0:0|0:0,0:0:0:0:
368,99,24124,5,4,0:0:0:0:
368,99,24300,1,2,0:0:0:0:
368,99,24477,1,0,0:0:0:0:
368,99,24653,2,0,L|292:124,1,56.2500021457673,2|0,0:0|0:0,0:0:0:0:
256,176,25006,2,0,L|332:200,1,56.2500021457673,2|0,0:0|0:0,0:0:0:0:
368,252,25359,2,0,L|291:276,1,56.2500021457673,2|0,0:0|0:0,0:0:0:0:
236,300,25712,5,2,0:0:0:0:
236,300,25888,1,0,0:0:0:0:
236,300,26065,2,0,L|224:224,1,56.2500021457673,2|0,0:0|0:0,0:0:0:0:
288,184,26418,1,2,0:0:0:0:
288,184,26594,1,0,0:0:0:0:
340,116,26771,2,0,P|300:104|244:108,1,84.3750032186509,2|0,0:0|0:0,0:0:0:0:
220,88,27124,6,0,P|208:144|220:200,1,112.500004291535,6|8,0:0|0:0,0:0:0:0:
284,252,27653,1,2,3:2:0:0:
284,252,27830,1,0,0:0:0:0:
364,280,28006,1,2,0:2:0:0:
364,280,28182,2,0,P|388:248|400:188,1,84.3750032186509,10|0,0:0|0:0,0:0:0:0:
424,172,28535,6,0,P|376:140|304:128,1,112.500004291535,6|8,3:2|0:0,0:0:0:0:
240,140,29065,1,2,0:0:0:0:
180,200,29241,2,0,P|176:232|184:272,1,56.2500021457673,0|2,0:0|3:2,0:0:0:0:
248,136,29594,2,0,P|252:104|244:64,1,56.2500021457673,8|6,0:0|1:2,0:0:0:0:
116,52,29947,6,0,P|88:60|48:92,1,56.2500021457673,0|0,3:0|0:0,0:0:0:0:
88,156,30300,2,0,P|60:164|20:196,1,56.2500021457673,10|2,0:0|3:2,0:0:0:0:
36,264,30653,1,2,0:0:0:0:
104,316,30830,1,2,0:0:0:0:
188,328,31006,1,8,0:0:0:0:
268,300,31182,1,2,3:2:0:0:
336,248,31359,6,0,P|352:292|328:360,1,112.500004291535,2|10,3:2|0:0,0:0:0:0:
420,348,31888,1,2,0:0:0:0:
484,292,32065,2,0,P|500:264|508:224,1,56.2500021457673,4|0,0:0|3:0,0:0:0:0:
432,236,32418,1,8,0:0:0:0:
392,172,32594,1,6,0:0:0:0:
392,172,32771,6,0,L|416:100,1,56.2500021457673,0|0,3:0|0:0,0:0:0:0:
312,188,33124,2,0,L|294:241,1,56.2500021457673,8|2,0:0|3:2,0:0:0:0:
336,108,33477,1,0,0:0:0:0:
336,108,33653,1,2,0:2:0:0:
264,68,33830,2,0,P|256:100|256:136,1,56.2500021457673,10|2,0:0|0:2,0:0:0:0:
168,168,34182,6,0,P|175:140|177:112,1,56.2500021457673,6|2,3:2|0:0,0:0:0:0:
92,124,34535,1,8,0:0:0:0:
176,172,34712,1,2,0:0:0:0:
252,200,34888,2,0,P|280:200|324:188,1,56.2500021457673,4|2,0:0|3:2,0:0:0:0:
396,208,35241,2,0,P|396:180|384:136,1,56.2500021457673,8|6,0:0|0:2,0:0:0:0:
316,188,35594,6,0,P|316:216|328:260,1,56.2500021457673,0|2,3:0|0:0,0:0:0:0:
360,316,35947,1,8,0:0:0:0:
360,316,36124,1,2,3:2:0:0:
440,348,36300,1,2,0:0:0:0:
440,348,36477,1,2,0:0:0:0:
500,288,36653,2,0,P|496:256|476:216,1,56.2500021457673,8|2,0:0|3:2,0:0:0:0:
396,172,37006,6,0,P|379:213|394:290,1,112.500004291535,2|10,3:2|0:0,0:0:0:0:
480,232,37535,1,2,0:0:0:0:
492,128,37712,2,0,L|472:60,1,56.2500021457673,4|2,0:0|0:0,0:0:0:0:
400,68,38065,2,0,L|380:0,1,56.2500021457673,10|2,0:0|0:0,0:0:0:0:
288,36,38418,6,0,L|324:168,1,112.500004291535,4|8,0:0|0:0,0:0:0:0:
388,192,38947,1,2,3:2:0:0:
312,228,39124,2,0,P|285:221|248:196,1,56.2500021457673,0|2,0:0|0:2,0:0:0:0:
400,192,39477,2,0,P|406:218|401:263,1,56.2500021457673,10|2,0:0|0:2,0:0:0:0:
344,332,39830,6,0,P|296:344|236:332,1,112.500004291535,6|10,3:2|0:0,0:0:0:0:
292,260,40359,1,2,0:0:0:0:
376,244,40535,2,0,L|448:240,1,56.2500021457673,2|2,0:0|3:2,0:0:0:0:
308,176,40888,2,0,L|380:172,1,56.2500021457673,8|6,0:0|3:2,0:0:0:0:
240,104,41241,5,0,3:0:0:0:
196,176,41418,1,0,0:0:0:0:
152,104,41594,1,8,0:0:0:0:
108,176,41771,1,2,3:2:0:0:
152,248,41947,2,0,P|188:260|224:256,1,56.2500021457673,0|2,0:0|0:0,0:0:0:0:
112,168,42300,2,0,P|76:156|40:160,1,56.2500021457673,8|2,0:0|3:2,0:0:0:0:
68,240,42653,6,0,L|80:304,1,56.2500021457673,0|0,3:0|0:0,0:0:0:0:
156,324,43006,2,0,L|168:388,1,56.2500021457673,8|2,0:0|0:0,0:0:0:0:
224,280,43359,2,0,P|203:257|172:244,1,56.2500021457673,4|0,0:0|3:0,0:0:0:0:
280,336,43712,2,0,P|312:344|348:344,1,56.2500021457673,8|6,0:0|0:0,0:0:0:0:
412,372,44065,6,0,P|414:343|404:296,1,56.2500021457673,0|0,3:0|0:0,0:0:0:0:
436,236,44418,2,0,P|433:264|444:312,1,56.2500021457673,8|2,0:0|3:2,0:0:0:0:
504,196,44771,2,0,P|458:160|392:168,1,112.500004291535,2|10,0:0|0:0,0:0:0:0:
288,308,45477,2,0,P|298:259|292:188,1,112.500004291535,6|10,3:2|0:0,0:0:0:0:
272,112,46006,1,2,0:0:0:0:
212,172,46182,2,0,P|208:203|216:240,1,56.2500021457673,0|2,0:0|3:2,0:0:0:0:
352,140,46535,2,0,P|355:108|348:72,1,56.2500021457673,10|6,0:0|3:2,0:0:0:0:
272,112,46888,5,0,3:0:0:0:
272,112,47065,1,2,0:0:0:0:
272,112,47241,2,0,L|288:192,1,56.2500021457673,8|2,0:0|3:2,0:0:0:0:
240,308,47594,5,0,0:0:0:0:
240,308,47771,1,2,0:0:0:0:
240,308,47947,2,0,L|224:228,1,56.2500021457673,8|2,0:0|3:2,0:0:0:0:
328,320,48300,5,0,3:0:0:0:
404,356,48477,1,2,0:0:0:0:
324,232,48653,1,8,0:0:0:0:
400,268,48830,1,2,0:0:0:0:
392,184,49006,1,0,0:0:0:0:
312,144,49182,6,0,P|272:160|248:184,2,56.2500021457673,0|8|2,1:0|1:2|1:2,0:0:0:0:
408,160,49712,1,4,3:2:0:0:
452,76,49888,1,0,0:0:0:0:
380,16,50065,1,10,0:0:0:0:
292,56,50241,1,2,3:2:0:0:
204,92,50418,2,0,P|156:92|104:76,1,95.6250018239022,2|0,0:0|0:0,0:0:0:0:
64,76,50771,2,0,L|80:164,1,63.7500012159348,10|2,0:0|0:0,0:0:0:0:
124,256,51124,6,0,B|132:264|132:264|156:268|204:264,1,63.7500012159348,6|2,3:2|0:0,0:0:0:0:
252,196,51477,2,0,B|244:188|244:188|220:184|172:188,1,63.7500012159348,10|2,0:0|0:0,0:0:0:0:
116,260,51829,6,0,B|115:271|115:271|127:292|161:326,1,63.7500012159348,2|2,0:0|3:2,0:0:0:0:
260,192,52182,2,0,B|260:180|260:180|248:159|214:125,1,63.7500012159348,10|6,0:0|3:2,0:0:0:0:
264,288,52535,1,0,3:0:0:0:
352,324,52712,1,2,0:0:0:0:
448,320,52888,2,0,P|476:300|504:252,1,63.7500012159348,10|2,0:0|3:2,0:0:0:0:
476,184,53241,1,0,0:0:0:0:
388,148,53418,1,0,0:0:0:0:
292,152,53594,2,0,P|264:172|236:220,1,63.7500012159348,10|2,0:0|3:2,0:0:0:0:
172,280,53947,5,0,3:0:0:0:
172,280,54124,1,0,0:0:0:0:
172,280,54300,2,0,P|148:248|128:208,1,63.7500012159348,10|2,0:0|0:0,0:0:0:0:
136,144,54653,6,0,P|176:152|204:176,2,63.7500012159348,4|0|8,0:0|3:0|0:0,0:0:0:0:
136,144,55182,1,4,0:0:0:0:
132,236,55359,1,0,3:0:0:0:
212,288,55535,1,0,0:0:0:0:
296,244,55712,1,10,0:0:0:0:
304,148,55888,1,2,3:2:0:0:
228,88,56065,2,0,P|200:60|144:40,1,95.6250018239022,2|0,0:0|0:0,0:0:0:0:
192,16,56418,2,0,L|284:28,1,63.7500012159348,10|2,0:0|0:0,0:0:0:0:
344,60,56771,6,0,L|412:68,1,63.7500012159348,6|2,3:2|0:0,0:0:0:0:
496,100,57124,2,0,L|428:108,1,63.7500012159348,10|2,0:0|0:0,0:0:0:0:
344,140,57477,2,0,L|412:148,1,63.7500012159348,6|2,0:0|3:2,0:0:0:0:
496,180,57830,2,0,L|428:188,1,63.7500012159348,10|6,0:0|3:2,0:0:0:0:
352,240,58182,5,0,3:0:0:0:
304,308,58359,1,0,0:0:0:0:
236,356,58535,2,0,P|200:361|144:351,1,63.7500012159348,10|0,0:0|3:0,0:0:0:0:
124,220,58888,1,0,0:0:0:0:
172,152,59065,1,2,0:0:0:0:
240,104,59241,2,0,P|275:98|331:108,1,63.7500012159348,10|2,0:0|3:2,0:0:0:0:
352,224,59594,2,0,P|352:256|332:296,1,63.7500012159348,0|2,3:0|0:0,0:0:0:0:
260,232,59947,2,0,P|260:200|280:160,1,63.7500012159348,10|2,0:0|0:0,0:0:0:0:
380,344,60300,6,0,B|384:368|384:368|336:388|264:344,1,127.50000243187,2|10,0:0|0:0,0:0:0:0:
220,140,61006,2,0,P|249:134|292:144,1,63.7500012159348,4|0,0:0|0:0,0:0:0:0:
364,192,61359,2,0,P|369:221|360:264,1,63.7500012159348,8|2,0:0|3:2,0:0:0:0:
152,108,61712,6,0,B|137:88|137:88|170:48|254:53,1,127.50000243187,2|10,0:0|0:0,0:0:0:0:
436,164,62418,2,0,P|400:165|357:155,1,63.7500012159348,4|0,3:2|0:0,0:0:0:0:
320,291,62771,2,0,P|318:255|328:212,1,63.7500012159348,8|2,0:0|0:0,0:0:0:0:
512,160,63124,6,0,B|533:170|533:170|522:221|445:255,1,127.50000243187,2|10,0:0|0:0,0:0:0:0:
161,184,63829,2,0,P|175:156|196:132,1,63.7500012159348,4|0,3:2|0:0,0:0:0:0:
280,92,64182,1,10,0:0:0:0:
280,92,64359,1,0,3:2:0:0:
188,128,64535,2,0,P|147:121|100:94,1,63.7500012159348,2|2,0:0|0:0,0:0:0:0:
288,92,64888,2,0,P|293:132|281:185,1,63.7500012159348,10|0,0:0|3:0,0:0:0:0:
268,280,65241,6,0,P|220:320|132:304,1,127.50000243187,0|8,3:0|0:0,0:0:0:0:
188,228,65771,1,2,0:0:0:0:
268,180,65947,2,0,L|340:172,1,63.7500012159348,0|2,0:0|3:2,0:0:0:0:
180,132,66300,2,0,L|76:144,1,95.6250018239022,10|0,0:0|0:0,0:0:0:0:
76,140,66653,6,0,P|92:172|120:204,1,63.7500012159348,6|0,3:2|0:0,0:0:0:0:
68,280,67006,2,0,P|84:312|112:344,1,63.7500012159348,8|2,0:0|3:2,0:0:0:0:
160,260,67359,1,0,0:0:0:0:
160,260,67535,1,2,0:0:0:0:
216,180,67712,2,0,P|200:148|172:116,1,63.7500012159348,10|6,0:0|0:0,0:0:0:0:
168,32,68065,6,0,P|208:88|272:128,1,127.50000243187,0|8,3:0|0:0,0:0:0:0:
352,136,68594,1,0,0:0:0:0:
432,88,68771,2,0,L|440:24,1,63.7500012159348,4|2,0:0|3:2,0:0:0:0:
500,180,69124,2,0,L|508:116,1,63.7500012159348,8|0,0:0|3:0,0:0:0:0:
256,192,69477,12,0,72256,0:0:0:0:
148,156,73712,6,0,L|180:32,2,127.50000243187,6|2|2,0:0|0:0|0:0,0:0:0:0:
160,204,74771,1,2,0:0:0:0:
176,248,75124,2,0,L|144:372,2,127.50000243187,6|2|2,0:0|0:0|0:0,0:0:0:0:
220,260,76182,1,2,0:0:0:0:
268,272,76535,6,0,P|299:267|336:252,1,63.7500012159348,6|0,0:0|0:0,0:0:0:0:
320,156,76888,2,0,P|288:160|252:176,1,63.7500012159348,2|0,0:0|0:0,0:0:0:0:
380,92,77241,2,0,P|350:80|311:75,1,63.7500012159348,0|2,0:0|0:0,0:0:0:0:
328,160,77594,1,0,0:0:0:0:
412,172,77771,1,2,0:0:0:0:
464,108,77947,6,0,L|472:36,1,63.7500012159348,6|2,0:0|0:0,0:0:0:0:
408,180,78300,2,0,L|400:243,1,63.7500012159348,2|2,0:0|0:0,0:0:0:0:
384,336,78653,1,2,0:0:0:0:
384,336,78829,1,2,0:0:0:0:
300,332,79006,2,0,P|308:300|332:268,1,63.7500012159348,2|2,0:0|0:0,0:0:0:0:
368,204,79359,6,0,P|376:176|376:136,1,63.7500012159348,4|0,0:0|0:0,0:0:0:0:
300,112,79712,2,0,P|292:140|292:180,2,63.7500012159348,0|2|0,0:0|0:0|0:0,0:0:0:0:
368,204,80241,1,2,0:0:0:0:
240,240,80418,1,2,0:0:0:0:
300,112,80594,1,2,0:0:0:0:
380,96,80771,6,0,P|424:72|456:36,1,95.6250018239022,6|0,0:0|0:0,0:0:0:0:
476,4,81124,1,2,0:0:0:0:
512,116,81300,2,0,L|488:256,1,127.50000243187,2|0,0:0|0:0,0:0:0:0:
428,296,81829,2,0,P|413:271|408:224,1,63.7500012159348,2|2,0:0|0:0,0:0:0:0:
492,344,82182,6,0,P|440:372|368:348,1,127.50000243187,4|2,0:0|0:0,0:0:0:0:
312,304,82712,1,0,0:0:0:0:
280,228,82888,2,0,P|272:188|272:148,1,63.7500012159348,2|0,0:0|0:0,0:0:0:0:
344,124,83241,2,0,P|352:164|352:204,1,63.7500012159348,2|0,0:0|0:0,0:0:0:0:
416,80,83594,5,6,0:0:0:0:
423,75,83947,1,2,0:0:0:0:
431,70,84300,1,2,0:0:0:0:
438,65,84653,1,2,0:0:0:0:
352,228,85006,5,6,0:0:0:0:
440,300,85359,1,2,0:0:0:0:
452,188,85712,1,2,0:0:0:0:
180,92,86065,5,2,0:0:0:0:
66,85,86418,1,6,0:0:0:0:
122,183,86771,1,2,0:0:0:0:
232,252,87124,2,0,L|288:112,1,127.50000243187,2|2,0:0|0:0,0:0:0:0:
140,284,87829,6,0,P|160:320|184:340,1,63.7500012159348,4|0,0:0|0:0,0:0:0:0:
244,372,88182,2,0,P|283:383|314:380,1,63.7500012159348,0|2,0:0|0:0,0:0:0:0:
376,356,88535,1,0,0:0:0:0:
440,316,88712,2,0,P|376:280|312:316,1,127.50000243187,2|2,0:0|0:0,0:0:0:0:
256,276,89241,6,0,P|272:248|300:224,1,63.7500012159348,6|2,0:0|0:0,0:0:0:0:
240,352,89594,2,0,P|212:336|188:308,1,63.7500012159348,2|2,0:0|0:0,0:0:0:0:
116,276,89947,2,0,P|144:292|168:320,1,63.7500012159348,2|2,0:0|0:0,0:0:0:0:
192,228,90300,2,0,P|200:200|212:160,1,63.7500012159348,2|2,0:0|0:0,0:0:0:0:
260,108,90653,1,4,0:0:0:0:
336,108,90829,1,0,0:0:0:0:
368,176,91006,1,0,0:0:0:0:
328,240,91182,1,2,0:0:0:0:
296,172,91359,6,0,B|300:100|312:36,1,127.50000243187,2|0,0:0|0:0,0:0:0:0:
244,304,92065,2,0,P|220:348|144:364,1,127.50000243187,6|0,0:0|0:0,0:0:0:0:
164,284,92594,1,0,0:0:0:0:
216,228,92771,2,0,P|272:228|328:288,1,127.50000243187,2|2,0:0|0:0,0:0:0:0:
316,352,93300,1,0,0:0:0:0:
244,304,93477,6,0,L|312:268,1,63.7500012159348,6|2,0:0|0:0,0:0:0:0:
248,220,93829,2,0,L|316:184,1,63.7500012159348,2|0,0:0|0:0,0:0:0:0:
224,144,94182,2,0,L|167:173,1,63.7500012159348,2|0,0:0|0:0,0:0:0:0:
312,184,94535,2,0,P|308:136|292:112,1,63.7500012159348,2|0,0:0|0:0,0:0:0:0:
244,64,94888,5,6,0:0:0:0:
240,60,95241,1,2,0:0:0:0:
236,56,95594,1,2,0:0:0:0:
232,52,95947,1,2,0:0:0:0:
152,192,96300,6,0,L|220:224,1,56.2500021457673,0|0,0:0|0:0,0:0:0:0:
268,248,96653,1,0,1:0:0:0:
208,288,96829,2,0,P|187:305|167:342,1,56.2500021457673,0|0,1:0|1:0,0:0:0:0:
336,340,97359,2,0,P|356:322|376:285,1,56.2500021457673,0|0,1:0|0:0,0:0:0:0:
404,232,97712,6,0,L|408:156,1,56.2500021457673,0|0,1:0|0:0,0:0:0:0:
332,176,98065,2,0,L|336:100,1,56.2500021457673,0|0,1:0|1:0,0:0:0:0:
260,116,98418,1,0,1:0:0:0:
256,112,98594,1,0,0:0:0:0:
252,108,98771,1,0,1:0:0:0:
248,104,98947,1,0,0:0:0:0:
192,152,99124,6,0,P|188:180|196:224,1,56.2500021457673,0|0,1:0|0:0,0:0:0:0:
256,240,99477,2,0,P|260:212|252:168,1,56.2500021457673,0|0,1:0|0:0,0:0:0:0:
324,268,99829,2,0,P|331:213|324:156,1,112.500004291535,0|0,1:0|1:0,0:0:0:0:
432,260,100535,6,0,L|492:304,1,56.2500021457673,0|0,1:0|0:0,0:0:0:0:
400,328,100888,2,0,L|354:294,1,56.2500021457673,0|0,1:0|1:0,0:0:0:0:
296,245,101241,1,0,1:0:0:0:
336,184,101418,2,0,P|368:232|356:285,1,112.500004291535,0|0,0:0|0:0,0:0:0:0:
296,245,101947,5,0,1:0:0:0:
262,181,102124,2,0,P|270:149|303:119,1,56.2500021457673,0|8,1:0|0:0,0:0:0:0:
188,176,102477,2,0,P|180:208|147:238,1,56.2500021457673,0|0,1:0|1:0,0:0:0:0:
224,272,102829,1,0,0:0:0:0:
288,308,103006,1,8,0:0:0:0:
352,344,103182,1,0,0:0:0:0:
420,376,103359,6,0,P|436:348|448:320,1,56.2500021457673,0|0,1:0|0:0,0:0:0:0:
448,252,103712,2,0,P|432:280|420:308,1,56.2500021457673,8|0,0:0|1:0,0:0:0:0:
428,228,104065,2,0,P|444:200|456:172,1,56.2500021457673,0|0,1:0|0:0,0:0:0:0:
456,104,104418,2,0,P|440:132|428:160,1,56.2500021457673,8|0,0:0|0:0,0:0:0:0:
356,176,104771,6,0,L|316:244,1,60,4|0,1:2|0:0,0:0:0:0:
276,176,105124,2,0,L|236:244,1,60,8|0,0:0|1:0,0:0:0:0:
380,176,105477,6,0,L|336:252,1,63.7500012159348,4|0,1:2|0:0,0:0:0:0:
252,176,105829,2,0,L|208:252,1,63.7500012159348,8|0,0:0|0:0,0:0:0:0:
160,292,106182,6,0,L|204:220,1,67.4999979400635,4|0,1:2|0:0,0:0:0:0:
303,234,106535,2,0,L|268:292,1,67.4999979400635,8|0,0:0|1:0,0:0:0:0:
132,292,106888,6,0,L|184:204,1,71.2499980974198,4|0,1:2|0:0,0:0:0:0:
332,236,107241,2,0,L|295:297,1,71.2499980974198,8|0,0:0|0:0,0:0:0:0:
232,348,107594,6,0,B|224:320|224:320|212:264|264:220,1,127.50000243187,4|8,1:2|0:0,0:0:0:0:
312,168,108124,2,0,L|340:144,4,31.8750006079674,0|2|0|2|0,0:0|0:0|0:0|0:0|1:0,0:0:0:0:
232,148,108653,2,0,L|180:192,1,63.7500012159348,8|2,0:0|0:0,0:0:0:0:
132,260,109006,6,0,P|196:276|264:220,1,134.999995880127,0|8,1:0|0:0,0:0:0:0:
228,140,109535,2,0,L|212:84,4,33.7499989700318,0|0|0|2|0,0:0|1:0|0:0|0:0|1:0,0:0:0:0:
256,224,110065,1,8,0:0:0:0:
320,284,110241,1,2,0:0:0:0:
400,328,110418,6,0,P|464:300|480:208,1,142.49999619484,4|8,1:2|0:0,0:0:0:0:
392,204,110947,2,0,L|404:256,4,35.6249990487099,0|2|0|2|0,0:0|0:0|0:0|0:0|1:0,0:0:0:0:
388,112,111477,2,0,L|372:32,1,71.2499980974198,8|2,0:0|0:0,0:0:0:0:
276,28,111829,6,0,P|291:102|308:180,1,150,0|8,1:0|0:0,0:0:0:0:
336,268,112359,1,0,0:0:0:0:
336,268,112447,1,0,1:0:0:0:
336,268,112535,1,0,0:0:0:0:
336,268,112624,1,2,0:0:0:0:
336,268,112712,1,0,1:0:0:0:
428,304,112888,2,0,P|400:348|328:368,1,112.5,8|0,0:0|0:0,0:0:0:0:
316,368,113241,5,4,1:2:0:0:
152,288,113594,1,0,1:0:0:0:
72,368,113947,1,0,1:2:0:0:
236,288,114300,1,0,1:0:0:0:
344,184,114653,6,0,P|324:152|288:120,1,75,4|0,1:2|1:0,0:0:0:0:
168,200,115006,2,0,P|188:232|224:264,1,75,0|0,1:0|1:0,0:0:0:0:
352,264,115359,2,0,P|388:252|420:212,1,75,0|0,1:0|1:0,0:0:0:0:
160,120,115712,2,0,P|124:132|92:172,1,75,0|0,1:0|1:0,0:0:0:0:
168,200,116065,6,0,L|196:232,7,37.5,4|0|2|0|4|0|2|0,1:2|1:0|1:2|1:0|1:2|1:0|1:2|1:0,0:0:0:0:
140,248,116771,2,0,L|140:296,7,37.5,4|0|2|0|4|0|2|0,1:2|1:0|1:2|1:0|1:2|1:0|1:2|1:0,0:0:0:0:
92,267,117477,5,4,1:2:0:0:
76,111,117653,1,0,1:0:0:0:
180,228,117829,1,0,1:0:0:0:
27,195,118006,1,4,1:2:0:0:
170,132,118182,1,4,1:2:0:0:
92,267,118359,6,2,P|120:316|164:288,2,112.500004291535,0|2|2,1:0|0:0|0:0,0:0:0:0:
170,132,118888,6,0,B|208:116|208:116|260:124|296:184,1,150,4|10,1:0|0:1,0:0:0:0:
364,268,119418,1,0,0:0:0:0:
376,284,119506,1,2,0:0:0:0:
392,292,119594,2,0,P|413:299|436:300,2,37.5,0|2|2,0:0|0:0|1:0,0:0:0:0:
484,220,119947,2,0,P|500:180|504:136,1,75,10|0,0:1|0:0,0:0:0:0:
444,24,120300,6,0,P|428:64|424:108,1,75,0|0,1:0|0:0,0:0:0:0:
484,220,120653,1,10,0:1:0:0:
348,212,120829,2,0,L|304:236,4,37.5,2|0|2|2|0,0:1|1:0|0:1|0:0|1:1,0:0:0:0:
228,196,121359,2,0,P|224:236|236:288,1,75,10|0,0:1|0:0,0:0:0:0:
296,152,121712,6,0,P|240:116|160:152,1,150,4|10,1:0|0:1,0:0:0:0:
229,270,122241,2,0,L|228:216,3,37.5,0|2|0|2,0:0|0:0|0:0|0:0,0:0:0:0:
229,270,122594,2,0,P|260:288|304:304,1,75,2|10,1:0|0:1,0:0:0:0:
192,348,122947,1,0,0:0:0:0:
300,212,123124,6,0,L|344:152,1,75,0|0,1:0|0:0,0:0:0:0:
296,48,123477,2,0,L|252:108,1,75,10|2,0:1|0:1,0:0:0:0:
236,120,123741,1,0,1:0:0:0:
220,128,123829,2,0,L|160:136,2,37.5,0|0|0,0:0|0:0|1:0,0:0:0:0:
104,232,124182,2,0,L|208:220,1,75,10|0,0:1|0:0,0:0:0:0:
292,212,124535,5,4,1:0:0:0:
404,196,124712,1,0,0:0:0:0:
424,308,124888,1,10,0:1:0:0:
324,368,125065,2,0,P|308:320|312:276,1,75,0|0,0:0|0:0,0:0:0:0:
424,308,125418,1,2,1:0:0:0:
496,220,125594,2,0,P|496:182|482:148,1,75,10|0,0:1|0:0,0:0:0:0:
392,84,125947,5,2,1:0:0:0:
280,104,126124,2,0,L|300:184,1,75,0|10,0:0|0:1,0:0:0:0:
252,280,126477,2,0,L|192:252,4,37.5,0|0|0|2|2,0:0|1:0|0:0|0:0|1:0,0:0:0:0:
352,228,127006,2,0,P|372:180|360:132,1,75,10|0,0:1|0:0,0:0:0:0:
300,68,127359,6,0,L|212:44,1,75,6|0,1:0|0:0,0:0:0:0:
224,160,127712,1,10,0:1:0:0:
316,44,127888,6,0,L|228:20,1,75,2|0,0:1|0:1,0:0:0:0:
240,136,128241,1,10,1:1:0:0:
256,260,128418,2,0,P|296:252|336:204,1,75,10|0,0:1|0:0,0:0:0:0:
424,180,128771,6,0,P|404:232|396:316,2,112.5,6|2|2,0:0|0:0|0:0,0:0:0:0:
440,168,129388,1,2,0:0:0:0:
456,156,129477,2,0,P|476:104|484:20,2,112.5,2|2|6,0:0|0:0|0:0,0:0:0:0:
396,72,130182,6,0,P|392:36|412:-12,1,75,4|0,1:0|0:0,0:0:0:0:
344,68,130535,2,0,P|348:104|328:152,1,75,8|0,0:0|1:0,0:0:0:0:
256,184,130888,1,0,0:0:0:0:
164,188,131065,1,2,1:2:0:0:
120,112,131241,2,0,P|152:100|200:108,1,75,10|0,0:0|0:0,0:0:0:0:
160,196,131594,6,0,L|140:292,1,75,0|0,1:0|0:0,0:0:0:0:
148,360,131947,2,0,P|188:348|224:312,1,75,8|2,0:0|1:2,0:0:0:0:
256,248,132300,1,2,0:0:0:0:
284,164,132477,1,0,1:0:0:0:
340,236,132653,2,0,P|336:276|312:312,1,75,10|2,0:0|0:0,0:0:0:0:
276,160,133006,6,0,P|308:140|352:136,1,75,6|0,1:2|0:0,0:0:0:0:
436,128,133359,2,0,P|404:148|360:152,1,75,10|2,0:0|1:2,0:0:0:0:
300,96,133712,1,2,0:0:0:0:
240,28,133888,1,0,1:0:0:0:
240,28,134065,2,0,P|232:76|208:120,1,75,8|0,0:0|0:0,0:0:0:0:
84,116,134418,6,0,P|132:124|176:148,1,75,2|2,1:2|0:0,0:0:0:0:
224,192,134771,2,0,L|320:196,1,75,8|0,0:0|1:0,0:0:0:0:
164,244,135124,2,0,L|89:240,1,75,0|0,1:0|1:0,0:0:0:0:
232,268,135477,1,10,0:0:0:0:
232,268,135653,1,2,0:0:0:0:
224,184,135829,6,0,P|188:160|132:168,1,75,6|2,1:2|0:0,0:0:0:0:
232,280,136182,2,0,P|268:304|324:296,1,75,10|0,0:0|1:0,0:0:0:0:
288,232,136535,2,0,P|312:196|304:140,1,75,2|2,0:0|1:2,0:0:0:0:
168,232,136888,2,0,P|144:268|152:324,1,75,10|0,0:0|0:0,0:0:0:0:
228,324,137241,6,0,L|316:304,1,75,6|0,1:2|0:0,0:0:0:0:
280,220,137594,2,0,L|368:200,1,75,10|0,0:2|1:0,0:0:0:0:
312,124,137947,1,2,0:0:0:0:
244,64,138124,1,2,1:2:0:0:
156,80,138300,1,10,0:0:0:0:
112,156,138477,1,2,0:0:0:0:
124,244,138653,6,0,P|160:248|208:240,1,75,2|0,1:2|0:0,0:0:0:0:
44,208,139006,2,0,P|40:244|48:292,1,75,10|0,0:0|0:0,0:0:0:0:
120,156,139359,2,0,P|124:120|116:72,1,75,2|0,1:2|0:0,0:0:0:0:
56,212,139712,2,0,L|80:300,1,75,10|0,0:0|0:0,0:0:0:0:
236,328,140065,6,0,L|308:324,1,56.2500021457673,4|0,1:2|0:0,0:0:0:0:
380,288,140418,6,0,L|276:292,1,75,12|0,0:0|0:0,0:0:0:0:
200,256,140771,6,0,L|308:252,1,93.75,4|0,1:2|0:0,0:0:0:0:
416,212,141124,6,0,L|260:216,1,112.500004291535,12|0,0:0|0:0,0:0:0:0:
204,144,141477,5,4,1:2:0:0:
204,144,141653,2,0,P|244:152|296:132,1,75,0|8,0:0|0:0,0:0:0:0:
240,68,142006,1,0,0:0:0:0:
152,80,142182,2,0,P|124:136|180:224,1,150,0|10,0:0|0:0,0:0:0:0:
204,144,142712,1,2,0:0:0:0:
152,68,142888,6,0,P|112:60|64:60,1,75,0|0,1:0|0:0,0:0:0:0:
204,156,143241,2,0,P|244:164|292:164,1,75,8|0,0:0|0:0,0:0:0:0:
368,160,143594,1,0,0:0:0:0:
452,124,143771,1,0,1:0:0:0:
360,164,143947,2,0,P|364:208|376:240,1,75,10|2,0:0|0:0,0:0:0:0:
448,288,144300,6,0,P|384:264|268:256,1,150,4|8,1:2|0:0,0:0:0:0:
212,264,144829,2,0,L|168:276,4,37.5,0|2|0|2|0,0:0|0:0|0:0|0:0|1:0,0:0:0:0:
248,180,145359,2,0,L|332:156,1,75,8|2,0:0|0:0,0:0:0:0:
348,76,145712,2,0,L|184:124,1,150,0|8,1:0|0:0,0:0:0:0:
120,152,146241,5,0,0:0:0:0:
120,152,146329,1,0,1:0:0:0:
120,152,146418,2,0,P|88:180|76:224,2,75,6|0|10,0:0|1:0|0:0,0:0:0:0:
212,152,146947,1,4,0:0:0:0:
164,232,147124,5,0,1:0:0:0:
164,232,147300,2,0,P|148:272|112:304,1,75,0|8,0:0|0:0,0:0:0:0:
148,384,147653,1,0,0:0:0:0:
216,324,147829,2,0,B|248:288|252:228|252:228|328:224,1,150,0|10,0:0|0:0,0:0:0:0:
320,312,148359,1,2,0:0:0:0:
388,252,148535,6,0,P|392:209|376:164,1,75,0|0,1:0|0:0,0:0:0:0:
300,144,148888,2,0,P|295:186|312:232,1,75,8|0,0:0|0:0,0:0:0:0:
380,168,149241,1,0,0:0:0:0:
296,132,149418,1,0,1:0:0:0:
216,92,149594,2,0,L|136:56,1,75,10|2,0:0|0:0,0:0:0:0:
188,168,149947,6,0,L|256:198,1,75,4|0,1:2|0:0,0:0:0:0:
116,132,150300,2,0,P|108:180|172:252,1,150,8|0,0:0|0:0,0:0:0:0:
188,168,150829,1,0,1:0:0:0:
180,76,151006,2,0,P|152:52|104:48,1,75,10|2,0:0|0:0,0:0:0:0:
32,120,151359,6,0,P|24:192|44:276,1,150,0|8,1:0|0:0,0:0:0:0:
104,332,151888,1,0,0:0:0:0:
132,248,152065,2,0,L|228:232,1,75,0|0,0:0|1:0,0:0:0:0:
261,311,152418,2,0,L|188:324,1,75,10|2,0:0|0:0,0:0:0:0:
120,248,152771,6,0,P|88:300|108:384,1,150,4|8,1:2|0:0,0:0:0:0:
188,324,153300,1,0,0:0:0:0:
220,228,153477,2,0,L|204:136,1,75,0|0,0:0|1:0,0:0:0:0:
280,308,153829,2,0,L|292:381,1,75,10|2,0:0|0:0,0:0:0:0:
372,304,154182,6,0,P|364:260|320:220,1,75,0|0,1:0|0:0,0:0:0:0:
260,212,154535,2,0,P|223:216|192:237,1,75,8|0,0:0|0:0,0:0:0:0:
104,216,154888,2,0,P|140:211|171:190,1,75,0|0,0:0|1:0,0:0:0:0:
224,120,155241,1,2,0:0:0:0:
260,204,155418,6,0,P|312:144|296:64,1,150,6|0,0:0|0:0,0:0:0:0:
352,156,155947,1,8,0:0:0:0:
392,236,156124,1,0,0:0:0:0:
400,252,156212,1,2,0:0:0:0:
408,268,156300,2,0,L|436:320,2,37.5,0|2|0,0:0|0:0|1:0,0:0:0:0:
348,148,156653,2,0,P|312:176|296:224,1,75,10|2,0:0|0:0,0:0:0:0:
440,160,157006,6,0,P|412:84|324:64,1,150,0|8,1:0|0:0,0:0:0:0:
352,156,157535,1,0,0:0:0:0:
352,248,157712,2,0,L|352:328,2,75,2|0|2,0:0|1:0|0:0,0:0:0:0:
352,156,158241,1,4,0:0:0:0:
168,192,164065,6,0,P|200:196|240:216,1,56.2500021457673,4|0,1:2|0:0,0:0:0:0:
200,276,164418,1,0,1:0:0:0:
346,282,164771,2,0,P|371:232|356:180,1,112.500004291535,0|2,1:0|1:2,0:0:0:0:
356,180,165477,6,0,L|416:196,1,56.2500021457673,0|0,1:0|0:0,0:0:0:0:
288,212,165829,2,0,P|284:240|292:272,1,56.2500021457673,0|0,1:0|0:0,0:0:0:0:
356,172,166182,2,0,P|312:140|244:144,1,112.500004291535,0|2,1:0|1:2,0:0:0:0:
184,268,166888,6,0,L|208:328,1,56.2500021457673,4|0,1:2|0:0,0:0:0:0:
256,376,167241,2,0,L|235:323,1,56.2500021457673,0|0,1:0|0:0,0:0:0:0:
208,256,167594,1,0,1:0:0:0:
180,188,167771,1,0,1:0:0:0:
152,120,167947,2,0,P|144:88|131:67,1,56.2500021457673,2|2,1:2|0:2,0:0:0:0:
76,120,168300,5,2,1:2:0:0:
76,120,168477,1,0,0:0:0:0:
8,92,168653,1,2,1:2:0:0:
8,92,168830,1,0,0:0:0:0:
64,48,169006,1,2,1:2:0:0:
64,48,169183,1,0,1:0:0:0:
136,56,169359,2,0,P|184:36|208:8,1,84.3750032186509,2|0,1:2|0:0,0:0:0:0:
232,40,169712,6,0,B|248:96|216:96|232:172,1,112.500004291535,4|0,1:2|1:0,0:0:0:0:
304,124,170241,1,0,0:0:0:0:
304,124,170418,2,0,P|334:127|372:120,1,56.2500021457673,0|2,1:0|1:2,0:0:0:0:
432,124,170771,2,0,P|428:154|436:192,1,56.2500021457673,2|0,1:2|0:0,0:0:0:0:
512,140,171124,2,0,P|492:72|456:48,1,112.500004291535,0|0,1:0|1:0,0:0:0:0:
364,124,171829,2,0,P|396:137|432:136,1,56.2500021457673,0|2,1:0|1:2,0:0:0:0:
308,68,172182,2,0,P|290:98|287:134,1,56.2500021457673,2|0,1:2|0:0,0:0:0:0:
248,264,172535,2,0,P|242:235|232:192,1,56.2500021457673,4|0,1:2|0:0,0:0:0:0:
180,148,172888,2,0,P|185:176|196:220,1,56.2500021457673,8|2,0:0|0:0,0:0:0:0:
288,236,173241,6,0,P|280:200|268:164,1,63.7500012159348,4|0,1:2|1:0,0:0:0:0:
140,176,173594,2,0,P|147:211|160:248,1,63.7500012159348,8|2,0:0|0:0,0:0:0:0:
284,312,173947,6,0,P|317:305|358:261,1,71.2499980974198,4|0,1:2|0:0,2:0:0:0:
144,100,174300,2,0,P|110:106|69:150,1,71.2499980974198,8|2,0:0|0:0,0:0:0:0:
200,316,174653,6,0,P|224:264|240:196,1,86.2500016450882,4|0,1:2|1:0,0:0:0:0:
260,80,175006,2,0,P|236:132|220:200,1,86.2500016450882,8|2,0:0|0:0,0:0:0:0:
227,159,175359,6,0,P|192:144|80:120,1,150,6|8,1:2|0:0,0:0:0:0:
68,200,175888,1,0,0:0:0:0:
108,272,176065,2,0,P|128:256|144:224,2,37.5,0|0|0,0:2|0:0|1:0,0:0:0:0:
120,356,176418,2,0,P|156:348|208:344,1,75,8|2,0:0|0:0,0:0:0:0:
296,344,176771,6,0,P|292:296|304:176,1,150,2|8,1:2|0:0,0:0:0:0:
372,240,177300,1,0,0:0:0:0:
292,188,177477,2,0,L|236:148,2,37.5,0|2|0,0:2|0:0|1:0,0:0:0:0:
380,248,177829,2,0,P|412:269|452:288,1,75,8|2,0:0|0:0,0:0:0:0:
448,176,178182,6,0,L|424:96,1,75,6|0,1:2|0:0,0:0:0:0:
304,240,178535,2,0,L|328:160,1,75,8|0,0:0|0:0,0:0:0:0:
416,320,178888,2,0,L|396:260,2,37.5,0|2|0,0:2|0:0|1:0,0:0:0:0:
332,372,179241,1,8,0:0:0:0:
236,352,179418,1,2,0:0:0:0:
112,272,179594,6,0,P|152:284|184:300,1,75,2|0,1:2|0:0,0:0:0:0:
168,192,179947,2,0,P|128:180|96:164,1,75,8|0,0:0|0:0,0:0:0:0:
264,232,180300,1,0,1:2:0:0:
408,232,180477,1,4,1:2:0:0:
336,109,180653,1,12,0:0:0:0:
265,232,180829,1,4,0:0:0:0:
336,192,181006,5,6,1:2:0:0:
404,148,181182,2,0,P|420:116|428:76,2,75,0|8|0,0:0|0:0|0:0,0:0:0:0:
408,232,181712,2,0,P|420:248|432:276,2,37.5,0|2|0,0:2|0:0|1:0,0:0:0:0:
356,312,182065,2,0,P|389:341|420:352,1,75,8|2,0:0|0:0,0:0:0:0:
292,360,182418,5,2,1:2:0:0:
192,344,182594,2,0,P|156:344|104:352,2,75,0|8|0,0:0|0:0|0:0,0:0:0:0:
260,268,183124,2,0,P|271:251|293:230,2,37.5,0|2|0,0:2|0:0|1:0,0:0:0:0:
356,289,183477,2,0,P|372:248|372:215,1,75,8|2,0:0|0:0,0:0:0:0:
332,108,183829,6,0,P|304:104|228:104,1,75,6|0,1:2|0:0,0:0:0:0:
180,164,184182,1,8,0:0:0:0:
92,120,184359,2,0,P|96:92|96:16,1,75,0|0,0:0|0:2,0:0:0:0:
4,72,184712,1,0,1:0:0:0:
8,168,184888,2,0,P|4:196|4:272,1,75,8|2,0:0|0:0,0:0:0:0:
128,296,185241,6,0,P|140:284|180:224,1,75,4|0,1:2|0:0,0:0:0:0:
216,148,185594,2,0,P|228:160|288:200,1,75,12|0,0:0|1:0,0:0:0:0:
300,100,185947,1,6,1:2:0:0:
212,52,186124,1,0,1:0:0:0:
128,104,186300,1,12,0:0:0:0:
136,200,186477,1,4,0:0:0:0:
220,248,186653,6,0,P|180:244|60:248,1,150,6|10,1:2|0:0,0:0:0:0:
20,332,187182,1,2,0:0:0:0:
72,240,187359,2,0,P|84:216|97:157,1,75,2|0,0:0|1:0,0:0:0:0:
104,28,187712,2,0,P|116:56|156:120,1,75,10|0,0:0|0:0,0:0:0:0:
137,94,188065,6,0,P|208:72|272:120,1,150,2|10,1:2|0:0,0:0:0:0:
192,172,188594,1,2,0:0:0:0:
284,212,188771,2,0,P|323:188|352:160,1,75,2|0,0:2|1:0,0:0:0:0:
184,176,189124,2,0,P|144:199|116:228,1,75,10|0,0:0|0:0,0:0:0:0:
104,316,189477,6,0,P|184:300|220:240,1,150,6|8,1:2|0:0,0:0:0:0:
218,245,190006,1,2,0:0:0:0:
252,336,190182,2,0,P|252:360|260:384,2,37.5,0|0|2,0:0|0:0|1:2,0:0:0:0:
332,340,190535,2,0,P|333:303|329:266,1,75,8|2,0:0|0:0,0:0:0:0:
376,200,190888,6,0,L|444:264,1,75,2|2,1:2|0:0,0:0:0:0:
296,188,191241,2,0,L|241:136,1,75,10|2,0:0|0:0,0:0:0:0:
172,68,191594,1,2,0:2:0:0:
148,164,191771,1,2,1:2:0:0:
172,68,191947,2,0,P|192:64|256:40,1,75,10|2,0:2|0:0,0:0:0:0:
96,24,192300,6,0,P|84:76|164:156,1,150,4|8,1:2|0:0,0:0:0:0:
236,164,192829,1,2,0:0:0:0:
236,164,192918,1,0,0:0:0:0:
236,164,193006,1,0,0:0:0:0:
236,164,193094,1,0,0:0:0:0:
236,164,193182,2,0,P|236:144|220:88,2,75,2|10|2,1:2|0:0|0:0,0:0:0:0:
188,252,193712,6,0,P|188:272|204:328,1,75,2|0,1:2|0:0,0:0:0:0:
284,268,194065,1,10,0:0:0:0:
248,176,194241,2,0,P|230:166|173:154,2,75,2|0|0,0:0|0:0|1:0,0:0:0:0:
284,268,194771,1,10,0:0:0:0:
188,252,194947,1,2,0:0:0:0:
248,176,195124,6,0,P|316:172|376:232,1,150,6|10,1:2|0:0,0:0:0:0:
384,320,195653,1,2,0:0:0:0:
460,260,195829,2,0,P|464:236|464:216,2,37.5,0|0|0,0:0|0:0|1:0,0:0:0:0:
460,260,196182,2,0,P|457:284|456:344,1,75,8|2,0:0|0:0,0:0:0:0:
360,364,196535,6,0,P|335:361|276:360,1,75,0|0,1:0|0:0,0:0:0:0:
232,280,196888,2,0,P|256:282|316:284,2,75,10|2|0,0:0|0:0|0:0,0:0:0:0:
276,192,197418,1,2,1:2:0:0:
280,188,197594,1,12,0:0:0:0:
284,184,197771,1,2,0:0:0:0:
288,180,197947,6,0,P|248:116|168:84,2,150,6|10|2,1:2|0:0|0:0,0:0:0:0:
236,264,198829,1,0,1:0:0:0:
180,184,199006,2,0,P|156:184|96:168,1,75,10|2,0:0|0:0,0:0:0:0:
106,172,199359,6,0,P|108:215|104:328,1,150,2|10,1:2|0:0,0:0:0:0:
24,376,199888,1,2,0:0:0:0:
20,280,200065,2,0,P|20:256|24:232,2,37.5,2|0|0,0:2|0:0|1:0,0:0:0:0:
112,328,200418,2,0,P|140:328|200:320,1,75,10|2,0:2|0:0,0:0:0:0:
280,296,200771,5,4,1:2:0:0:
196,84,201124,1,8,0:0:0:0:
236,172,201300,1,2,0:0:0:0:
240,184,201388,1,0,0:0:0:0:
244,196,201477,2,0,P|268:204|300:204,2,37.5,0|0|2,0:0|0:0|1:2,0:0:0:0:
280,108,201829,1,8,0:0:0:0:
360,164,202006,1,2,0:0:0:0:
408,248,202182,6,0,P|412:268|408:340,1,75,2|2,1:2|0:0,0:0:0:0:
332,376,202535,2,0,P|328:356|332:284,1,75,10|2,0:0|0:0,0:0:0:0:
412,244,202888,1,2,0:2:0:0:
496,196,203065,1,2,1:2:0:0:
476,100,203241,2,0,P|464:108|428:160,1,75,10|2,0:0|0:0,0:0:0:0:
412,244,203594,6,0,P|412:212|392:80,1,150,6|8,1:2|0:0,0:0:0:0:
300,76,204124,1,2,0:0:0:0:
204,72,204300,1,4,0:0:0:0:
200,168,204477,2,0,P|226:170|284:168,1,75,0|8,1:0|0:0,0:0:0:0:
274,169,204829,1,2,0:0:0:0:
274,169,205006,6,0,P|300:200|260:304,1,150,4|10,1:2|0:0,0:0:0:0:
228,232,205535,1,2,0:0:0:0:
276,304,205712,2,0,L|299:342,2,37.5,4|0|0,0:2|0:0|1:0,0:0:0:0:
224,224,206065,2,0,L|176:144,1,75,10|2,0:0|0:0,0:0:0:0:
128,80,206418,6,0,P|104:108|88:164,1,75,4|0,1:2|0:0,0:0:0:0:
128,232,206771,1,8,0:0:0:0:
36,208,206947,2,0,P|24:172|-14:129,1,75,2|0,0:0|0:0,0:0:0:0:
64,300,207300,2,0,P|75:335|114:378,1,75,0|8,1:0|0:0,0:0:0:0:
196,348,207653,1,2,0:0:0:0:
292,372,207829,6,0,P|320:376|452:368,1,150,0|0,1:0|0:0,0:0:0:0:
472,276,208359,1,2,0:0:0:0:
476,264,208447,1,0,1:0:0:0:
480,252,208535,2,0,P|484:232|488:208,2,37.5,0|0|0,0:0|0:0|1:2,0:0:0:0:
496,136,208888,1,4,0:0:0:0:
272,248,227594,5,4,1:2:0:0:
312,176,227947,1,0,1:0:0:0:
240,136,228300,1,0,1:0:0:0:
200,208,228653,1,0,1:0:0:0:
272,248,229006,5,4,1:2:0:0:
312,176,229182,1,0,1:0:0:0:
240,136,229359,1,0,1:0:0:0:
200,208,229535,1,0,1:0:0:0:
200,288,229712,2,0,P|210:324|228:360,1,75,4|0,1:2|1:0,0:0:0:0:
200,196,230065,2,0,P|189:159|172:124,1,75,0|0,1:0|1:0,0:0:0:0:
100,60,230418,6,0,P|88:80|80:120,7,37.5,4|0|2|0|4|0|2|0,1:2|1:0|1:2|1:0|1:2|1:0|1:2|1:0,0:0:0:0:
152,104,231124,2,0,L|216:96,7,37.5,4|0|2|0|4|0|2|0,1:2|1:0|1:2|1:0|1:2|1:0|1:2|1:0,0:0:0:0:
152,104,231829,6,0,B|156:128|156:128|152:208,1,75,4|0,1:0|0:0,0:0:0:0:
228,244,232182,2,0,L|230:148,1,75,8|0,0:0|0:0,0:0:0:0:
229,150,232447,1,0,0:0:0:0:
229,131,232535,2,0,L|230:84,2,37.5,2|0|2,0:0|0:0|1:2,0:0:0:0:
276,28,232888,2,0,P|300:52|308:112,1,75,8|0,0:0|0:0,0:0:0:0:
324,204,233241,5,0,1:0:0:0:
324,204,233418,2,0,P|344:200|412:204,1,75,0|8,0:0|0:0,0:0:0:0:
496,216,233771,1,0,0:0:0:0:
496,216,233859,1,0,1:0:0:0:
496,216,233947,2,0,L|484:172,2,37.5,2|0|2,0:2|0:0|1:2,0:0:0:0:
436,292,234300,2,0,P|440:312|440:368,1,75,8|0,0:0|0:0,0:0:0:0:
292,336,234653,6,0,P|317:332|376:336,1,75,4|0,1:2|0:0,0:0:0:0:
224,284,235006,2,0,P|198:280|140:284,1,75,12|0,0:0|0:0,0:0:0:0:
304,252,235359,2,0,P|307:226|304:168,1,75,4|0,0:0|1:0,0:0:0:0:
208,164,235712,1,8,0:0:0:0:
112,164,235888,1,0,0:0:0:0:
16,164,236065,6,0,P|12:184|16:264,1,75,2|0,1:2|0:0,0:0:0:0:
104,384,236418,2,0,P|108:364|104:284,1,75,10|0,0:0|0:0,0:0:0:0:
20,336,236771,2,0,L|4:372,2,37.5,2|0|0,0:2|0:0|0:0,0:0:0:0:
56,240,237124,2,0,P|60:220|56:140,1,75,10|0,0:0|0:0,0:0:0:0:
48,44,237477,5,4,1:2:0:0:
48,44,237653,2,0,P|68:48|148:44,1,75,0|8,0:0|0:0,0:0:0:0:
216,20,238006,1,0,0:0:0:0:
260,176,238182,1,2,0:0:0:0:
260,176,238535,2,0,P|282:206|309:231,1,75,0|2,0:0|0:0,0:0:0:0:
440,320,238888,5,0,1:0:0:0:
440,320,239065,2,0,P|424:320|336:324,1,75,0|8,0:0|0:0,0:0:0:0:
280,372,239418,1,0,0:0:0:0:
160,264,239594,1,2,0:2:0:0:
160,264,239947,2,0,P|161:235|156:156,1,75,8|2,0:0|0:0,0:0:0:0:
264,96,240300,6,0,P|235:95|156:100,1,75,4|0,1:2|0:0,0:0:0:0:
159,189,240653,1,8,0:0:0:0:
240,240,240829,1,0,0:0:0:0:
256,248,240918,1,0,0:0:0:0:
272,256,241006,2,0,P|288:236|316:176,1,75,2|0,0:0|1:0,0:0:0:0:
392,140,241359,2,0,P|376:160|348:220,1,75,10|0,0:0|0:0,0:0:0:0:
356,300,241712,5,2,1:2:0:0:
424,372,241888,1,0,0:0:0:0:
356,300,242065,2,0,P|330:296|256:300,1,75,10|0,0:2|0:0,0:0:0:0:
264,304,242329,1,0,1:0:0:0:
248,316,242418,2,0,P|223:286|200:228,1,75,2|0,0:2|1:0,0:0:0:0:
184,160,242771,1,14,0:0:0:0:
184,160,243124,6,0,P|160:188|128:220,1,75,4|0,1:2|0:0,0:0:0:0:
132,312,243477,1,8,0:0:0:0:
216,264,243653,1,0,0:0:0:0:
232,256,243741,1,0,0:0:0:0:
248,248,243829,2,0,P|269:279|284:304,2,37.5,2|0|2,0:0|0:0|1:2,0:0:0:0:
336,336,244182,2,0,P|352:300|348:248,1,75,8|0,0:0|0:0,0:0:0:0:
324,172,244535,5,0,1:0:0:0:
324,172,244712,2,0,L|232:180,1,75,0|8,0:0|0:0,0:0:0:0:
152,200,245065,1,0,0:0:0:0:
160,184,245153,1,0,1:0:0:0:
168,168,245241,2,0,L|196:108,2,37.5,2|0|2,0:2|0:0|1:2,0:0:0:0:
220,264,245594,2,0,P|220:288|232:344,1,75,8|0,0:0|0:0,0:0:0:0:
320,372,245947,6,0,P|286:372|224:380,1,75,4|0,1:2|0:0,0:0:0:0:
296,292,246300,2,0,P|305:259|316:196,1,75,12|0,0:2|0:0,0:0:0:0:
176,184,246653,2,0,P|200:207|251:246,1,75,4|0,0:0|1:0,0:0:0:0:
240,136,247006,1,8,0:0:0:0:
244,40,247182,1,0,0:0:0:0:
148,40,247359,6,0,P|126:39|44:52,1,75,2|0,1:2|0:0,0:0:0:0:
84,140,247712,2,0,P|105:140|188:128,1,75,10|0,0:0|0:0,0:0:0:0:
116,224,248065,2,0,L|88:268,2,37.5,2|0|0,0:2|0:0|1:0,0:0:0:0:
192,288,248418,2,0,P|212:248|212:204,1,75,10|0,0:0|0:0,0:0:0:0:
208,68,248771,5,4,1:2:0:0:
208,68,248947,2,0,P|206:87|208:156,1,75,0|8,0:0|0:0,0:0:0:0:
256,228,249300,1,0,0:0:0:0:
132,336,249477,1,2,0:0:0:0:
132,336,249829,2,0,P|103:333|40:336,1,75,8|2,0:0|0:0,0:0:0:0:
216,364,250182,5,0,1:0:0:0:
216,364,250359,2,0,P|232:356|284:308,1,75,0|8,0:0|0:0,0:0:0:0:
368,352,250712,1,0,0:0:0:0:
460,220,250888,1,2,0:2:0:0:
460,220,251241,2,0,P|443:218|356:220,1,75,8|2,0:0|0:0,0:0:0:0:
288,212,251594,6,0,P|302:184|320:132,1,75,6|0,1:2|0:0,0:0:0:0:
208,196,251947,2,0,P|212:226|229:279,1,75,10|0,0:0|0:0,0:0:0:0:
184,116,252300,2,0,P|160:135|123:177,1,75,6|0,0:2|1:0,0:0:0:0:
32,152,252653,2,0,P|55:132|92:90,1,75,10|0,0:0|0:0,0:0:0:0:
152,12,253006,6,0,L|164:104,1,75,4|0,1:2|0:0,0:0:0:0:
168,20,253359,6,0,L|180:112,1,75,12|0,0:0|0:0,0:0:0:0:
184,28,253712,6,0,L|196:120,1,75,4|0,0:0|1:0,0:0:0:0:
200,36,254065,6,0,L|224:216,1,168.750006437302,0|0,0:0|0:0,0:0:0:0:
236,276,254418,5,6,1:2:0:0:
236,276,254594,1,0,0:0:0:0:
272,340,254771,2,0,P|296:320|308:276,1,56.2500021457673,8|0,0:0|0:0,0:0:0:0:
316,276,255035,1,2,0:0:0:0:
316,252,255124,2,0,L|308:204,2,28.1250010728836,0|2|0,0:0|0:0|1:0,0:0:0:0:
384,276,255477,1,8,0:0:0:0:
380,88,255829,6,0,P|346:88|304:92,1,56.2500021457673,2|0,1:2|0:0,0:0:0:0:
264,132,256182,1,8,0:0:0:0:
216,76,256359,1,0,0:0:0:0:
212,56,256447,1,0,1:0:0:0:
204,36,256535,2,0,L|176:12,2,28.1250010728836,0|2|0,0:0|0:0|1:0,0:0:0:0:
144,80,256888,1,8,0:0:0:0:
144,80,257065,1,2,0:0:0:0:
152,152,257241,6,0,L|160:224,1,56.2500021457673,0|0,1:0|0:0,0:0:0:0:
168,280,257594,1,8,0:0:0:0:
192,348,257771,1,0,0:0:0:0:
212,336,257859,1,2,0:0:0:0:
228,320,257947,2,0,P|236:296|236:272,2,28.1250010728836,0|2|0,0:0|0:0|1:0,0:0:0:0:
284,368,258300,1,8,0:0:0:0:
444,332,258653,6,0,P|440:320|404:264,1,56.2500021457673,0|0,1:0|0:0,0:0:0:0:
392,212,259006,1,8,0:0:0:0:
424,144,259182,1,0,0:0:0:0:
432,124,259271,1,0,1:0:0:0:
440,104,259359,2,0,P|464:104|512:108,2,56.2500021457673,2|0|0,0:0|0:0|0:0,0:0:0:0:
368,100,259888,1,2,0:0:0:0:
296,100,260065,6,0,P|273:93|216:84,1,56.2500021457673,4|0,1:2|0:0,0:0:0:0:
184,132,260418,1,8,0:0:0:0:
252,164,260594,1,0,0:0:0:0:
256,188,260682,1,2,0:0:0:0:
260,212,260771,2,0,L|304:236,2,28.1250010728836,0|2|0,0:0|0:0|1:0,0:0:0:0:
188,208,261124,1,8,0:0:0:0:
92,336,261477,6,0,P|115:339|172:336,1,56.2500021457673,2|0,1:2|0:0,0:0:0:0:
212,304,261829,1,8,0:0:0:0:
248,368,262006,1,0,0:0:0:0:
248,368,262094,1,0,1:0:0:0:
248,368,262182,2,0,L|280:336,2,28.1250010728836,0|2|0,0:0|0:0|1:0,0:0:0:0:
320,292,262535,1,8,0:0:0:0:
320,292,262712,1,2,0:2:0:0:
352,228,262888,6,0,P|366:218|420:200,1,56.2500021457673,0|0,1:0|0:0,0:0:0:0:
476,192,263241,1,8,0:0:0:0:
428,136,263418,1,0,0:0:0:0:
408,124,263506,1,2,0:0:0:0:
388,120,263594,2,0,P|365:116|352:120,2,28.1250010728836,0|2|0,0:0|0:0|1:0,0:0:0:0:
408,48,263947,1,8,0:0:0:0:
260,136,264300,6,0,P|259:148|268:200,1,56.2500021457673,0|0,1:0|0:0,0:0:0:0:
288,260,264653,1,8,0:0:0:0:
268,332,264829,1,0,0:0:0:0:
268,332,264918,1,0,1:0:0:0:
268,332,265006,2,0,L|252:380,2,28.1250010728836,0|2|0,0:0|0:0|1:0,0:0:0:0:
288,260,265359,1,8,0:0:0:0:
48,384,265712,6,0,P|56:349|56:308,1,56.2500021457673,6|0,1:2|0:0,0:0:0:0:
24,264,266065,1,8,0:0:0:0:
84,224,266241,1,0,0:0:0:0:
104,212,266329,1,2,0:0:0:0:
124,200,266418,2,0,L|132:152,2,28.1250010728836,0|2|0,0:0|0:0|1:0,0:0:0:0:
196,220,266771,1,8,0:0:0:0:
296,340,267124,6,0,P|310:338|360:340,1,56.2500021457673,2|0,1:2|0:0,0:0:0:0:
420,368,267477,1,8,0:0:0:0:
412,296,267653,1,0,0:0:0:0:
420,276,267741,1,0,1:0:0:0:
428,256,267829,2,0,L|444:208,2,28.1250010728836,0|2|0,0:0|0:0|1:0,0:0:0:0:
356,236,268182,1,8,0:0:0:0:
356,236,268359,1,2,0:0:0:0:
284,228,268535,6,0,P|265:231|212:252,1,56.2500021457673,0|0,1:0|0:0,0:0:0:0:
168,204,268888,1,8,0:0:0:0:
200,140,269065,1,0,0:0:0:0:
220,132,269153,1,2,0:0:0:0:
240,124,269241,2,0,L|288:116,2,28.1250010728836,0|2|0,0:0|0:0|1:0,0:0:0:0:
340,128,269594,1,8,0:0:0:0:
508,132,269947,6,0,P|510:153|508:204,1,56.2500021457673,0|0,1:0|0:0,0:0:0:0:
496,260,270300,1,8,0:0:0:0:
440,308,270477,1,0,0:0:0:0:
420,300,270565,1,0,1:0:0:0:
404,284,270653,2,0,P|396:248|400:212,2,56.2500021457673,2|0|0,0:0|0:0|0:0,0:0:0:0:
332,300,271182,1,2,0:0:0:0:
324,372,271359,6,0,L|256:360,1,56.2500021457673,4|0,1:2|0:0,0:0:0:0:
200,344,271712,1,8,0:0:0:0:
128,352,271888,1,0,0:0:0:0:
128,352,271977,1,2,0:0:0:0:
128,352,272065,2,0,L|88:364,2,28.1250010728836,0|2|0,0:0|0:0|1:0,0:0:0:0:
200,344,272418,1,8,0:0:0:0:
256,196,272771,6,0,P|271:195|332:196,1,56.2500021457673,2|0,1:2|0:0,0:0:0:0:
284,264,273124,1,8,0:0:0:0:
212,252,273300,1,0,0:0:0:0:
196,236,273388,1,0,1:0:0:0:
188,216,273477,2,0,P|184:197|200:168,2,28.1250010728836,0|2|0,0:2|0:0|1:0,0:0:0:0:
256,196,273829,1,8,0:0:0:0:
256,196,274006,1,2,0:0:0:0:
232,128,274182,6,0,P|208:116|160:116,1,56.2500021457673,0|0,1:0|0:0,0:0:0:0:
108,128,274535,1,8,0:0:0:0:
52,80,274712,1,0,0:0:0:0:
40,152,274888,2,0,P|50:187|60:216,1,56.2500021457673,0|0,0:0|1:1,0:0:0:0:
56,280,275241,2,0,P|42:311|24:340,1,56.2500021457673,8|0,0:0|0:0,0:0:0:0:
100,356,275594,5,2,0:0:0:0:
164,324,275771,1,2,0:0:0:0:
232,352,275947,5,2,0:0:0:0:
296,316,276124,1,2,0:0:0:0:
256,256,276300,5,2,0:0:0:0:
232,188,276477,1,2,0:0:0:0:
252,116,276653,5,2,0:0:0:0:
308,68,276829,1,2,0:0:0:0:
