osu file format v9

[General]
AudioFilename: streamsound 0.mp3
AudioLeadIn: 0
PreviewTime: 61800
Countdown: 0
SampleSet: Soft
StackLeniency: 0.7
Mode: 0
LetterboxInBreaks: 0

[Editor]
DistanceSpacing: 1
BeatDivisor: 4
GridSize: 8

[Metadata]
Title:O.M.E.N.
Artist:minmin
Creator:Mafiamaster
Version:Ruckus
Source:Touhou
Tags:Yamato Damashi U.N. Owen was her? SDM Scarlet Devil Mansion Flandre's Running At Large!! Kite NatsumeRin

[Difficulty]
HPDrainRate:5
CircleSize:4
OverallDifficulty:6
ApproachRate:7
SliderMultiplier:1.44
SliderTickRate:1

[Events]
//Background and Video events
0,0,"new file.jpg"
//Break Periods
//Storyboard Layer 0 (Background)
//Storyboard Layer 1 (Fail)
//Storyboard Layer 2 (Pass)
//Storyboard Layer 3 (Foreground)
//Storyboard Sound Samples
//Background Colour Transformations
3,100,0,0,0

[TimingPoints]
26843,352.941176470588,4,1,1,100,1,0
50829,342.857142857143,4,2,2,100,1,0
60343,-100,4,2,1,100,0,0
61800,-100,4,2,2,100,0,0
71400,-100,4,2,1,100,0,0
72771,-100,4,2,2,100,0,0
82371,-100,4,2,1,100,0,0
83743,-100,4,2,2,100,0,0
93600,-100,4,2,1,100,0,0

[HitObjects]
52,106,27902,1,8
52,106,28078,1,8
64,176,28254,2,0,B|76:262|172:271,1,144,0|8
231,270,28784,1,0
285,316,28960,2,0,B|365:321|414:237,1,144,0|8
510,151,29666,2,0,B|515:68|419:26|419:25,1,144,0|8
365,22,30196,1,0
293,31,30372,2,0,B|210:53,2,72,0|0|8
215,152,31078,6,0,B|157:197|60:189,1,144,0|8
10,166,31607,1,0
79,190,31784,2,0,B|156:215|185:298,1,144,0|8
195,356,32313,1,0
180,285,32490,2,0,B|171:241|176:192|221:146,1,144,0|8
272,107,33019,1,0
341,124,33196,2,0,B|391:142|464:128|465:128,2,108
398,79,33902,6,0,B|409:162|348:225,1,144,0|8
301,257,34431,1,0
232,278,34607,2,0,B|165:304|71:279,1,144,0|8
26,153,35313,2,0,B|102:129|174:148,1,144,0|8
237,167,35843,1,0
294,209,36019,2,0,B|328:229|386:219,1,72
400,221,36284,2,0,B|444:218|477:186,1,72,8|8
493,171,36549,1,0
433,92,36725,6,0,B|368:143|267:135,1,144,0|8
227,121,37254,1,0
172,73,37431,1,0
66,171,37784,1,8
76,242,37960,1,0
127,292,38137,2,0,B|172:344|258:348,1,144,0|8
326,334,38666,1,0
392,305,38843,2,0,B|451:298|500:323,2,108
407,234,39549,5,0
367,95,39902,2,0,B|322:106|290:68,1,72,8|0
348,25,40254,1,0
243,124,40607,2,0,B|265:164|240:205,1,72,8|0
181,161,40960,1,0
117,195,41137,2,0,B|94:153|131:106,1,72,0|8
246,193,41666,2,0,B|270:235|256:307|206:340,1,144,0|8
155,352,42196,1,0
83,354,42372,6,0,B|45:333|46:296,1,72
52,224,42725,1,8
136,107,43078,2,0,B|179:111|210:88,1,72
264,51,43431,1,8
401,92,43784,2,0,B|441:106|462:140,1,72
476,203,44137,1,8
454,271,44313,1,0
409,327,44490,2,0,B|377:351|331:350,1,72
306,352,44754,2,0,B|259:360|214:328,1,72
204,322,45019,2,0,B|143:289,2,36
164,183,45549,5,8
99,213,45725,1,0
103,140,45902,1,0
217,53,46254,1,8
282,22,46431,1,0
277,93,46607,2,0,B|317:96|348:60,2,72,0|0|8
282,22,47137,1,0
341,66,47313,2,0,B|362:106|341:146|302:164,2,108
405,34,48019,5,0
463,76,48196,1,0
488,143,48372,2,0,B|504:188|482:261|436:294,1,144,8|0
394,317,48902,1,0
325,339,49078,2,0,B|245:352|171:308,1,144,8|0
275,202,49784,1,8
208,175,49960,1,0
263,128,50137,5,0
217,251,50402,1,0
139,149,50666,1,0
147,216,50829,6,0,B|166:254|247:264|300:232,1,144,4|2
366,128,51514,2,0,B|347:90|266:80|213:112,1,144,0|2
278,242,52200,1,0
234,101,52543,1,2
170,68,52714,1,0
98,61,52886,2,0,B|32:106|49:194,1,144,0|2
112,315,53571,5,0
179,340,53743,1,2
247,319,53914,1,0
293,263,54086,1,2
353,223,54257,1,0
424,231,54429,2,0,B|463:264,2,36,2|0|0
479,185,54771,1,0
481,112,54943,2,0,B|469:66|408:50,1,72,0|2
365,38,55286,2,0,B|317:28|267:45,1,72,0|2
223,57,55629,1,0
223,57,56314,6,0,B|243:133|184:193,1,144,4|2
47,227,57000,2,0,B|27:151|86:91,1,144,0|2
187,189,57686,1,0
47,227,58029,1,2
77,292,58200,1,0
134,335,58371,2,0,B|168:364|240:365|292:346,1,144,0|2
410,308,59057,5,0
445,244,59229,1,2
431,173,59400,1,0
373,129,59571,1,2
300,124,59743,1,0
241,164,59914,1,2
241,164,60000,1,0
241,164,60086,2,0,B|208:192|154:189|153:189,1,72
102,178,60429,5,8
102,178,60686,1,8
102,178,60943,1,8
131,243,61114,2,0,B|149:283,3,36,2|0|2|2
175,295,61457,2,0,B|222:320,3,36,0|2|2|2
240,325,61800,6,0,B|276:342|330:323,1,72,4|2
378,305,62143,1,8
460,186,62486,1,0
424,123,62657,2,0,B|403:87|415:40,1,72,2|8
286,123,63171,1,0
217,145,63343,2,0,B|180:161|129:151,1,72,2|8
77,133,63686,1,2
26,82,63857,1,0
94,208,64200,1,10
193,311,64543,6,0,B|237:316|275:292,1,72,0|2
312,246,64886,2,0,B|348:225|386:228,1,72,8|2
449,250,65229,1,0
489,190,65400,1,2
489,190,65486,1,0
489,190,65571,2,0,B|476:116,1,72,8|0
427,65,65914,2,0,B|389:97|412:152,1,72,0|2
415,201,66257,2,0,B|368:208|345:168,1,72,8|2
332,107,66600,2,0,B|284:120|278:170|278:170|198:194,1,144,0|8
117,88,67286,6,0,B|80:115|84:157,1,72,0|2
155,150,67629,1,8
203,285,67971,2,0,B|219:317|261:321,1,72,0|2
327,292,68314,1,8
267,250,68486,1,2
203,284,68657,2,0,B|176:237|216:174|269:177,1,144,0|8
333,186,69171,1,2
401,209,69343,2,0,B|446:212|486:149|459:102,1,144,0|8
460,103,69857,1,10
410,50,70029,6,0,B|325:69,1,72,0|2
269,50,70371,2,0,B|184:69,1,72,8|2
128,47,70714,1,0
61,74,70886,1,2
61,74,70971,1,0
61,74,71057,2,0,B|30:112|48:159,1,72,8|0
67,208,71400,6,0,B|85:257,1,36,8|8
147,266,71657,1,0
213,294,71829,2,0,B|231:343,1,36,8|2
294,347,72086,1,2
365,350,72257,1,0
431,320,72429,1,2
468,258,72600,1,2
478,186,72771,6,0,B|484:132|453:73|404:58,1,144,6|8
364,112,73286,1,0
317,166,73457,2,0,B|282:156|251:97|257:43,1,144,2|8
189,18,73971,1,2
136,67,74143,2,0,B|124:116|132:184|167:220,1,144,0|8
203,260,74657,1,2
258,306,74829,2,0,B|293:329|347:312,1,72,2|0
395,293,75171,2,0,B|444:271|456:216,1,72,8|2
464,176,75514,5,2
464,104,75686,1,0
464,32,75857,2,0,B|360:32,1,72,8|2
320,32,76200,1,0
320,104,76371,1,2
320,104,76457,1,0
320,104,76543,2,0,B|408:104,1,72,8|0
464,104,76886,2,0,B|384:104,1,72,2|0
392,32,77229,2,0,B|392:112,1,72,10|0
392,176,77571,2,0,B|392:264|288:264,1,144,2|8
166,318,78257,6,0,B|120:322|96:288,1,72,0|2
155,246,78600,2,0,B|116:225|116:180,1,72,8|0
188,183,78943,2,0,B|172:144|193:116,1,72,0|2
254,154,79286,2,0,B|269:118|308:106,1,72,8|2
324,176,79629,6,0,B|366:164|378:116,1,72,0|0
305,106,79971,2,0,B|327:68|308:30,1,72,10|2
245,67,80314,2,0,B|244:27|213:5,1,72,0|2
173,65,80657,2,0,B|145:39|101:44,1,72,8|10
40,80,81000,5,0
40,152,81171,1,2
40,224,81343,2,0,B|40:304,1,72,8|2
112,296,81686,1,0
184,296,81857,1,10
184,296,81943,1,0
184,296,82029,2,0,B|272:296,1,72,8|0
328,296,82371,6,0,B|360:320|432:320|480:288,1,144,2|0
464,224,82886,2,0,B|432:200|360:200|312:232,1,144,2|0
264,264,83400,1,8
264,264,83571,1,8
217,318,83743,6,0,B|194:347|154:351,1,72,4|2
83,338,84086,1,8
21,207,84429,2,0,B|12:168|38:136,1,72,0|2
80,82,84771,1,8
220,49,85114,1,0
291,39,85286,1,2
358,63,85457,2,0,B|401:77|414:120,1,72,8|2
422,180,85800,1,0
415,251,85971,2,0,B|412:294|374:316,1,72,2|8
272,216,86486,5,0
216,264,86657,1,2
144,240,86829,1,8
128,168,87000,1,2
184,120,87171,1,0
256,144,87343,2,0,B|296:112,2,36,2|0|8
200,192,87686,1,0
144,240,87857,2,0,B|108:268|48:262,1,72,0|2
17,221,88200,1,8
3,150,88371,2,0,B|39:122|99:128,1,72,2|0
128,168,88714,1,8
128,168,89057,1,8
200,192,89229,6,0,B|235:206|289:196,1,72,4|2
339,178,89571,2,0,B|385:164|404:125,1,72,2|8
432,74,89914,1,0
470,135,90086,1,2
474,206,90257,1,8
443,271,90429,1,0
391,321,90600,2,0,B|351:347|297:337|298:337,1,72,4|10
250,329,90943,2,0,B|206:330|170:298,1,72,2|8
138,250,91286,1,0
113,182,91457,1,2
110,109,91629,1,10
142,44,91800,1,0
208,8,91971,6,0,B|288:8,1,72,6|8
312,80,92314,2,0,B|240:80,1,72,8|6
208,152,92657,2,0,B|288:152,1,72,0|10
280,152,92914,1,0
280,152,93000,1,4
312,224,93171,1,0
256,280,93343,2,0,B|216:328|224:400,2,108,4|0|0
256,280,94029,2,0,B|208:320|136:312,2,108,0|8|0
256,280,94714,5,4
