osu file format v9

[General]
AudioFilename: streamsound 0.mp3
AudioLeadIn: 0
PreviewTime: 61800
Countdown: 0
SampleSet: Normal
StackLeniency: 0.7
Mode: 0
LetterboxInBreaks: 0

[Editor]
DistanceSpacing: 0.5
BeatDivisor: 4
GridSize: 8

[Metadata]
Title:O.M.E.N.
Artist:minmin
Creator:Mafiamaster
Version:Rampage
Source:Touhou
Tags:Yamato Damashi U.N. Owen was her? SDM Scarlet Devil Mansion Flandre's Running At Large!! Kite NatsumeRin

[Difficulty]
HPDrainRate:7
CircleSize:5
OverallDifficulty:7
ApproachRate:9
SliderMultiplier:1.6
SliderTickRate:1

[Events]
//Background and Video events
0,0,"new file.jpg"
//Break Periods
//Storyboard Layer 0 (Background)
//Storyboard Layer 1 (Fail)
//Storyboard Layer 2 (Pass)
//Storyboard Layer 3 (Foreground)
//Storyboard Sound Samples
//Background Colour Transformations
3,100,0,0,0

[TimingPoints]
26843,352.941176470588,4,1,1,100,1,0
50829,342.857142857143,4,2,1,100,1,0
60343,-100,4,2,1,100,0,0

[HitObjects]
312,88,27901,5,0
288,64,27990,1,0
256,48,28078,1,0
224,64,28166,1,0
200,88,28254,1,0
256,192,28431,6,0,B|256:272,1,80,0|8
168,192,28784,1,0
152,224,28872,1,0
168,256,28960,1,0
320,376,29137,1,0
192,376,29313,1,8
344,256,29490,1,0
360,224,29578,1,0
344,192,29666,1,0
256,280,29843,1,0
256,160,30019,1,8
176,72,30196,5,0
176,72,30284,1,0
336,72,30460,1,0
336,72,30549,1,0
256,72,30725,1,8
336,160,30901,6,0,B|400:160,2,40
256,72,31254,1,0
176,160,31431,1,8
200,280,31607,1,0
224,304,31696,1,0
256,320,31784,1,0
288,304,31872,1,0
312,280,31960,1,0
336,160,32137,6,0,B|256:160,1,80,8|0
176,160,32490,2,0,B|256:160,1,80
256,280,32843,1,8
144,248,33019,1,0
160,280,33107,1,0
144,312,33196,1,0
72,264,33372,1,0
72,296,33460,1,0
72,176,33637,2,0,B|72:88,1,80,8|0
72,64,33902,5,0
184,32,34078,1,0
136,144,34254,1,8
248,112,34431,1,0
280,112,34519,1,0
312,112,34607,1,0
344,112,34696,1,0
376,112,34784,1,0
472,40,34960,1,8
280,184,35137,1,0
376,112,35313,5,0
472,184,35490,1,0
280,40,35666,1,8
376,112,35843,2,0,B|376:64,2,40
376,232,36196,1,0
376,264,36284,1,0
496,280,36460,1,0
376,296,36637,1,0
376,328,36725,1,0
256,352,36902,5,0
136,328,37078,1,8
16,280,37254,1,0
24,248,37343,1,0
16,216,37431,1,0
48,224,37519,1,0
80,216,37607,1,0
176,144,37784,1,8
256,56,37960,1,0
336,144,38137,5,0
256,232,38313,1,0
256,232,38402,1,8
176,320,38578,1,0
96,232,38754,5,0
96,232,38843,1,0
256,56,39019,1,0
256,56,39107,1,8
416,232,39284,1,8
416,232,39460,5,0
416,232,39549,1,0
496,144,39725,1,0
416,56,39902,1,8
320,128,40078,1,0
288,128,40166,1,0
256,136,40254,1,0
224,128,40343,1,0
192,128,40431,1,0
96,56,40607,2,0,B|16:64,1,80,8|0
112,136,40960,6,0,B|32:144,2,80,0|0|8
168,248,41490,1,0
152,280,41578,1,0
136,312,41666,1,0
256,344,41843,1,0
256,312,41931,1,0
256,280,42019,1,0
344,248,42196,1,0
360,280,42284,1,0
376,312,42372,5,0
480,248,42549,1,0
408,152,42725,1,8
480,56,42902,1,0
448,40,42990,1,0
416,40,43078,1,0
384,40,43166,1,0
352,24,43254,1,0
256,96,43431,2,0,B|256:176,1,80,8|0
32,56,43784,5,0
104,152,43960,1,0
32,248,44137,1,8
104,344,44313,2,0,B|64:352,2,40
176,248,44666,2,0,B|216:240,1,40
104,152,44931,1,8
136,144,45019,1,8
168,136,45107,1,8
200,128,45196,1,0
256,232,45372,6,0,B|256:312,1,80,0|8
344,160,45725,1,0
360,192,45814,1,0
344,224,45902,1,0
256,152,46078,2,0,B|256:72,1,80,0|8
168,224,46431,1,0
152,192,46519,1,0
168,160,46608,1,0
56,256,46784,1,0
56,128,46960,1,8
128,32,47137,5,0
160,48,47225,1,0
192,64,47313,1,0
320,64,47490,1,0
352,48,47578,1,0
384,32,47666,1,0
416,48,47754,1,0
448,64,47842,1,0
384,112,48019,6,0,B|384:200,2,80,0|0|8
456,136,48549,2,0,B|496:128,2,40
456,168,48813,2,0,B|496:176,1,40
384,192,49078,1,8
456,288,49254,6,0,B|464:328,2,40
416,288,49519,2,0,B|424:248,2,40,0|0|8
376,288,49784,1,0
256,352,49960,5,0
160,280,50137,1,8
256,128,50402,1,8
352,280,50666,1,8
256,224,50829,5,4
192,176,51171,1,2
256,224,51514,1,0
320,176,51857,1,2
256,224,52200,1,0
296,296,52543,1,0
256,304,52714,1,2
216,296,52886,1,0
256,224,53228,1,2
192,176,53571,5,0
232,160,53743,1,0
256,128,53914,1,2
280,160,54086,1,0
320,176,54257,1,0
360,176,54428,1,2
376,184,54514,1,0
392,192,54600,1,0
432,176,54771,1,0
392,240,54943,5,2
472,240,55114,1,0
392,192,55286,1,0
472,192,55457,1,2
432,264,55628,1,0
472,336,55800,5,4
392,336,55971,1,2
176,192,56314,5,4
256,192,56657,1,2
336,192,57000,1,0
296,256,57343,1,2
216,256,57686,1,0
216,128,58028,1,0
256,112,58200,1,2
296,128,58371,1,0
256,192,58714,1,2
256,272,59057,5,0
232,240,59229,1,0
280,240,59400,1,2
200,256,59571,1,0
312,256,59743,1,0
240,320,59914,5,2
256,312,60000,1,0
272,320,60086,1,0
256,384,60257,1,2
256,192,60428,5,8
256,192,60686,1,8
256,192,60943,1,8
256,152,61114,1,2
256,136,61200,1,2
256,120,61286,1,2
256,104,61371,1,2
256,88,61457,1,2
256,72,61543,1,2
256,56,61628,1,2
256,40,61714,1,2
256,24,61800,5,4
192,128,61971,1,0
256,232,62143,1,8
320,128,62314,1,0
320,128,62657,5,0
360,240,62828,1,8
256,304,63000,1,0
256,304,63171,1,0
256,184,63343,1,0
152,240,63514,1,8
192,128,63686,1,0
192,128,64028,5,0
168,104,64114,1,0
144,80,64200,1,8
88,184,64371,1,0
144,80,64543,5,0
256,32,64714,1,0
368,72,64886,1,8
424,184,65057,6,0,B|480:184,2,40,0|8|0
416,304,65400,1,0
384,312,65486,1,0
352,304,65571,1,8
256,232,65743,1,0
328,112,65914,1,0
424,184,66086,1,0
352,304,66257,1,8
288,168,66428,1,0
376,240,66600,1,0
280,304,66771,1,0
192,232,66943,1,8
256,32,67286,5,0
200,136,67457,1,0
80,144,67628,1,8
136,40,67800,1,0
136,40,68143,1,0
256,32,68314,1,8
312,136,68486,1,0
432,144,68657,1,0
376,40,68828,1,0
256,32,69000,1,8
256,32,69171,1,0
256,192,69514,5,0
256,224,69600,1,0
256,256,69686,1,8
256,376,69857,1,8
184,280,70028,5,0
256,376,70200,1,0
328,280,70371,1,8
352,160,70543,1,0
328,136,70628,1,8
304,112,70714,1,0
208,112,70886,1,0
184,136,70972,1,0
160,160,71057,1,8
256,192,71228,1,0
256,312,71400,5,8
256,312,71486,1,8
352,376,71657,1,8
448,312,71828,1,2
456,296,71914,1,2
464,280,72000,1,2
464,264,72086,1,2
464,248,72171,1,2
464,232,72257,1,2
464,216,72343,1,2
464,200,72428,1,2
464,184,72514,1,2
464,168,72600,1,2
472,152,72686,1,0
480,136,72771,6,0,B|472:96,3,40,4|0|0|0
456,96,73114,1,8
440,96,73200,1,0
424,104,73286,1,0
416,88,73371,1,0
408,72,73457,2,0,B|376:32,3,40
368,56,73800,2,0,B|344:96,3,40,8|0|0|0
328,88,74143,2,0,B|307:53,3,40
296,40,74486,2,0,B|266:67,3,40,8|0|0|0
256,80,74829,1,0
248,96,74914,1,0
232,88,75000,1,0
216,88,75086,1,0
200,96,75171,2,0,B|192:135,3,40,8|0|0|0
188,154,75514,5,0
324,154,75686,1,0
256,272,75857,1,8
160,344,76029,1,0
144,312,76114,1,8
160,280,76200,1,0
352,280,76371,1,0
368,312,76457,1,0
352,344,76542,1,8
256,272,76714,1,0
256,152,76886,6,0,B|256:112,3,40
256,96,77229,1,8
256,80,77314,1,0
256,64,77400,1,0
256,48,77486,1,0
256,32,77572,2,0,B|216:24,3,40
200,24,77914,2,0,B|160:31,3,40,8|0|0|0
144,32,78258,6,0,B|104:32,3,40
88,32,78600,1,8
80,48,78686,1,0
72,64,78771,1,0
64,80,78857,1,0
56,96,78944,2,0,B|96:96,3,40
112,96,79286,1,8
104,112,79372,1,0
96,128,79457,1,0
88,144,79543,1,0
80,160,79629,2,0,B|40:160,3,40
24,160,79971,1,8
32,176,80057,1,0
40,192,80142,1,0
48,208,80228,1,0
56,224,80314,1,0
128,336,80486,5,0
136,320,80571,1,0
144,304,80658,2,0,B|184:304,3,40,8|0|8|0
192,288,81000,1,0
208,280,81086,1,0
224,280,81171,1,0
240,288,81257,1,0
256,296,81344,2,0,B|256:336,3,40,8|0|0|0
272,288,81686,1,0
288,280,81772,1,0
304,280,81857,1,8
320,288,81943,1,0
336,304,82029,2,0,B|376:304,3,40,8|0|0|0
392,304,82372,5,8
472,216,82543,1,0
464,200,82629,1,0
456,184,82714,2,0,B|416:184,3,40,0|0|8|0
408,168,83057,1,0
256,72,83314,1,0
256,96,83400,2,8,B|256:144,3,40
240,144,83743,6,0,B|216:176,3,40
240,232,84086,2,0,B|216:200,3,40,8|0|0|0
296,200,84429,2,0,B|272:232,3,40
272,144,84771,2,0,B|296:176,3,40,8|0|0|0
304,192,85114,1,0
320,192,85200,1,0
336,192,85286,1,0
352,192,85371,1,0
368,192,85458,2,0,B|376:152,3,40,8|0|0|0
380,133,85800,1,0
440,240,85971,5,0
456,248,86057,1,0
472,256,86143,2,0,B|476:307,3,40,8|0|0|0
476,317,86486,5,0
368,272,86658,1,0
352,280,86743,1,0
336,288,86829,1,8
216,272,87000,1,0
200,264,87085,1,8
184,256,87171,1,0
96,176,87343,1,0
104,160,87429,1,0
112,144,87515,2,0,B|72:144,3,40,8|0|0|0
64,128,87857,5,0
80,120,87943,1,0
96,112,88029,1,0
112,104,88114,1,0
104,88,88200,1,8
120,80,88285,1,0
136,72,88371,1,0
152,64,88457,1,0
168,64,88543,5,0
184,72,88629,1,0
200,80,88715,1,8
216,88,88800,1,0
208,104,88886,1,0
224,112,88971,1,0
240,120,89057,1,8
256,128,89143,1,0
272,136,89230,6,0,B|280:96,3,40,4|0|0|0
296,88,89571,1,8
312,80,89657,1,0
328,72,89743,1,8
344,64,89829,1,0
360,56,89915,2,0,B|368:96,3,40
384,96,90258,2,0,B|424:96,3,40,8|0|0|0
440,96,90601,2,0,B|432:136,3,40,4|0|0|0
448,136,90943,1,8
464,136,91029,1,0
456,152,91115,1,8
448,168,91200,1,0
440,184,91286,1,0
360,272,91457,5,0
376,264,91543,1,0
392,256,91630,2,0,B|432:256,3,40,8|0|0|0
448,248,91971,1,4
488,360,92143,1,0
472,368,92229,1,0
456,376,92314,2,0,B|416:376,3,40,8|0|4|0
400,384,92657,1,0
288,352,92829,5,0
272,328,92914,1,0
256,304,93000,1,4
256,184,93171,1,0
272,160,93256,1,0
288,136,93342,1,12
368,248,93514,1,0
288,352,93686,1,2
176,288,93857,1,8
256,184,94029,5,2
256,184,94286,1,2
256,184,94543,1,2
272,272,94714,5,4
