osu file format v14

[General]
AudioFilename: 08.SECRET TRAP.mp3
AudioLeadIn: 0
PreviewTime: 44786
Countdown: 0
SampleSet: Soft
StackLeniency: 0.7
Mode: 0
LetterboxInBreaks: 0
WidescreenStoryboard: 0

[Editor]
DistanceSpacing: 1.2
BeatDivisor: 4
GridSize: 4
TimelineZoom: 1

[Metadata]
Title:SECRET & TRAP
TitleUnicode:SECRET & TRAP
Artist:minato
ArtistUnicode:minato
Creator:neonat
Version:Hard
Source:
Tags:Vocaloid Kagamine Rin magnet -favorites plus- minatone Regraz
BeatmapID:623189
BeatmapSetID:274593

[Difficulty]
HPDrainRate:5
CircleSize:4
OverallDifficulty:6
ApproachRate:7
SliderMultiplier:1.7
SliderTickRate:1

[Events]
//Background and Video events
0,0,"158655 sample.png",0,0
//Break Periods
2,111963,125746
//Storyboard Layer 0 (Background)
//Storyboard Layer 1 (Fail)
//Storyboard Layer 2 (Pass)
//Storyboard Layer 3 (Foreground)
//Storyboard Sound Samples

[TimingPoints]
7577.0880950218,465.116279069767,4,2,1,70,1,0
29902,-133.333333333333,4,2,1,70,0,0
37344,-111.111111111111,4,2,1,70,0,0
43856,-111.111111111111,4,2,2,70,0,0
44786,-100,4,2,1,80,0,1
46646,-100,4,2,3,80,0,1
48507,-100,4,2,4,80,0,1
51298,-100,4,2,3,80,0,1
52228,-100,4,2,1,80,0,1
54088,-100,4,2,3,80,0,1
55949,-100,4,2,4,80,0,1
58739,-100,4,2,3,80,0,1
59670,-100,4,2,1,70,0,0
67111,-133.333333333333,4,2,1,70,0,0
70832,-100,4,2,1,70,0,0
81995,-133.333333333333,4,2,1,70,0,0
95949,-133.333333333333,4,2,2,70,0,0
96879,-100,4,2,1,80,0,1
98739,-100,4,2,3,80,0,1
100600,-100,4,2,4,80,0,1
103391,-100,4,2,3,80,0,1
104321,-100,4,2,1,80,0,1
106181,-100,4,2,3,80,0,1
108042,-100,4,2,4,80,0,1
110832,-100,4,2,3,80,0,1
111763,-100,4,2,1,70,0,0
126646,-133.333333333333,4,2,0,50,0,0
143391,-100,4,2,1,80,0,1
145251,-100,4,2,3,80,0,1
147111,-100,4,2,4,80,0,1
149902,-100,4,2,3,80,0,1
150832,-100,4,2,1,80,0,1
152693,-100,4,2,3,80,0,1
154553,-100,4,2,4,80,0,1
156181,-100,4,2,3,70,0,0
158274,-100,4,2,1,80,0,1
160135,-100,4,2,3,80,0,1
161995,-100,4,2,4,80,0,1
164786,-100,4,2,3,80,0,1
165716,-100,4,2,1,80,0,1
167577,-100,4,2,3,80,0,1
169437,-100,4,2,4,80,0,1
172228,-100,4,2,3,80,0,1
173158,-100,4,2,1,70,0,0

[Colours]
Combo1 : 128,227,215
Combo2 : 168,193,186
Combo3 : 222,211,154

[HitObjects]
256,244,7577,5,2,0:0:0:0:
256,244,7693,1,0,0:0:0:0:
256,244,7809,2,0,P|208:228|188:188,1,85,0|2,0:0|0:0,0:0:0:0:
236,128,8274,2,0,B|312:96|312:96|340:0,1,170
420,28,8972,2,0,L|396:116,1,85,2|0,0:0|0:0,0:0:0:0:
392,196,9437,6,0,L|400:272,1,42.5,2|0,0:0|0:0,0:0:0:0:
404,280,9670,2,0,P|362:309|298:302,1,85,0|2,0:0|0:0,0:0:0:0:
252,280,10135,2,0,P|192:264|84:316,1,170
16,276,10832,2,0,L|32:172,1,85,2|2,0:0|0:0,0:0:0:0:
128,152,11298,5,2,0:0:0:0:
128,152,11414,1,0,0:0:0:0:
128,152,11530,2,0,L|108:64,1,85,0|2,0:0|0:0,0:0:0:0:
184,32,11995,2,0,B|216:160|216:160|264:192,1,170
296,112,12693,2,0,L|272:12,1,85,2|0,0:0|0:0,0:0:0:0:
360,12,13158,5,2,0:0:0:0:
440,36,13391,1,2,0:0:0:0:
488,108,13623,1,2,0:0:0:0:
484,192,13856,1,2,0:0:0:0:
432,260,14088,2,0,P|376:272|332:260,1,85,2|2,0:0|0:0,0:0:0:0:
264,272,14553,1,2,0:0:0:0:
264,272,14670,1,2,0:0:0:0:
264,272,14786,1,2,0:0:0:0:
256,188,15018,5,2,0:0:0:0:
332,140,15251,2,0,P|388:128|432:140,2,85,0|2|0,0:0|0:0|0:0,0:0:0:0:
256,188,15949,2,0,P|192:200|104:148,1,170,2|2,0:0|0:0,0:0:0:0:
116,40,16646,1,0,0:0:0:0:
116,40,16879,2,0,P|176:44|200:112,2,127.5,2|0|0,0:0|0:0|0:0,0:0:0:0:
36,68,17809,2,0,L|32:152,1,85,2|0,0:0|0:0,0:0:0:0:
72,304,18274,2,0,L|76:204,1,85,2|2,0:0|0:0,0:0:0:0:
176,132,18739,5,0,0:0:0:0:
260,120,18972,1,0,0:0:0:0:
336,160,19204,2,0,P|352:232|324:264,1,85,0|0,0:0|0:0,0:0:0:0:
344,324,19670,2,0,P|396:352|440:340,1,85,2|0,0:0|0:0,0:0:0:0:
464,276,20135,2,0,B|476:232|440:224|460:168,1,85,2|0,0:0|0:0,0:0:0:0:
484,64,20600,2,0,P|424:32|348:48,1,127.5,2|0,0:0|0:0,0:0:0:0:
332,60,21065,2,0,P|288:68|224:48,1,85,2|0,0:0|0:0,0:0:0:0:
128,32,21530,1,2,0:0:0:0:
172,104,21763,2,0,L|172:208,1,85
112,248,22228,1,2,0:0:0:0:
256,176,22460,5,2,0:0:0:0:
336,148,22693,2,0,P|388:140|432:160,2,85,0|2|0,0:0|0:0|0:0,0:0:0:0:
320,232,23391,2,0,P|383:283|463:263,1,170,2|2,0:0|0:0,0:0:0:0:
404,192,24088,1,0,0:0:0:0:
372,64,24321,2,0,B|328:40|296:60|296:60|256:112,2,127.5,2|0|0,0:0|0:0|0:0,0:0:0:0:
440,112,25251,2,0,P|480:148|488:192,1,85,2|0,0:0|0:0,0:0:0:0:
484,260,25716,1,2,0:0:0:0:
408,300,25949,1,0,0:0:0:0:
352,200,26181,5,2,0:0:0:0:
292,132,26414,1,0,0:0:0:0:
212,104,26646,2,0,P|220:176|248:204,2,85,2|0|2,0:0|0:0|0:0,0:0:0:0:
276,48,27344,1,0,0:0:0:0:
296,216,27577,2,0,L|276:304,1,85,2|2,0:0|0:0,0:0:0:0:
196,328,28042,2,0,B|136:300|60:328|60:328|24:296,1,170,2|2,0:0|0:0,0:0:0:0:
56,188,28739,1,0,0:0:0:0:
136,216,28972,2,0,P|160:176|156:68,2,127.5,2|0|0,0:0|0:0|0:0,0:0:0:0:
36,108,29902,6,0,P|56:64|128:20,1,127.500004863739,2|0,0:0|0:0,0:0:0:0:
196,28,30600,2,0,P|240:36|340:20,1,127.500004863739,2|0,0:0|0:0,0:0:0:0:
396,36,31298,1,0,0:0:0:0:
460,80,31530,1,2,0:0:0:0:
424,148,31763,2,0,P|412:224|432:256,2,95.6250036478044,2|2|2,0:0|0:0|0:0,0:0:0:0:
500,148,32693,2,0,P|512:224|492:256,2,95.6250036478044,0|0|0,0:0|0:0|0:0,0:0:0:0:
424,148,33623,6,0,L|292:144,1,127.500004863739,2|0,0:0|0:0,0:0:0:0:
224,120,34321,1,2,0:0:0:0:
147,117,34553,2,0,P|95:121|47:153,2,95.6250036478044,0|0|2,0:0|0:0|0:0,0:0:0:0:
181,186,35484,2,0,L|181:302,2,95.6250036478044,2|2|2,0:0|0:0|0:0,0:0:0:0:
257,193,36414,1,2,0:0:0:0:
257,193,36879,2,0,L|341:217,1,63.7500024318696,2|0,0:0|0:0,0:0:0:0:
412,220,37344,6,0,P|452:192|448:76,1,152.999995330811,2|0,0:0|0:0,0:0:0:0:
388,137,38042,1,2,0:0:0:0:
320,84,38274,2,0,P|264:76|208:128,2,114.749996498108,2|2|2,0:0|0:0|0:0,0:0:0:0:
400,52,39204,2,0,P|464:24|512:40,2,114.749996498108,2|2|2,0:0|0:0|0:0,0:0:0:0:
388,136,40135,2,0,P|392:188|376:260,2,114.749996498108,2|2|2,0:0|0:0|0:0,0:0:0:0:
304,172,41065,1,2,0:0:0:0:
64,144,41763,5,2,0:0:0:0:
64,144,41995,2,0,P|104:120|192:124,2,114.749996498108,2|2|2,0:0|0:0|0:0,0:0:0:0:
80,228,42925,2,0,P|136:227|186:200,2,114.749996498108,2|0|2,0:0|0:0|0:0,0:0:0:0:
8,272,43856,2,0,L|48:360,1,76.4999976654053,2|2,0:0|0:0,0:0:0:0:
124,348,44321,2,0,L|184:344,3,38.2499988327027,2|2|2|2,0:0|0:0|0:0|0:0,0:0:0:0:
204,352,44786,6,0,P|256:344|300:296,1,85,4|0,0:0|0:0,0:0:0:0:
364,216,45251,2,0,P|312:224|268:272,1,85,8|0,0:0|0:0,0:0:0:0:
408,316,45716,2,0,L|496:344,2,85,2|0|12,0:0|0:0|0:0,0:0:0:0:
364,216,46414,1,0,0:0:0:0:
284,156,46646,2,0,L|168:156,1,85,6|0,0:0|0:0,0:0:0:0:
116,76,47111,2,0,L|304:76,1,170,8|2,0:0|0:0,0:0:0:0:
380,116,47809,1,0,0:0:0:0:
448,40,48042,1,14,0:0:0:0:
512,120,48274,1,2,0:0:0:0:
448,200,48507,6,0,P|408:288|456:364,1,170,6|8,0:0|0:0,0:0:0:0:
504,280,49204,2,0,P|428:276|328:224,1,170
288,152,49902,1,12,0:0:0:0:
276,52,50135,2,0,P|352:76|380:184,1,170
292,324,50832,2,0,L|292:236,1,85,8|0,0:0|0:0,0:0:0:0:
208,128,51298,2,0,L|208:213,1,85,6|0,0:0|0:0,0:0:0:0:
140,288,51763,1,8,0:0:0:0:
20,124,52228,5,4,0:0:0:0:
76,40,52460,1,0,0:0:0:0:
176,64,52693,2,0,L|268:48,1,85,8|0,0:0|0:0,0:0:0:0:
360,56,53158,2,0,P|396:92|412:224,1,170,2|12,0:0|0:0,0:0:0:0:
340,272,53856,1,0,0:0:0:0:
204,192,54088,2,0,L|112:192,2,85,6|0|8,0:0|0:0|0:0,0:0:0:0:
304,180,54786,1,0,0:0:0:0:
396,140,55018,2,0,P|440:168|464:220,2,85,2|0|12,0:0|0:0|0:0,0:0:0:0:
312,84,55716,1,0,0:0:0:0:
176,108,55949,6,0,P|124:128|24:68,1,170,6|8,0:0|0:0,0:0:0:0:
116,28,56646,2,0,P|184:8|264:64,1,170
256,160,57344,1,12,0:0:0:0:
340,220,57577,2,0,P|404:216|464:112,1,170,2|0,0:0|0:0,0:0:0:0:
364,120,58274,2,0,L|360:32,1,85,8|0,0:0|0:0,0:0:0:0:
188,36,58739,1,6,0:0:0:0:
96,80,58972,1,0,0:0:0:0:
184,132,59204,1,8,0:0:0:0:
276,88,59437,1,0,0:0:0:0:
356,152,59670,6,0,P|376:200|356:328,2,170,4|2|8,0:0|0:0|0:0,0:0:0:0:
356,152,60832,1,0,0:0:0:0:
152,152,61298,2,0,P|132:200|152:328,2,170,2|0|0,0:0|0:0|0:0,0:0:0:0:
152,152,62460,1,8,0:0:0:0:
256,328,62925,1,0,0:0:0:0:
256,124,63391,5,2,0:0:0:0:
440,40,63856,2,0,P|480:68|508:192,1,170,0|8,0:0|0:0,0:0:0:0:
436,248,64553,1,0,0:0:0:0:
232,224,65018,2,0,B|160:208|96:236|96:236|48:200,1,170,2|0,0:0|0:0,0:0:0:0:
12,136,65716,2,0,L|48:44,1,85,0|2,0:0|0:0,0:0:0:0:
144,44,66181,2,0,P|180:68|300:40,1,170,8|0,0:0|0:0,0:0:0:0:
464,100,67111,5,0,0:0:0:0:
440,180,67344,2,0,L|464:252,2,63.7500024318696
388,124,68042,2,0,P|324:140|280:196,1,127.500004863739
396,288,68972,2,0,P|457:273|484:228,2,95.6250036478044,0|0|0,0:0|0:0|0:0,0:0:0:0:
324,264,69902,1,0,0:0:0:0:
252,288,70135,1,0,0:0:0:0:
180,264,70367,2,0,P|128:228|120:204,1,63.7500024318696,2|2,0:0|0:0,0:0:0:0:
128,144,70832,5,2,0:0:0:0:
192,88,71065,2,0,L|276:88,2,85,0|2|0,0:0|0:0|0:0,0:0:0:0:
80,60,71763,2,0,P|32:144|64:216,1,170,2|2,0:0|0:0,0:0:0:0:
124,256,72460,1,0,0:0:0:0:
224,232,72693,2,0,P|272:220|356:232,2,127.5,2|0|0,0:0|0:0|0:0,0:0:0:0:
192,328,73623,2,0,B|224:352|224:352|296:352,1,85,2|0,0:0|0:0,0:0:0:0:
408,328,74088,2,0,B|376:304|376:304|304:304,1,85,0|2,0:0|0:0,0:0:0:0:
224,232,74553,5,2,0:0:0:0:
176,160,74786,2,0,P|164:104|180:60,1,85,0|2,0:0|0:0,0:0:0:0:
252,60,75251,1,0,0:0:0:0:
336,68,75484,2,0,P|352:132|332:248,1,170,2|2,0:0|0:0,0:0:0:0:
280,296,76181,1,0,0:0:0:0:
152,268,76414,2,0,B|96:256|60:280|60:280|16:256,2,127.5,2|0|0,0:0|0:0|0:0,0:0:0:0:
280,296,77344,2,0,L|372:328,1,85,2|0,0:0|0:0,0:0:0:0:
444,316,77809,1,2,0:0:0:0:
484,240,78042,1,0,0:0:0:0:
296,44,78507,5,0,0:0:0:0:
232,100,78739,1,2,0:0:0:0:
252,184,78972,1,0,0:0:0:0:
372,228,79204,2,0,P|400:192|409:47,1,170,2|2,0:0|0:0,0:0:0:0:
296,44,79902,1,2,0:0:0:0:
232,100,80135,2,0,P|160:116|60:96,1,170,2|2,0:0|0:0,0:0:0:0:
24,28,80832,1,0,0:0:0:0:
8,156,81065,2,0,L|8:292,2,127.5,2|0|0,0:0|0:0|0:0,0:0:0:0:
24,28,81995,6,0,B|72:12|104:44|168:20,1,127.500004863739,2|0,0:0|0:0,0:0:0:0:
228,24,82693,2,0,P|252:76|224:152,1,127.500004863739,2|0,0:0|0:0,0:0:0:0:
172,184,83391,1,8,0:0:0:0:
156,260,83623,1,2,0:0:0:0:
208,316,83856,2,0,P|256:324|316:308,2,95.6250036478044,2|2|2,0:0|0:0|0:0,0:0:0:0:
156,260,84786,2,0,P|108:252|48:268,2,95.6250036478044,0|0|0,0:0|0:0|0:0,0:0:0:0:
301,314,85716,6,0,P|324:272|304:184,1,127.500004863739,2|0,0:0|0:0,0:0:0:0:
244,160,86414,1,2,0:0:0:0:
168,144,86646,2,0,P|154:82|179:25,1,127.500004863739,0|8,0:0|0:0,0:0:0:0:
256,24,87344,1,0,0:0:0:0:
332,24,87577,2,0,L|428:24,2,95.6250036478044,2|2|2,0:0|0:0|0:0,0:0:0:0:
292,92,88507,2,0,L|292:180,1,63.7500024318696,2|0,0:0|0:0,0:0:0:0:
340,216,88972,2,0,L|340:304,1,63.7500024318696,8|0,0:0|0:0,0:0:0:0:
436,356,89437,6,0,P|468:328|476:224,1,127.500004863739,2|0,0:0|0:0,0:0:0:0:
428,196,90135,1,2,0:0:0:0:
380,136,90367,2,0,P|380:72|444:16,1,127.500004863739,2|8,0:0|0:0,0:0:0:0:
492,48,91065,1,2,0:0:0:0:
456,116,91298,2,0,L|308:116,1,127.500004863739,2|0,0:0|0:0,0:0:0:0:
256,92,91995,1,2,0:0:0:0:
184,124,92228,2,0,P|164:160|172:228,2,95.6250036478044,2|2|2,0:0|0:0|0:0,0:0:0:0:
128,68,93158,6,0,B|84:68|64:56|64:56|32:84|32:128,1,127.500004863739,2|8,0:0|0:0,0:0:0:0:
56,180,93856,1,2,0:0:0:0:
92,248,94088,2,0,P|104:296|88:344,2,95.6250036478044,2|2|2,0:0|0:0|0:0,0:0:0:0:
56,180,95018,2,0,L|128:148,1,63.7500024318696,2|2,0:0|0:0,0:0:0:0:
184,184,95484,2,0,L|256:152,1,63.7500024318696,10|2,0:0|0:0,0:0:0:0:
320,160,95949,2,0,L|378:185,1,63.7500024318696,2|2,0:0|0:0,0:0:0:0:
452,160,96414,2,0,L|510:185,1,63.7500024318696,2|2,0:0|0:0,0:0:0:0:
512,288,96879,6,0,P|488:324|432:344,1,85,6|0,0:0|0:0,0:0:0:0:
356,304,97344,2,0,P|308:292|260:300,1,85,8|0,0:0|0:0,0:0:0:0:
180,336,97809,2,0,P|132:344|36:268,1,170,2|12,0:0|0:0,0:0:0:0:
68,180,98507,1,0,0:0:0:0:
144,112,98739,2,0,P|188:104|236:116,1,85,6|0,0:0|0:0,0:0:0:0:
252,216,99204,2,0,P|312:176|328:76,1,170,8|2,0:0|0:0,0:0:0:0:
252,20,99902,1,0,0:0:0:0:
100,36,100135,2,0,P|64:80|60:124,1,85,14|2,0:0|0:0,0:0:0:0:
128,184,100600,6,0,P|152:232|100:348,1,170,6|8,0:0|0:0,0:0:0:0:
56,256,101298,2,0,L|240:292,1,170
316,324,101995,1,12,0:0:0:0:
440,280,102228,2,0,P|472:228|440:96,1,170
368,84,102925,1,8,0:0:0:0:
268,108,103158,1,0,0:0:0:0:
204,188,103391,2,0,L|120:148,1,85,6|0,0:0|0:0,0:0:0:0:
176,280,103856,2,0,L|92:288,1,85,8|0,0:0|0:0,0:0:0:0:
24,168,104321,6,0,P|12:116|28:76,1,85,4|0,0:0|0:0,0:0:0:0:
112,44,104786,2,0,P|124:96|108:136,1,85,8|0,0:0|0:0,0:0:0:0:
92,224,105251,2,0,L|92:316,1,85,2|0,0:0|0:0,0:0:0:0:
240,344,105716,1,12,0:0:0:0:
336,312,105949,1,0,0:0:0:0:
436,332,106181,2,0,P|488:316|512:276,1,85,6|0,0:0|0:0,0:0:0:0:
464,200,106646,2,0,P|412:216|388:256,1,85,8|0,0:0|0:0,0:0:0:0:
336,312,107111,5,2,0:0:0:0:
240,344,107344,1,0,0:0:0:0:
140,320,107577,2,0,P|92:280|80:232,1,85,12|0,0:0|0:0,0:0:0:0:
147,180,108042,2,0,P|156:138|146:97,2,85,6|0|8,0:0|0:0|0:0,0:0:0:0:
68,96,108739,2,0,P|108:28|208:48,1,170
268,96,109437,1,12,0:0:0:0:
272,200,109670,6,0,P|284:240|404:284,1,170,2|0,0:0|0:0,0:0:0:0:
468,220,110367,2,0,L|468:124,1,85,8|0,0:0|0:0,0:0:0:0:
388,72,110832,1,6,0:0:0:0:
388,72,110949,1,8,0:0:0:0:
388,72,111065,1,0,0:0:0:0:
268,96,111298,2,0,L|176:100,2,85,8|0|2,0:0|0:0|0:0,0:0:0:0:
44,100,126646,6,0,P|76:84|120:84,1,63.7500024318696,2|0,0:0|0:0,0:0:0:0:
180,84,127111,1,0,0:0:0:0:
252,108,127344,2,0,P|304:164|308:240,1,127.500004863739
308,288,128042,1,0,0:0:0:0:
352,348,128274,1,0,0:0:0:0:
436,256,128507,2,0,P|456:212|456:176,1,63.7500024318696,2|0,0:0|0:0,0:0:0:0:
440,124,128972,1,0,0:0:0:0:
380,76,129204,2,0,B|332:80|284:60|284:60|228:72,1,127.500004863739,2|0,0:0|0:0,0:0:0:0:
188,104,129902,1,0,0:0:0:0:
144,168,130135,1,0,0:0:0:0:
192,280,130367,6,0,P|204:252|200:212,1,63.7500024318696,2|0,0:0|0:0,0:0:0:0:
144,168,130832,1,0,0:0:0:0:
72,192,131065,2,0,P|48:228|64:328,1,127.500004863739
116,352,131763,2,0,L|200:356,1,63.7500024318696
256,336,132228,1,2,0:0:0:0:
332,332,132460,1,0,0:0:0:0:
408,352,132693,1,0,0:0:0:0:
484,352,132925,2,0,P|512:296|496:228,1,127.500004863739,2|0,0:0|0:0,0:0:0:0:
452,176,133623,2,0,L|376:152,1,63.7500024318696
260,168,134088,6,0,L|320:187,1,63.7500024318696,2|0,0:0|0:0,0:0:0:0:
392,156,134553,1,0,0:0:0:0:
368,84,134786,2,0,P|336:48|248:32,1,127.500004863739
192,64,135484,2,0,L|116:60,1,63.7500024318696
88,124,135949,2,0,L|4:120,2,63.7500024318696,2|0|0,0:0|0:0|0:0,0:0:0:0:
148,168,136646,2,0,P|208:188|284:168,1,127.500004863739,2|0,0:0|0:0,0:0:0:0:
328,124,137344,1,0,0:0:0:0:
404,108,137577,1,0,0:0:0:0:
484,200,137809,6,0,P|500:244|492:280,1,63.7500024318696,2|0,0:0|0:0,0:0:0:0:
456,324,138274,1,0,0:0:0:0:
380,340,138507,1,0,0:0:0:0:
308,308,138739,1,2,0:0:0:0:
296,232,138972,1,0,0:0:0:0:
336,168,139204,1,2,0:0:0:0:
412,160,139437,1,2,0:0:0:0:
256,192,139670,12,0,140832,0:0:0:0:
256,192,141530,12,4,143391,0:0:0:0:
280,96,143856,6,0,P|288:152|268:192,1,85,8|0,0:0|0:0,0:0:0:0:
184,212,144321,2,0,P|180:272|256:352,1,170,2|12,0:0|0:0,0:0:0:0:
348,324,145018,1,0,0:0:0:0:
472,256,145251,2,0,L|472:156,1,85,6|0,0:0|0:0,0:0:0:0:
376,236,145716,2,0,P|352:180|248:116,1,170,8|2,0:0|0:0,0:0:0:0:
168,148,146414,1,0,0:0:0:0:
72,116,146646,2,0,P|60:68|72:12,2,85,14|2|6,0:0|0:0|0:0,0:0:0:0:
88,216,147344,5,0,0:0:0:0:
184,248,147577,1,8,0:0:0:0:
280,216,147809,2,0,P|356:204|452:220,1,170
496,308,148507,1,12,0:0:0:0:
324,296,148739,2,0,P|300:252|320:116,1,170
392,32,149437,2,0,L|484:32,1,85,8|0,0:0|0:0,0:0:0:0:
312,52,149902,2,0,L|227:52,1,85,6|0,0:0|0:0,0:0:0:0:
136,96,150367,1,8,0:0:0:0:
112,320,150832,6,0,P|136:268|128:220,1,85,4|0,0:0|0:0,0:0:0:0:
64,168,151298,1,8,0:0:0:0:
136,96,151530,1,0,0:0:0:0:
236,124,151763,2,0,P|284:120|336:132,1,85,2|0,0:0|0:0,0:0:0:0:
324,272,152228,1,12,0:0:0:0:
424,284,152460,1,0,0:0:0:0:
416,184,152693,2,0,P|408:128|424:84,1,85,6|0,0:0|0:0,0:0:0:0:
480,24,153158,1,8,0:0:0:0:
480,24,153391,1,0,0:0:0:0:
380,36,153623,2,0,L|268:40,1,85,2|0,0:0|0:0,0:0:0:0:
236,124,154088,2,0,L|151:120,1,85,12|0,0:0|0:0,0:0:0:0:
48,112,154553,6,0,P|16:160|40:276,1,170,6|8,0:0|0:0,0:0:0:0:
220,280,155251,2,0,P|252:232|228:116,1,170
140,164,155949,1,12,0:0:0:0:
120,48,156181,2,0,P|172:24|300:48,1,170,2|0,0:0|0:0,0:0:0:0:
372,80,156879,2,0,L|380:168,1,85,8|0,0:0|0:0,0:0:0:0:
464,256,157344,2,0,L|456:171,1,85,6|0,0:0|0:0,0:0:0:0:
372,80,157809,1,8,0:0:0:0:
208,196,158274,6,0,L|224:296,1,85,4|0,0:0|0:0,0:0:0:0:
292,204,158739,2,0,L|278:120,1,85,8|0,0:0|0:0,0:0:0:0:
188,72,159204,2,0,L|92:68,2,85,2|0|12,0:0|0:0|0:0,0:0:0:0:
284,32,159902,1,0,0:0:0:0:
384,52,160135,2,0,P|424:80|440:128,1,85,6|0,0:0|0:0,0:0:0:0:
384,264,160600,2,0,P|336:228|316:124,1,170,8|2,0:0|0:0,0:0:0:0:
384,52,161298,1,0,0:0:0:0:
284,32,161530,2,0,L|184:32,1,85,14|2,0:0|0:0,0:0:0:0:
88,128,161995,6,0,P|80:184|96:224,2,85,6|0|8,0:0|0:0|0:0,0:0:0:0:
168,256,162693,2,0,P|104:300|20:272,1,170
0,176,163391,1,12,0:0:0:0:
88,128,163623,2,0,P|144:112|264:136,1,170
388,196,164321,2,0,P|424:164|440:120,1,85,8|0,0:0|0:0,0:0:0:0:
400,36,164786,2,0,P|364:68|348:112,1,85,6|0,0:0|0:0,0:0:0:0:
388,196,165251,1,8,0:0:0:0:
379,360,165716,6,0,L|287:364,1,85,4|0,0:0|0:0,0:0:0:0:
204,316,166181,2,0,L|112:308,1,85,8|0,0:0|0:0,0:0:0:0:
27,265,166646,2,0,P|3:185|41:112,1,170,2|12,0:0|0:0,0:0:0:0:
144,112,167344,1,0,0:0:0:0:
248,112,167577,2,0,L|296:36,1,85,6|0,0:0|0:0,0:0:0:0:
440,40,168042,2,0,L|328:216,1,170,8|2,0:0|0:0,0:0:0:0:
252,220,168739,1,0,0:0:0:0:
152,240,168972,2,0,L|96:236,2,42.5,14|0|0,0:0|0:0|0:0,0:0:0:0:
224,312,169437,6,0,P|284:312|324:280,1,85,6|0,0:0|0:0,0:0:0:0:
344,208,169902,1,8,0:0:0:0:
416,64,170135,2,0,P|440:104|436:240,1,170
344,208,170832,1,12,0:0:0:0:
264,144,171065,2,0,P|220:136|96:144,1,170,2|0,0:0|0:0,0:0:0:0:
32,304,171763,2,0,L|32:208,1,85,8|0,0:0|0:0,0:0:0:0:
96,60,172228,2,0,L|96:164,1,85,6|0,0:0|0:0,0:0:0:0:
152,260,172693,1,8,0:0:0:0:
248,224,172925,1,0,0:0:0:0:
352,228,173158,6,0,P|400:240|436:276,2,85,2|0|2,0:0|0:0|0:0,0:0:0:0:
248,224,173856,2,0,P|212:172|224:56,1,170
316,52,174553,1,2,0:0:0:0:
216,68,174786,1,0,0:0:0:0:
120,36,175018,2,0,P|72:28|8:44,2,85,2|0|2,0:0|0:0|0:0,0:0:0:0:
116,140,175716,2,0,B|144:200|108:268|108:268|136:312,1,170
200,356,176414,1,2,0:0:0:0:
264,288,176646,1,2,0:0:0:0:
324,360,176879,6,0,L|424:356,1,85,2|0,0:0|0:0,0:0:0:0:
504,348,177344,1,2,0:0:0:0:
500,248,177577,2,0,P|512:200|472:84,1,170
384,72,178274,2,0,L|336:48,2,42.5,2|0|0,0:0|0:0|0:0,0:0:0:0:
356,160,178739,1,2,0:0:0:0:
268,192,178972,1,0,0:0:0:0:
188,144,179204,1,2,0:0:0:0:
128,72,179437,2,0,P|76:96|44:228,1,170,0|2,0:0|0:0,0:0:0:0:
105,269,180135,1,2,0:0:0:0:
125,273,180251,1,2,0:0:0:0:
145,278,180367,1,2,0:0:0:0:
165,283,180484,1,2,0:0:0:0:
184,288,180600,6,0,L|276:288,1,85,2|0,0:0|0:0,0:0:0:0:
356,324,181065,1,2,0:0:0:0:
444,292,181298,2,0,P|476:248|472:128,1,170
404,40,181995,2,0,P|388:100|412:152,1,85,2|0,0:0|0:0,0:0:0:0:
340,196,182460,2,0,P|300:180|264:128,2,85,2|0|2,0:0|0:0|0:0,0:0:0:0:
404,264,183158,2,0,B|336:308|280:264|280:264|236:268,1,170
180,104,183856,2,0,L|192:208,1,85,2|2,0:0|0:0,0:0:0:0:
136,264,184321,5,2,0:0:0:0:
44,272,184553,1,2,0:0:0:0:
4,188,184786,1,2,0:0:0:0:
52,108,185018,1,2,0:0:0:0:
180,104,185251,2,0,L|268:104,1,85,2|2,0:0|0:0,0:0:0:0:
340,8,185716,2,0,L|255:8,1,85,2|2,0:0|0:0,0:0:0:0:
180,104,186181,5,2,0:0:0:0:
200,196,186414,1,2,0:0:0:0:
284,240,186646,1,2,0:0:0:0:
376,224,186879,1,2,0:0:0:0:
432,152,187111,2,0,P|444:88|404:40,1,127.5,2|2,0:0|0:0,0:0:0:0:
360,52,187577,2,0,P|308:60|252:40,1,85,2|2,0:0|0:0,0:0:0:0:
