osu file format v12

[General]
AudioFilename: w7tbzHosfuG2.128.mp3
AudioLeadIn: 2000
PreviewTime: 167064
Countdown: 0
SampleSet: Soft
StackLeniency: 0.7
Mode: 0
LetterboxInBreaks: 1
StoryFireInFront: 0
EpilepsyWarning: 1
WidescreenStoryboard: 1

[Editor]
DistanceSpacing: 0.9
BeatDivisor: 4
GridSize: 4

[Metadata]
Title:Sentimental Love
TitleUnicode:センチメンタルラブ
Artist:mimimemeMIMI
ArtistUnicode:みみめめMIMI
Creator:Tari
Version:Normal
Source:Kimi no Iru Machi
Tags:a town where you live 君のいる町 opening tsukuyomi baldrace eyecandy yuka DJNightmare
BeatmapID:316259
BeatmapSetID:123956

[Difficulty]
HPDrainRate:3
CircleSize:3
OverallDifficulty:3
ApproachRate:4
SliderMultiplier:1.15
SliderTickRate:2

[Events]
//Background and Video events
0,0,"resize.png",0,0
//Break Periods
2,212281,224874
2,234890,240092
//Storyboard Layer 0 (Background)
//Storyboard Layer 1 (Fail)
//Storyboard Layer 2 (Pass)
//Storyboard Layer 3 (Foreground)
//Storyboard Sound Samples
//Background Colour Transformations
3,100,163,162,255

[TimingPoints]
978,434.782608695652,4,2,1,40,1,0
7934,-100,4,2,1,55,0,0
14021,-100,4,2,1,40,0,0
15760,434.782608695652,4,2,1,65,1,0
15760,-100,4,2,1,65,0,0
19238,-100,4,2,2,65,0,0
19346,-100,4,2,1,65,0,0
27933,-100,4,2,2,65,0,0
28042,-100,4,2,1,65,0,0
29673,-100,4,2,1,60,0,0
33151,-100,4,2,2,60,0,0
33259,-100,4,2,1,60,0,0
38368,-100,4,2,2,60,0,0
38477,-100,4,2,1,60,0,0
40107,-100,4,2,2,60,0,0
40216,-100,4,2,1,60,0,0
43586,-100,4,2,2,60,0,0
43694,-100,4,2,1,60,0,0
47064,-100,4,2,2,60,0,0
47173,-100,4,2,1,60,0,0
50542,-100,4,2,1,70,0,0
52716,-100,4,2,3,70,0,0
52825,-100,4,2,1,70,0,0
59673,-100,4,2,3,70,0,0
59781,-100,4,2,1,70,0,0
64455,-100,4,2,2,70,0,0
64564,-100,4,2,1,70,0,0
65759,-100,4,2,3,70,0,0
65868,-100,4,2,1,70,0,0
68368,-100,4,2,3,70,0,0
68477,-100,4,2,1,70,0,0
71412,-100,4,2,2,65,0,0
71520,-100,4,2,1,70,0,0
74890,-100,4,2,1,65,0,0
79890,-100,4,2,1,45,0,0
81303,-100,4,2,1,65,0,0
88803,-100,4,2,1,75,0,1
89238,-100,4,2,3,75,0,1
89346,-100,4,2,1,75,0,1
90977,-100,4,2,3,75,0,1
91086,-100,4,2,1,75,0,1
94455,-100,4,2,3,75,0,1
94564,-100,4,2,1,75,0,1
97933,-100,4,2,3,75,0,1
98042,-100,4,2,1,75,0,1
108368,-100,4,2,3,75,0,1
108477,-100,4,2,1,75,0,1
111846,-100,4,2,3,75,0,1
111955,-100,4,2,1,75,0,1
113586,-100,4,2,3,75,0,1
113694,-100,4,2,1,75,0,1
116629,-100,4,2,1,65,0,0
130542,-100,4,2,1,60,0,0
132716,-100,4,2,3,60,0,0
132825,-100,4,2,1,60,0,0
134020,-100,4,2,2,60,0,0
134129,-100,4,2,1,60,0,0
137499,-100,4,2,2,60,0,0
137607,-100,4,2,1,60,0,0
140977,-100,4,2,2,60,0,0
141086,-100,4,2,1,60,0,0
144455,-100,4,2,1,40,0,0
144564,-100,4,2,1,60,0,0
145759,-100,4,2,3,60,0,0
145868,-100,4,2,1,60,0,0
147933,-100,4,2,2,60,0,0
148042,-100,4,2,1,60,0,0
148368,-100,4,2,3,60,0,0
148477,-100,4,2,1,60,0,0
153151,-100,4,2,1,65,0,0
167064,-100,4,2,1,70,0,1
167499,-100,4,2,3,75,0,1
167607,-100,4,2,1,75,0,1
169238,-100,4,2,3,75,0,1
169346,-100,4,2,1,75,0,1
172716,-100,4,2,3,75,0,1
172825,-100,4,2,1,75,0,1
176194,-100,4,2,3,75,0,1
176303,-100,4,2,1,75,0,1
186629,-100,4,2,3,75,0,1
186738,-100,4,2,1,75,0,1
190107,-100,4,2,3,75,0,1
190216,-100,4,2,1,75,0,1
191846,-100,4,2,3,75,0,1
191955,-100,4,2,1,75,0,1
194890,-100,4,2,1,50,0,0
198368,-100,4,2,2,50,0,0
198477,-100,4,2,1,50,0,0
203586,-100,4,2,2,50,0,0
203694,-100,4,2,1,50,0,0
208803,-100,4,2,1,55,0,0
210107,-100,4,2,1,30,0,0
210542,-100,4,2,1,40,0,0
211846,-100,4,2,1,20,0,0
225107,-100,4,2,1,55,0,0
227716,-100,4,2,3,55,0,0
227825,-100,4,2,1,55,0,0
229673,-100,4,2,1,55,0,0
230977,-100,4,2,1,40,0,0
241412,-100,4,3,1,60,0,0
246955,-100,4,2,1,60,0,0
248803,-100,4,2,1,70,0,1
249238,-100,4,2,3,75,0,1
249346,-100,4,2,1,75,0,1
250977,-100,4,2,3,75,0,1
251086,-100,4,2,1,75,0,1
254455,-100,4,2,3,75,0,1
254564,-100,4,2,1,75,0,1
257933,-100,4,2,3,75,0,1
258042,-100,4,2,1,75,0,1
259673,-100,4,2,3,75,0,1
259781,-100,4,2,1,75,0,1
262716,-100,4,2,1,65,0,0

[Colours]
Combo1 : 255,98,255
Combo2 : 0,158,234
Combo3 : 136,136,255
Combo4 : 255,60,60

[HitObjects]
256,192,543,1,0,0:0:0:0:
196,108,978,2,0,P|128:128|32:92,2,172.5,2|0|0,0:0|0:0|0:0,0:0:0:0:
256,192,2717,2,0,P|314:232|346:329,2,172.5,2|0|0,0:0|0:0|0:0,0:0:0:0:
176,252,4456,5,2,0:0:0:0:
76,224,4891,2,0,P|52:180|60:116,2,115,0|2|0,0:0|0:0|0:0,0:0:0:0:
152,152,6195,2,0,P|240:76|332:128,1,230,2|2,0:0|0:0,0:0:0:0:
248,188,7499,1,0,0:0:0:0:
340,236,7934,6,0,P|426:175|419:59,1,230,2|2,0:0|0:0,0:0:0:0:
336,124,9238,1,0,0:0:0:0:
248,188,9673,2,0,P|224:280|288:340,2,172.5,2|0|2,0:0|0:0|0:0,0:0:0:0:
336,124,11412,5,0,1:0:0:0:
256,60,11847,1,0,1:0:0:0:
172,124,12282,1,0,1:1:0:0:
204,224,12717,1,0,1:0:0:0:
308,224,13151,1,4,0:0:0:0:
128,332,14021,6,0,B|140:264|84:228|36:192|56:112,1,230
252,40,15760,6,0,P|309:50|348:96,1,115,4|8,0:0|0:0,0:0:0:0:
256,144,16629,1,0,3:0:0:0:
164,100,17064,1,8,0:0:0:0:
68,76,17499,2,0,P|19:107|6:165,1,115,2|8,0:0|0:0,0:0:0:0:
108,176,18368,2,0,L|116:308,1,115,2|8,0:0|0:0,0:0:0:0:
220,300,19238,5,6,0:0:0:0:
324,316,19673,1,8,0:0:0:0:
400,252,20107,2,0,P|432:280|512:264,1,115,0|8,3:0|0:0,0:0:0:0:
464,176,20977,6,0,L|472:60,1,115,2|8,0:0|0:0,0:0:0:0:
364,56,21846,1,2,0:0:0:0:
308,144,22281,1,0,0:0:0:0:
220,92,22716,6,0,P|200:152|236:216,1,115,4|8,0:0|0:0,0:0:0:0:
308,144,23586,1,0,3:0:0:0:
360,232,24020,1,8,0:0:0:0:
272,288,24455,2,0,P|225:307|160:280,2,115,2|8|2,0:0|0:0|0:0,0:0:0:0:
364,336,25759,1,8,0:0:0:0:
448,276,26194,6,0,P|464:216|436:160,1,115,2|8,0:0|0:0,0:0:0:0:
408,72,27064,1,0,3:0:0:0:
308,104,27499,1,8,0:0:0:0:
204,104,27933,1,6,0:0:0:0:
104,72,28368,1,8,0:0:0:0:
104,176,28803,2,0,L|172:268,1,115,2|0,0:0|0:0,0:0:0:0:
256,328,29673,5,4,0:0:0:0:
328,252,30107,2,0,P|384:152|324:64,1,230,0|0,0:0|0:0,0:0:0:0:
224,64,31412,2,0,L|52:64,2,172.5,2|0|0,0:0|0:0|0:0,0:0:0:0:
232,168,33151,6,0,P|192:220|132:224,1,115,6|0,0:0|0:0,0:0:0:0:
56,276,34020,2,0,P|96:328|156:332,1,115,2|0,0:0|0:0,0:0:0:0:
244,308,34890,1,2,0:0:0:0:
328,244,35325,2,0,L|447:226,1,115,0|8,0:0|0:0,0:0:0:0:
392,136,36194,5,0,0:0:0:0:
288,128,36629,2,0,L|168:108,2,115,2|0|2,0:0|0:0|0:0,0:0:0:0:
392,136,37933,1,0,0:0:0:0:
442,227,38368,1,6,0:0:0:0:
428,328,38803,2,0,P|380:360|324:348,1,115,0|2,0:0|0:0,0:0:0:0:
256,276,39673,1,0,0:0:0:0:
180,348,40107,6,0,P|92:336|52:192,1,230,6|2,0:0|0:0,0:0:0:0:
88,124,41412,2,0,P|152:96|204:104,1,115,0|0,0:0|3:0,0:0:0:0:
256,184,42281,1,0,0:0:0:0:
316,100,42716,2,0,P|373:98|424:124,1,115,0|0,0:0|3:0,0:0:0:0:
469,216,43586,6,0,P|438:321|332:348,1,230,6|2,0:0|0:0,0:0:0:0:
256,276,44890,1,0,0:0:0:0:
156,256,45325,2,0,P|148:200|164:140,1,115,2|0,0:0|0:0,0:0:0:0:
204,48,46194,1,2,0:0:0:0:
308,48,46629,1,0,0:0:0:0:
392,108,47064,6,0,P|413:191|399:275,2,172.5,6|0|0,0:0|0:0|0:0,0:0:0:0:
308,48,48803,2,0,L|292:164,1,115,2|0,0:0|0:0,0:0:0:0:
272,264,49673,1,0,0:0:0:0:
244,364,50107,1,0,0:0:0:0:
172,288,50542,5,4,0:0:0:0:
156,184,50977,2,0,P|180:104|320:52,1,230,8|8,0:0|0:0,0:0:0:0:
360,140,52281,2,0,P|392:208|496:216,2,172.5,2|0|8,0:0|0:0|0:0,0:0:0:0:
460,120,54020,5,2,0:0:0:0:
404,32,54455,2,0,P|340:20|284:60,1,115,8|2,0:0|0:0,0:0:0:0:
216,124,55325,1,8,0:0:0:0:
124,176,55759,2,0,B|72:152|56:148|56:148|12:168,2,115,0|8|0,0:0|0:0|3:0,0:0:0:0:
164,272,57064,1,8,0:0:0:0:
256,316,57499,6,0,L|380:348,1,115,2|8,0:0|0:0,0:0:0:0:
436,264,58368,2,0,L|324:235,1,115,0|8,0:0|0:0,0:0:0:0:
236,184,59238,2,0,P|228:92|316:144,1,230,2|0,0:0|0:0,0:0:0:0:
325,235,60542,1,8,0:0:0:0:
256,316,60977,5,2,0:0:0:0:
152,304,61412,2,0,P|112:264|48:280,1,115,8|2,0:0|0:0,0:0:0:0:
24,176,62281,1,8,0:0:0:0:
116,132,62716,2,0,B|156:91|165:77|165:77|161:29,2,115,0|8|0,0:0|0:0|0:0,0:0:0:0:
204,188,64020,1,8,0:0:0:0:
308,200,64455,6,0,L|432:184,1,115,6|8,0:0|0:0,0:0:0:0:
444,84,65325,2,0,L|252:112,2,172.5,0|2|8,0:0|0:0|0:0,0:0:0:0:
422,185,67064,1,0,0:0:0:0:
472,276,67499,1,8,0:0:0:0:
388,336,67933,6,0,B|336:288|268:332|268:332|288:272|248:216,1,230,2|0,0:0|0:0,0:0:0:0:
172,288,69238,2,0,L|56:268,1,115,8|0,0:0|0:0,0:0:0:0:
124,188,70107,2,0,L|240:156,2,115,8|0|8,0:0|0:0|0:0,0:0:0:0:
64,100,71412,5,6,0:0:0:0:
168,84,71846,1,8,0:0:0:0:
256,28,72281,1,2,0:0:0:0:
344,84,72716,1,8,0:0:0:0:
448,100,73151,2,0,B|500:120|504:224|440:244,2,172.5,0|2|0,3:0|0:0|0:0,0:0:0:0:
344,84,74890,6,0,L|232:232,2,172.5,4|2|0,0:0|0:0|0:0,0:0:0:0:
244,56,76629,2,0,P|184:104|120:40,2,172.5,4|0|4,3:0|1:0|3:0,0:0:0:0:
344,84,78368,5,4,0:0:0:0:
456,188,79020,2,0,L|480:320,1,115,0|0,1:0|0:0,0:0:0:0:
384,348,79890,2,0,P|348:336|336:256,1,115,4|4,0:0|0:0,0:0:0:0:
228,260,80759,2,0,P|236:204|292:168,1,115,4|4,0:0|0:0,0:0:0:0:
204,36,81846,6,0,B|136:-4|100:120|32:80,2,172.5,4|0|8,0:0|0:0|0:0,0:0:0:0:
308,36,83586,2,0,B|376:-4|412:120|480:80,2,172.5,2|0|8,0:0|0:0|0:0,0:0:0:0:
256,124,85325,5,8,0:0:0:0:
176,192,85759,1,8,0:0:0:0:
256,260,86194,1,8,0:0:0:0:
336,192,86629,1,8,0:0:0:0:
348,296,87064,2,0,P|256:352|160:296,1,230,2|2,0:0|0:0,0:0:0:0:
256,260,88368,1,2,0:0:0:0:
336,192,88803,6,0,P|380:108|456:80,2,172.5,4|0|8,0:0|0:0|0:0,0:0:0:0:
236,168,90542,2,0,P|195:82|218:4,2,172.5,2|0|8,0:0|0:0|0:0,0:0:0:0:
136,196,92281,1,2,0:0:0:0:
64,268,92716,2,0,P|20:308|4:368,2,115,8|0|8,0:0|0:0|0:0,0:0:0:0:
156,316,94020,6,0,L|408:328,1,230,2|2,0:0|0:0,0:0:0:0:
476,276,95325,1,8,0:0:0:0:
404,200,95759,2,0,P|392:140|424:84,1,115,4|8,0:0|0:0,0:0:0:0:
500,156,96629,1,2,0:0:0:0:
404,200,97064,1,8,0:0:0:0:
300,184,97499,6,0,B|256:172|220:196|220:196|192:160|216:100,2,172.5,2|0|8,0:0|0:0|0:0,0:0:0:0:
276,284,99238,1,2,0:0:0:0:
376,308,99673,2,0,L|404:188,2,115,8|0|8,0:0|0:0|0:0,0:0:0:0:
276,284,100977,1,2,0:0:0:0:
180,316,101412,2,0,L|57:302,2,115,8|2|8,0:0|3:0|0:0,0:0:0:0:
208,216,102716,5,4,0:0:0:0:
280,288,103151,2,0,P|352:344|488:300,1,230,8|8,0:0|0:0,0:0:0:0:
496,208,104455,1,2,0:0:0:0:
424,136,104890,2,0,P|352:80|216:124,1,230,8|8,0:0|0:0,0:0:0:0:
208,216,106194,5,2,0:0:0:0:
108,244,106629,2,0,P|104:184|108:124,1,115,8|2,0:0|0:0,0:0:0:0:
136,28,107499,1,8,0:0:0:0:
232,64,107933,2,0,B|300:40|344:100|384:152|464:112,1,230,2|0,0:0|3:0,0:0:0:0:
492,212,109238,1,8,0:0:0:0:
396,252,109673,6,0,P|435:291|424:345,1,115,4|8,0:0|0:0,0:0:0:0:
324,316,110542,2,0,P|264:332|244:280,1,115,2|8,0:0|0:0,0:0:0:0:
160,228,111412,2,0,B|152:280|128:328|128:328|56:324,2,172.5,2|0|8,0:0|0:0|0:0,0:0:0:0:
200,132,113151,6,0,P|256:80|320:136,2,172.5,2|0|2,0:0|0:0|0:0,0:0:0:0:
160,228,114890,1,4,0:0:0:0:
256,264,115325,1,8,0:0:0:0:
352,228,115759,2,0,P|412:244|480:212,1,115,0|0,0:0|3:0,0:0:0:0:
408,140,116629,6,0,P|408:80|368:32,1,115,4|8,0:0|0:0,0:0:0:0:
312,116,117499,1,0,3:0:0:0:
256,36,117933,1,8,0:0:0:0:
204,124,118368,2,0,P|168:164|108:172,1,115,2|8,0:0|0:0,0:0:0:0:
116,68,119238,2,0,L|0:56,1,115,2|8,0:0|0:0,0:0:0:0:
24,156,120107,5,2,0:0:0:0:
48,256,120542,1,8,0:0:0:0:
128,324,120977,2,0,L|256:296,1,115,0|8,3:0|0:0,0:0:0:0:
340,332,121846,6,0,P|341:274|319:222,1,115,2|8,0:0|0:0,0:0:0:0:
300,120,122716,1,2,0:0:0:0:
208,68,123151,1,0,0:0:0:0:
116,112,123586,6,0,P|152:156|212:168,1,115,4|8,0:0|0:0,0:0:0:0:
208,68,124455,1,0,3:0:0:0:
296,13,124890,1,8,0:0:0:0:
300,116,125325,2,0,P|316:172|300:224,2,115,2|8|2,0:0|0:0|0:0,0:0:0:0:
208,68,126629,1,8,0:0:0:0:
108,88,127064,6,0,P|56:104|28:172,1,115,2|8,0:0|0:0,0:0:0:0:
68,252,127933,1,0,3:0:0:0:
156,308,128368,1,8,0:0:0:0:
256,328,128803,1,2,0:0:0:0:
356,308,129238,1,8,0:0:0:0:
444,252,129673,2,0,L|432:136,1,115,2|0,0:0|0:0,0:0:0:0:
424,36,130542,5,4,0:0:0:0:
320,48,130977,2,0,L|88:100,1,230,8|8,0:0|0:0,0:0:0:0:
32,180,132281,2,0,P|16:272|80:340,2,172.5,2|0|8,0:0|0:0|0:0,0:0:0:0:
116,240,134020,6,0,L|240:208,1,115,6|8,0:0|0:0,0:0:0:0:
268,304,134890,2,0,L|392:272,1,115,2|8,0:0|0:0,0:0:0:0:
464,220,135759,2,0,B|488:168|488:168|492:104,2,115,0|8|0,0:0|0:0|3:0,0:0:0:0:
388,148,137064,5,8,0:0:0:0:
312,80,137499,2,0,P|280:40|204:28,1,115,6|8,0:0|0:0,0:0:0:0:
220,128,138368,2,0,B|204:184|204:184|148:228,1,115,0|8,0:0|0:0,0:0:0:0:
92,300,139238,1,2,0:0:0:0:
20,228,139673,1,8,0:0:0:0:
12,124,140107,2,0,P|64:100|124:112,1,115,0|8,0:0|0:0,0:0:0:0:
220,128,140977,5,6,0:0:0:0:
308,72,141412,1,8,0:0:0:0:
368,156,141846,2,0,L|384:272,1,115,2|8,0:0|0:0,0:0:0:0:
488,280,142716,2,0,P|468:344|412:364,2,115,0|8|0,0:0|0:0|3:0,0:0:0:0:
468,180,144020,1,8,0:0:0:0:
368,156,144455,6,0,P|304:144|244:172,1,115,4|8,0:0|0:0,0:0:0:0:
220,64,145325,2,0,P|309:35|401:56,2,172.5,0|2|8,0:0|0:0|0:0,0:0:0:0:
120,84,147064,1,0,0:0:0:0:
84,180,147499,1,8,0:0:0:0:
160,248,147933,6,0,B|184:304|240:324|240:324|264:252|348:248,1,230,6|0,0:0|0:0,0:0:0:0:
340,352,149238,1,8,0:0:0:0:
436,308,149673,2,0,P|440:240|432:168,1,115,0|8,0:0|0:0,0:0:0:0:
336,160,150542,2,0,P|332:92|340:20,1,115,0|8,0:0|0:0,0:0:0:0:
232,64,151412,2,0,B|196:26|102:62|96:124,2,172.5,2|2|0,3:0|0:0|0:0,0:0:0:0:
188,156,153151,6,0,L|196:328,2,172.5,4|2|0,0:0|0:0|0:0,0:0:0:0:
276,208,154890,2,0,P|319:265|407:217,2,172.5,4|0|4,3:0|1:0|3:0,0:0:0:0:
304,108,156629,5,4,0:0:0:0:
456,136,157281,2,0,P|492:172|496:248,1,115,0|0,1:0|0:0,0:0:0:0:
460,328,158151,2,0,L|336:288,1,115,4|4,0:0|0:0,0:0:0:0:
268,356,159020,2,0,L|208:240,1,115,4|4,0:0|0:0,0:0:0:0:
204,100,160107,6,0,B|164:156|164:156|132:144|56:180,2,172.5,4|0|8,0:0|0:0|0:0,0:0:0:0:
308,100,161846,2,0,B|348:156|348:156|380:144|456:180,2,172.5,2|0|8,0:0|0:0|0:0,0:0:0:0:
248,184,163586,5,8,0:0:0:0:
184,264,164020,1,8,0:0:0:0:
80,248,164455,1,8,0:0:0:0:
72,144,164890,1,8,0:0:0:0:
168,100,165325,2,0,P|256:36|356:112,1,230,2|2,0:0|0:0,0:0:0:0:
436,144,166629,1,2,0:0:0:0:
356,212,167064,6,0,P|404:244|516:220,2,172.5,4|0|8,0:0|0:0|0:0,0:0:0:0:
252,192,168803,2,0,P|215:237|230:350,2,172.5,2|0|8,0:0|0:0|0:0,0:0:0:0:
320,116,170542,1,2,0:0:0:0:
396,44,170977,2,0,P|420:92|416:156,2,115,8|0|8,0:0|0:0|0:0,0:0:0:0:
320,116,172281,6,0,B|260:96|260:96|200:192|96:152,1,230,2|2,0:0|0:0,0:0:0:0:
16,180,173586,1,8,0:0:0:0:
92,252,174020,2,0,L|208:272,1,115,4|8,0:0|0:0,0:0:0:0:
308,264,174890,1,2,0:0:0:0:
404,212,175325,1,8,0:0:0:0:
504,184,175759,6,0,B|496:152|452:120|452:120|468:64|536:56,2,172.5,2|2|8,0:0|0:0|0:0,0:0:0:0:
404,212,177499,1,2,0:0:0:0:
336,132,177933,2,0,P|282:142|236:88,2,115,8|0|8,0:0|0:0|0:0,0:0:0:0:
404,212,179238,1,2,0:0:0:0:
480,284,179673,2,0,P|472:336|408:356,2,115,8|4|8,0:0|3:0|0:0,0:0:0:0:
504,184,180977,5,4,0:0:0:0:
472,84,181412,2,0,P|408:36|328:136,1,230,8|8,0:0|0:0,0:0:0:0:
256,208,182716,1,2,0:0:0:0:
185,130,183151,2,0,P|134:39|40:84,1,230,8|8,0:0|0:0,0:0:0:0:
8,184,184455,5,2,0:0:0:0:
104,220,184890,2,0,P|116:280|112:344,1,115,8|2,0:0|0:0,0:0:0:0:
216,324,185759,1,8,0:0:0:0:
320,308,186194,2,0,L|288:80,1,230,2|0,0:0|3:0,0:0:0:0:
384,44,187499,5,8,0:0:0:0:
404,144,187933,2,0,L|420:260,2,115,4|8|2,0:0|0:0|0:0,0:0:0:0:
484,76,189238,1,8,0:0:0:0:
384,44,189673,6,0,P|304:28|208:40,2,172.5,2|0|8,0:0|0:0|0:0,0:0:0:0:
484,76,191412,2,0,P|481:161|488:252,2,172.5,2|0|8,0:0|0:0|0:0,0:0:0:0:
396,132,193151,5,4,0:0:0:0:
344,224,193586,1,8,0:0:0:0:
300,316,194020,2,0,L|176:312,1,115,2|0,0:0|0:0,0:0:0:0:
256,192,194890,12,0,197499,0:0:0:0:
192,112,197933,5,8,0:0:0:0:
196,216,198368,2,0,P|256:212|316:216,1,115,6|8,0:0|0:0,0:0:0:0:
376,296,199238,1,0,0:0:0:0:
456,228,199673,1,8,0:0:0:0:
388,152,200107,6,0,P|380:84|384:32,1,115,2|8,0:0|0:0,0:0:0:0:
280,44,200977,2,0,L|164:40,1,115,0|8,3:0|0:0,0:0:0:0:
158,144,201846,6,0,L|388:152,1,230,4|0,0:0|3:0,0:0:0:0:
492,156,203151,1,8,0:0:0:0:
472,256,203586,2,0,B|480:316|480:316|444:356,1,115,6|8,0:0|0:0,0:0:0:0:
340,352,204455,1,0,3:0:0:0:
256,292,204890,1,2,0:0:0:0:
172,352,205325,6,0,L|64:312,1,115,4|2,0:0|0:0,0:0:0:0:
144,244,206194,2,0,L|252:204,1,115,0|4,0:0|0:0,0:0:0:0:
180,132,207064,2,0,L|72:92,2,115,0|8|0,0:0|0:0|0:0,0:0:0:0:
256,60,208368,1,8,0:0:0:0:
308,148,208803,6,0,P|416:248|296:372,1,345,4|0,3:0|0:0,0:0:0:0:
204,372,210542,2,0,P|95:259|204:147,1,345,2|0,0:0|0:0,0:0:0:0:
192,348,226194,5,4,0:0:0:0:
312,248,226846,2,0,B|344:215|388:227|388:227|416:183|464:191,2,172.5,8|0|0,0:0|0:0|3:0,0:0:0:0:
208,248,228586,2,0,B|175:215|131:227|131:227|103:183|55:191,1,172.5,0|0,3:0|0:0,0:0:0:0:
104,100,229673,6,0,B|184:120|256:52|256:52|332:124|424:96,1,345,4|0,3:0|0:0,0:0:0:0:
256,192,231629,12,0,234455,0:0:0:0:
256,104,241412,5,0,0:0:0:0:
256,104,241846,6,0,L|248:232,1,115,4|0,0:0|0:0,0:0:0:0:
340,272,242716,2,0,L|348:152,1,115,0|0,0:0|0:0,0:0:0:0:
448,128,243586,2,0,L|437:304,2,172.5,0|0|0,0:0|0:0|0:0,0:0:0:0:
404,28,245325,5,0,1:0:0:0:
300,24,245759,1,0,1:0:0:0:
200,64,246194,1,0,1:0:0:0:
152,156,246629,1,0,1:0:0:0:
160,260,247064,2,0,L|60:320,2,115,4|0|0,0:0|0:0|0:0,0:0:0:0:
256,300,248368,1,0,0:0:0:0:
348,280,248803,6,0,B|384:256|436:268|436:268|428:324|464:368,2,172.5,4|0|8,0:0|0:0|0:0,0:0:0:0:
344,176,250542,2,0,P|360:112|452:64,2,172.5,2|0|8,0:0|0:0|0:0,0:0:0:0:
280,256,252281,2,0,P|248:304|196:320,1,115,2|8,0:0|0:0,0:0:0:0:
196,216,253151,2,0,P|138:207|102:166,1,115,0|8,0:0|0:0,0:0:0:0:
0,152,254020,6,0,P|56:68|172:100,1,230,2|0,0:0|3:0,0:0:0:0:
256,148,255325,1,8,0:0:0:0:
336,84,255759,1,4,0:0:0:0:
408,156,256194,1,8,0:0:0:0:
328,220,256629,2,0,L|316:334,1,115,2|8,0:0|0:0,0:0:0:0:
212,340,257499,6,0,P|156:364|36:352,2,172.5,2|0|8,0:0|0:0|0:0,0:0:0:0:
312,316,259238,2,0,P|368:292|488:304,2,172.5,4|0|8,0:0|0:0|0:0,0:0:0:0:
256,228,260977,1,0,3:0:0:0:
256,124,261412,1,8,0:0:0:0:
196,40,261846,2,0,P|254:28|325:42,1,115,0|0,0:0|3:0,0:0:0:0:
388,100,262716,5,4,0:0:0:0:
484,140,263151,2,0,P|436:196|380:200,1,115,8|0,0:0|3:0,0:0:0:0:
296,224,264020,1,8,0:0:0:0:
204,180,264455,2,0,L|248:56,1,115,2|8,0:0|0:0,0:0:0:0:
140,72,265325,2,0,L|95:196,1,115,2|8,0:0|0:0,0:0:0:0:
76,280,266194,5,2,0:0:0:0:
160,340,266629,1,8,0:0:0:0:
260,312,267064,2,0,P|320:288|380:300,1,115,0|8,3:0|0:0,0:0:0:0:
460,248,267933,2,0,P|448:192|466:127,1,115,2|8,0:0|0:0,0:0:0:0:
368,89,268803,2,0,P|311:95|260:72,1,115,2|0,0:0|0:0,0:0:0:0:
156,64,269673,5,4,0:0:0:0:
72,128,270107,1,8,0:0:0:0:
108,224,270542,2,0,B|106:279|106:279|88:300|75:331,2,115,0|8|2,3:0|0:0|0:0,0:0:0:0:
212,236,271846,1,8,0:0:0:0:
288,164,272281,2,0,B|289:108|289:108|308:88|320:56,1,115,2|8,0:0|0:0,0:0:0:0:
392,132,273151,5,2,0:0:0:0:
468,204,273586,1,8,0:0:0:0:
404,288,274020,2,0,B|356:324|356:324|304:320,1,115,0|8,3:0|0:0,0:0:0:0:
210,319,274890,2,0,B|156:324|156:324|108:288,1,115,2|8,0:0|0:0,0:0:0:0:
188,224,275759,6,0,B|196:160|256:140|256:140|316:160|324:224,1,230,2|4,0:0|0:0,0:0:0:0:
