osu file format v12

[General]
AudioFilename: w7tbzHosfuG2.128.mp3
AudioLeadIn: 2000
PreviewTime: 167064
Countdown: 0
SampleSet: Soft
StackLeniency: 0.7
Mode: 0
LetterboxInBreaks: 1
StoryFireInFront: 0
EpilepsyWarning: 1
WidescreenStoryboard: 1

[Editor]
Bookmarks: 245332,247071
DistanceSpacing: 1
BeatDivisor: 4
GridSize: 4

[Metadata]
Title:Sentimental Love
TitleUnicode:センチメンタルラブ
Artist:mimimemeMIMI
ArtistUnicode:みみめめMIMI
Creator:Tari
Version:Insane
Source:Kimi no Iru Machi
Tags:a town where you live 君のいる町 opening tsukuyomi baldrace eyecandy yuka DJNightmare
BeatmapID:316258
BeatmapSetID:123956

[Difficulty]
HPDrainRate:7
CircleSize:4
OverallDifficulty:7
ApproachRate:8
SliderMultiplier:2.05
SliderTickRate:2

[Events]
//Background and Video events
0,0,"resize.png",0,0
//Break Periods
2,212281,224346
2,234890,240662
//Storyboard Layer 0 (Background)
//Storyboard Layer 1 (Fail)
//Storyboard Layer 2 (Pass)
//Storyboard Layer 3 (Foreground)
//Storyboard Sound Samples
//Background Colour Transformations
3,100,163,162,255

[TimingPoints]
978,434.782608695652,4,2,1,40,1,0
7934,-100,4,2,1,55,0,0
11412,-100,4,2,1,30,0,0
11630,-100,4,2,1,34,0,0
11847,-100,4,2,1,38,0,0
12064,-100,4,2,1,42,0,0
12282,-100,4,2,1,46,0,0
12499,-100,4,2,1,50,0,0
12717,-100,4,2,1,54,0,0
12934,-100,4,2,1,58,0,0
13151,-100,4,2,1,62,0,0
14021,-133.333333333333,4,2,1,40,0,0
15760,434.782608695652,4,2,1,65,1,0
15760,-100,4,2,1,65,0,0
29673,-100,4,2,1,60,0,0
33151,-100,4,2,2,60,0,0
33259,-100,4,2,1,60,0,0
38368,-100,4,2,2,60,0,0
38477,-100,4,2,1,60,0,0
40107,-100,4,2,2,60,0,0
40216,-100,4,2,1,60,0,0
43586,-100,4,2,2,60,0,0
43694,-100,4,2,1,60,0,0
47064,-100,4,2,2,60,0,0
47173,-100,4,2,1,60,0,0
50542,-100,4,2,1,70,0,0
64455,-100,4,2,2,70,0,0
64564,-100,4,2,1,70,0,0
71412,-100,4,2,2,65,0,0
71520,-100,4,2,1,70,0,0
74238,-100,4,2,1,50,0,0
74890,-100,4,2,1,65,0,0
79890,-100,4,2,1,45,0,0
81303,-100,4,2,1,65,0,0
87064,-100,4,2,1,67,0,0
87499,-100,4,2,1,69,0,0
87933,-100,4,2,1,71,0,0
88368,-100,4,2,1,73,0,0
88803,-100,4,2,1,75,0,1
116629,-100,4,2,1,65,0,0
130542,-100,4,2,1,60,0,0
134020,-100,4,2,2,60,0,0
134129,-100,4,2,1,60,0,0
137499,-100,4,2,2,60,0,0
137607,-100,4,2,1,60,0,0
140977,-100,4,2,2,60,0,0
141086,-100,4,2,1,60,0,0
144455,-100,4,2,1,40,0,0
144564,-100,4,2,1,60,0,0
147933,-100,4,2,2,60,0,0
148042,-100,4,2,1,60,0,0
153151,-100,4,2,1,65,0,0
165325,-100,4,2,1,67,0,0
165759,-100,4,2,1,69,0,0
166194,-100,4,2,1,71,0,0
166629,-100,4,2,1,73,0,0
167064,-100,4,2,1,75,0,1
194890,-100,4,2,1,50,0,0
198368,-100,4,2,2,50,0,0
198477,-100,4,2,1,50,0,0
203586,-100,4,2,2,50,0,0
203694,-100,4,2,1,50,0,0
208803,-200,4,2,1,55,0,0
208912,-100,4,2,1,40,0,0
210107,-100,4,2,1,20,0,0
210542,-200,4,2,1,40,0,0
211846,-200,4,2,1,20,0,0
225107,-100,4,2,1,55,0,0
229673,-200,4,2,1,55,0,0
231629,-200,4,2,1,50,0,0
231738,-100,4,2,1,30,0,0
241412,-100,4,3,1,60,0,0
246955,-100,4,2,1,60,0,0
248803,-100,4,2,1,75,0,1
262716,-100,4,2,1,65,0,0

[Colours]
Combo1 : 255,98,255
Combo2 : 0,158,234
Combo3 : 136,136,255
Combo4 : 255,60,60

[HitObjects]
176,264,543,1,0,0:0:0:0:
176,264,978,6,0,P|132:192|208:80,1,205,2|0,0:0|0:0,0:0:0:0:
320,188,1630,2,0,L|212:180,1,102.5,0|2,0:0|0:0,0:0:0:0:
360,108,2064,2,0,P|408:100|448:152,1,102.5
508,216,2499,1,0,0:0:0:0:
408,316,2717,6,0,P|356:344|272:232,1,205,2|0,0:0|0:0,0:0:0:0:
365,160,3369,2,0,P|341:212|357:264,1,102.5,0|2,0:0|0:0,0:0:0:0:
460,132,3804,2,0,L|448:20,1,102.5
360,80,4238,1,0,0:0:0:0:
256,260,4456,5,2,0:0:0:0:
172,80,4891,2,0,B|124:16|52:44|52:44|0:112,2,205,0|2|0,0:0|0:0|0:0,0:0:0:0:
40,232,6195,2,0,P|56:316|160:348,1,205,2|0,0:0|0:0,0:0:0:0:
256,260,6847,1,0,0:0:0:0:
352,344,7064,2,0,P|400:296|532:320,1,205,2|0,0:0|0:0,0:0:0:0:
488,152,7934,6,0,P|392:140|316:40,1,205,2|0,0:0|0:0,0:0:0:0:
172,68,8586,2,0,L|56:60,1,102.5,0|2,0:0|0:0,0:0:0:0:
104,192,9021,1,0,0:0:0:0:
252,144,9238,2,0,L|228:256,1,102.5,0|0,0:0|0:0,0:0:0:0:
240,348,9673,6,0,L|80:344,2,153.75,2|0|0,0:0|0:0|0:0,0:0:0:0:
340,320,10543,1,0,0:0:0:0:
428,268,10760,1,0,0:0:0:0:
488,184,10977,2,0,L|476:56,1,102.5,2|0,0:0|0:0,0:0:0:0:
376,64,11412,5,0,1:0:0:0:
352,164,11630,1,0,1:0:0:0:
296,68,11847,1,0,1:0:0:0:
272,188,12064,1,0,1:0:0:0:
208,68,12282,1,0,1:1:0:0:
188,212,12499,1,0,1:0:0:0:
120,72,12717,1,0,1:0:0:0:
104,236,12934,1,0,1:0:0:0:
40,72,13151,1,4,2:0:0:0:
60,144,14021,6,0,L|40:320,2,153.750005865097
200,312,15543,5,8,0:0:0:0:
200,312,15651,1,8,0:0:0:0:
200,312,15760,2,0,P|244:284|304:300,1,102.5,4|0,0:0|0:0,0:0:0:0:
412,204,16194,2,0,L|396:340,1,102.5,8|0,0:0|0:0,0:0:0:0:
500,256,16629,1,0,3:0:0:0:
328,220,16846,1,0,0:0:0:0:
452,96,17064,1,8,0:0:0:0:
360,52,17281,5,0,0:0:0:0:
360,52,17390,1,0,0:0:0:0:
360,52,17499,2,0,L|256:72,1,102.5,2|0,0:0|0:0,0:0:0:0:
96,120,17933,2,0,L|212:136,1,102.5,8|0,0:0|0:0,0:0:0:0:
244,296,18368,2,0,L|252:164,1,102.5,2|0,0:0|0:0,0:0:0:0:
412,144,18803,2,0,L|404:264,1,102.5,8|0,0:0|0:0,0:0:0:0:
340,328,19238,5,2,0:0:0:0:
244,296,19455,1,0,0:0:0:0:
160,240,19673,2,0,P|112:240|48:284,1,102.5,8|0,0:0|0:0,0:0:0:0:
136,344,20107,1,0,3:0:0:0:
228,184,20325,1,0,0:0:0:0:
45,156,20542,1,8,0:0:0:0:
96,60,20760,5,0,0:0:0:0:
96,60,20868,1,0,0:0:0:0:
96,60,20977,2,0,P|144:48|200:72,1,102.5,2|0,0:0|0:0,0:0:0:0:
316,172,21412,2,0,L|296:48,1,102.5,8|0,0:0|0:0,0:0:0:0:
400,96,21846,5,2,0:0:0:0:
428,120,21955,1,0,0:0:0:0:
444,152,22064,1,0,0:0:0:0:
448,188,22173,1,0,0:0:0:0:
444,224,22281,1,0,0:0:0:0:
432,256,22390,1,0,0:0:0:0:
408,284,22499,1,0,0:0:0:0:
376,300,22607,1,0,0:0:0:0:
340,300,22716,6,0,P|296:328|240:320,1,102.5,4|0,0:0|0:0,0:0:0:0:
104,197,23151,2,0,P|148:169|204:177,1,102.5,8|0,0:0|0:0,0:0:0:0:
317,137,23586,1,0,3:0:0:0:
472,56,23803,1,0,0:0:0:0:
316,136,24020,1,8,0:0:0:0:
336,36,24238,5,0,0:0:0:0:
336,36,24346,1,0,0:0:0:0:
336,36,24455,2,0,L|317:136,1,102.5,2|0,0:0|0:0,0:0:0:0:
216,140,24890,2,0,P|160:120|96:136,1,102.5,8|0,0:0|0:0,0:0:0:0:
40,264,25325,2,0,P|96:284|160:268,1,102.5,2|0,0:0|0:0,0:0:0:0:
314,155,25759,2,0,P|258:135|194:151,1,102.5,8|0,0:0|0:0,0:0:0:0:
280,328,26194,5,2,0:0:0:0:
244,232,26412,1,0,0:0:0:0:
314,155,26629,2,0,L|350:43,1,102.5,8|0,0:0|0:0,0:0:0:0:
496,128,27064,1,0,3:0:0:0:
496,128,27173,1,0,0:0:0:0:
496,128,27281,1,0,0:0:0:0:
412,220,27499,1,8,0:0:0:0:
492,296,27716,5,0,0:0:0:0:
492,296,27825,1,0,0:0:0:0:
492,296,27933,2,0,P|440:336|384:316,1,102.5,2|0,0:0|0:0,0:0:0:0:
280,251,28368,2,0,L|314:155,1,102.5,8|0,0:0|0:0,0:0:0:0:
284,56,28803,5,2,0:0:0:0:
252,40,28912,1,0,0:0:0:0:
216,40,29020,1,0,0:0:0:0:
180,44,29129,1,0,0:0:0:0:
148,60,29238,1,0,0:0:0:0:
128,88,29346,1,0,0:0:0:0:
120,124,29455,1,0,0:0:0:0:
124,160,29564,1,0,0:0:0:0:
144,188,29673,6,0,P|160:252|136:300,1,102.5,4|0,0:0|0:0,0:0:0:0:
44,344,30107,2,0,P|24:288|44:232,1,102.5
144,188,30542,1,2,0:0:0:0:
236,140,30759,2,0,P|284:128|344:132,1,102.5
416,228,31194,1,0,0:0:0:0:
408,72,31412,6,0,L|480:156,1,102.5,2|0,0:0|0:0,0:0:0:0:
414,333,31846,2,0,P|380:328|336:280,1,102.5
416,228,32281,1,2,0:0:0:0:
320,168,32499,2,0,P|268:192|244:264,1,102.5
212,348,32933,1,0,0:0:0:0:
320,168,33151,5,6,0:0:0:0:
319,168,33368,2,0,P|324:117|314:67,1,102.5
127,91,33803,2,0,P|122:141|129:192,1,102.5,0|2,0:0|0:0,0:0:0:0:
213,83,34238,2,0,L|315:67,1,102.5
130,193,34673,2,0,L|18:209,1,102.5,0|2,0:0|0:0,0:0:0:0:
68,300,35107,1,0,0:0:0:0:
164,332,35325,1,0,0:0:0:0:
232,200,35542,6,0,L|244:304,2,102.5,8|0|4,0:0|3:0|3:0,0:0:0:0:
324,152,36194,1,0,0:0:0:0:
424,180,36412,1,0,3:0:0:0:
424,180,36520,1,0,0:0:0:0:
424,180,36629,6,0,P|420:108|392:56,1,102.5,2|0,0:0|0:0,0:0:0:0:
360,240,37064,2,0,P|364:304|392:352,1,102.5
324,152,37499,2,0,P|280:104|220:92,1,102.5,2|0,0:0|0:0,0:0:0:0:
96,144,37933,1,0,0:0:0:0:
232,200,38151,1,0,0:0:0:0:
104,280,38368,6,0,L|0:324,1,102.5,6|0,0:0|0:0,0:0:0:0:
4,164,38803,1,0,0:0:0:0:
96,40,39020,1,0,0:0:0:0:
248,72,39238,2,0,L|356:36,1,102.5,2|0,0:0|0:0,0:0:0:0:
448,168,39673,2,0,P|460:232|532:268,1,102.5
360,168,40107,5,6,0:0:0:0:
360,168,40325,2,0,L|344:280,1,102.5
240,272,40759,2,0,P|268:336|324:360,1,102.5,0|2,0:0|0:0,0:0:0:0:
360,168,41194,2,0,P|296:188|244:176,1,102.5
142,287,41629,2,0,P|189:268|240:272,1,102.5,8|0,0:0|3:0,0:0:0:0:
176,192,42064,1,0,0:0:0:0:
104,120,42281,1,0,0:0:0:0:
236,52,42499,5,8,3:0:0:0:
360,168,42716,2,0,P|364:112|340:60,1,102.5,0|4,0:0|3:0,0:0:0:0:
272,136,43151,1,0,0:0:0:0:
296,240,43368,1,0,3:0:0:0:
296,240,43477,1,0,3:0:0:0:
296,240,43586,6,0,P|344:260|376:348,1,102.5,6|0,0:0|0:0,0:0:0:0:
192,304,44020,2,0,P|144:284|112:196,1,102.5
48,64,44455,2,0,P|96:84|127:171,1,102.5,2|0,0:0|0:0,0:0:0:0:
32,172,44890,1,0,0:0:0:0:
176,44,45107,2,0,L|288:92,1,102.5,0|2,0:0|0:0,0:0:0:0:
436,120,45542,2,0,L|348:216,1,102.5
296,328,45977,5,0,0:0:0:0:
140,260,46194,2,0,P|200:236|248:248,1,102.5,2|0,0:0|0:0,0:0:0:0:
200,336,46629,1,0,0:0:0:0:
48,272,46846,6,0,L|28:160,1,102.5,8|6,0:0|0:0,0:0:0:0:
120,56,47281,1,0,0:0:0:0:
224,60,47499,1,0,0:0:0:0:
270,205,47716,2,0,L|372:188,1,102.5,0|2,0:0|0:0,0:0:0:0:
480,284,48151,1,0,0:0:0:0:
488,180,48368,1,0,0:0:0:0:
379,85,48586,2,0,L|372:188,1,102.5,0|2,0:0|0:0,0:0:0:0:
264,308,49020,6,0,P|316:296|376:320,2,102.5,0|0|8,0:0|0:0|0:0,0:0:0:0:
144,204,49673,2,0,P|92:216|32:192,2,102.5,0|4|0,0:0|3:0|0:0,0:0:0:0:
100,112,50325,1,8,0:0:0:0:
100,112,50433,1,0,0:0:0:0:
100,112,50542,6,0,L|236:100,1,102.5,4|0,0:0|0:0,0:0:0:0:
392,68,50977,2,0,L|260:52,1,102.5,8|0,0:0|0:0,0:0:0:0:
320,180,51412,1,2,0:0:0:0:
408,272,51629,1,0,0:0:0:0:
472,164,51846,1,8,0:0:0:0:
392,68,52064,1,0,0:0:0:0:
228,40,52281,6,0,P|176:28|112:40,1,102.5,2|0,0:0|0:0,0:0:0:0:
44,120,52716,1,8,0:0:0:0:
160,236,52933,2,0,P|175:187|167:137,1,102.5,0|2,0:0|0:0,0:0:0:0:
28,260,53368,2,0,L|112:332,1,102.5,0|8,0:0|0:0,0:0:0:0:
228,344,53803,1,0,0:0:0:0:
336,280,54020,2,0,L|344:224|352:168,1,102.5,2|0,0:0|0:0,0:0:0:0:
320,56,54455,2,0,P|276:88|128:72,1,205,8|2,0:0|0:0,0:0:0:0:
0,120,55107,5,0,0:0:0:0:
28,256,55325,1,8,0:0:0:0:
140,328,55542,2,0,P|152:268|188:228,1,102.5,2|0,0:0|0:0,0:0:0:0:
336,280,55977,2,0,P|296:274|238:295,1,102.5,2|8,0:0|0:0,0:0:0:0:
140,328,56412,1,0,0:0:0:0:
28,256,56629,1,0,3:0:0:0:
28,256,56738,1,0,0:0:0:0:
28,256,56846,2,0,P|40:200|24:152,1,102.5,0|8,3:0|0:0,0:0:0:0:
100,88,57281,1,0,0:0:0:0:
200,60,57499,6,0,P|256:44|300:68,1,102.5,2|0,0:0|0:0,0:0:0:0:
436,84,57933,2,8,L|432:186,1,102.5,8|0,0:0|0:0,0:0:0:0:
320,280,58368,2,0,P|304:328|236:344,1,102.5
140,264,58803,2,0,L|88:144,1,102.5,8|0,0:0|0:0,0:0:0:0:
124,52,59238,2,0,B|196:76|196:76|328:80,1,205,2|8,0:0|0:0,0:0:0:0:
436,84,59890,1,0,0:0:0:0:
488,192,60107,6,0,P|460:244|468:304,1,102.5
336,328,60542,1,8,0:0:0:0:
376,204,60759,2,0,L|244:184,1,102.5,0|2,0:0|0:0,0:0:0:0:
104,156,61194,1,0,0:0:0:0:
180,272,61412,2,0,L|196:56,1,205,8|2,0:0|0:0,0:0:0:0:
332,43,62064,5,0,0:0:0:0:
452,112,62281,1,8,0:0:0:0:
504,240,62499,2,0,P|444:252|412:288,1,102.5,2|0,0:0|0:0,0:0:0:0:
256,244,62933,2,0,P|280:280|356:312,1,102.5,2|8,0:0|0:0,0:0:0:0:
352,204,63368,5,0,0:0:0:0:
200,68,63586,2,0,P|196:123|210:170,1,102.5
308,104,64020,1,8,0:0:0:0:
88,96,64238,1,0,3:0:0:0:
88,96,64455,2,0,P|56:152|8:172,1,102.5,6|0,0:0|0:0,0:0:0:0:
68,260,64890,2,0,P|100:316|132:332,1,102.5,8|0,0:0|0:0,0:0:0:0:
256,224,65325,1,0,0:0:0:0:
379,332,65542,2,0,P|422:305|444:260,1,102.5,0|8,0:0|0:0,0:0:0:0:
501,175,65977,6,0,L|320:72,1,205,2|0,0:0|0:0,0:0:0:0:
224,52,66629,1,8,0:0:0:0:
124,76,66846,1,0,0:0:0:0:
88,224,67064,2,0,L|220:288,1,102.5
276,340,67499,1,8,0:0:0:0:
240,180,67716,6,0,P|288:204|300:264,1,102.5,0|2,0:0|0:0,0:0:0:0:
168,348,68151,1,0,0:0:0:0:
64,336,68368,1,8,0:0:0:0:
80,168,68586,2,0,L|176:108,1,102.5
336,104,69020,1,0,0:0:0:0:
248,48,69238,1,8,0:0:0:0:
312,212,69455,2,0,P|348:252|408:276,1,102.5,2|0,0:0|0:0,0:0:0:0:
460,68,69890,2,0,P|440:120|400:164,1,102.5,0|8,0:0|0:0,0:0:0:0:
272,316,70325,6,0,P|204:240|268:128,1,205,2|0,0:0|0:0,0:0:0:0:
248,48,70977,1,8,0:0:0:0:
104,48,71194,2,0,L|96:160,1,102.5,0|6,0:0|0:0,0:0:0:0:
20,228,71629,1,0,0:0:0:0:
188,196,71846,1,8,0:0:0:0:
72,344,72064,1,0,0:0:0:0:
276,240,72281,1,2,0:0:0:0:
116,264,72499,1,0,0:0:0:0:
204,320,72716,6,0,L|308:348,1,102.5,8|0,0:0|0:0,0:0:0:0:
360,176,73151,1,0,3:0:0:0:
416,288,73368,1,0,3:0:0:0:
480,176,73586,1,8,0:0:0:0:
408,72,73803,2,0,L|308:52,1,102.5,2|0,0:0|0:0,0:0:0:0:
208,92,74238,2,0,B|152:60|84:116|-8:68,1,205,2|0,0:0|0:0,0:0:0:0:
48,172,74890,6,0,P|76:272|164:316,1,205,4|0,0:0|0:0,0:0:0:0:
220,184,75542,2,0,L|432:160,1,205,2|0,0:0|0:0,0:0:0:0:
496,236,76194,1,0,0:0:0:0:
432,348,76412,1,0,3:0:0:0:
380,360,76520,1,0,3:0:0:0:
332,344,76629,2,0,P|276:348|240:308,1,102.5,4|0,3:0|0:0,0:0:0:0:
160,224,77064,1,0,0:0:0:0:
288,112,77281,6,0,P|296:64|280:4,1,102.5,0|0,1:0|0:0,0:0:0:0:
172,80,77716,1,0,3:0:0:0:
136,80,77825,1,0,3:0:0:0:
100,84,77933,2,0,P|76:140|88:184,1,102.5,4|0,3:0|0:0,0:0:0:0:
76,320,78368,6,0,L|292:296,1,205,4|0,0:0|0:0,0:0:0:0:
436,300,79020,2,0,P|372:276|340:144,1,205,0|0,1:0|0:0,0:0:0:0:
472,108,79673,1,0,0:0:0:0:
360,24,79890,5,4,0:0:0:0:
340,24,80325,1,4,0:0:0:0:
320,24,80759,1,4,0:0:0:0:
300,24,81194,1,4,0:0:0:0:
164,56,81412,6,0,L|128:60,5,34.1666666666667
92,68,81846,6,0,P|112:148|236:184,1,205,4|8,0:0|0:0,0:0:0:0:
312,144,82499,1,0,0:0:0:0:
392,284,82716,2,0,B|448:284|448:284|500:260,1,102.5,2|0,0:0|0:0,0:0:0:0:
488,164,83151,1,8,0:0:0:0:
416,88,83368,1,0,0:0:0:0:
296,248,83586,2,0,B|260:291|260:291|246:347,1,102.5,2|0,0:0|0:0,0:0:0:0:
152,300,84020,5,8,0:0:0:0:
140,200,84238,2,0,P|112:152|52:148,1,102.5,0|8,3:0|0:0,0:0:0:0:
28,332,84673,2,0,L|64:228,1,102.5,0|8,0:0|0:0,0:0:0:0:
164,48,85107,1,0,0:0:0:0:
260,84,85325,6,0,L|380:56,1,102.5,8|0,0:0|0:0,0:0:0:0:
288,184,85759,2,0,L|384:220,1,102.5,8|0,0:0|0:0,0:0:0:0:
228,256,86194,2,0,B|252:368|252:364,1,102.5,8|0,0:0|0:0,0:0:0:0:
136,268,86629,2,0,L|84:360,1,102.5,8|0,0:0|0:0,0:0:0:0:
36,268,87064,5,2,0:0:0:0:
44,232,87173,1,0,0:0:0:0:
52,196,87281,1,0,0:0:0:0:
60,160,87390,1,0,0:0:0:0:
64,124,87499,5,2,0:0:0:0:
96,108,87607,1,0,0:0:0:0:
132,108,87716,1,0,0:0:0:0:
164,124,87825,1,0,0:0:0:0:
180,156,87933,5,2,0:0:0:0:
216,148,88042,1,0,0:0:0:0:
252,140,88151,1,0,0:0:0:0:
288,132,88259,1,0,0:0:0:0:
324,124,88368,5,2,0:0:0:0:
340,164,88477,1,0,0:0:0:0:
376,192,88586,1,0,0:0:0:0:
412,200,88694,1,0,0:0:0:0:
452,208,88803,6,0,P|428:304|332:356,1,205,4|8,0:0|0:0,0:0:0:0:
190,244,89455,2,0,L|292:256,1,102.5,0|0,0:0|0:0,0:0:0:0:
116,328,89890,2,0,P|60:292|44:240,1,102.5,0|8,0:0|0:0,0:0:0:0:
112,184,90325,1,0,0:0:0:0:
216,104,90542,6,0,P|280:56|428:84,1,205,2|8,0:0|0:0,0:0:0:0:
496,148,91194,2,0,P|464:196|404:216,1,102.5,0|0,0:0|0:0,0:0:0:0:
254,265,91629,2,0,P|304:261|348:288,1,102.5,0|8,0:0|0:0,0:0:0:0:
436,336,92064,1,0,0:0:0:0:
316,168,92281,1,2,0:0:0:0:
316,168,92499,1,0,0:0:0:0:
244,112,92716,6,0,P|192:124|160:92,1,102.5,8|0,0:0|0:0,0:0:0:0:
132,292,93151,2,0,P|162:253|147:207,1,102.5,0|0,0:0|0:0,0:0:0:0:
340,272,93586,2,0,P|298:245|254:265,1,102.5,8|0,0:0|0:0,0:0:0:0:
316,168,94020,2,0,P|344:80|464:108,1,205,2|8,0:0|0:0,0:0:0:0:
496,192,94673,1,0,0:0:0:0:
456,312,94890,2,0,L|476:364,2,51.25,2|0|0,0:0|0:0|0:0,0:0:0:0:
340,272,95325,2,0,L|232:264,1,102.5,8|0,0:0|0:0,0:0:0:0:
82,217,95759,6,0,P|130:285|253:243,1,205,4|8,0:0|0:0,0:0:0:0:
152,112,96412,1,0,0:0:0:0:
152,112,96629,2,0,P|168:184|168:232,1,102.5,2|0,0:0|0:0,0:0:0:0:
272,136,97064,2,0,P|256:63|256:15,1,102.5,8|0,0:0|0:0,0:0:0:0:
364,144,97499,2,0,P|380:208|384:316,2,153.75,2|0|0,0:0|0:0|0:0,0:0:0:0:
412,52,98368,1,0,3:0:0:0:
308,52,98586,2,0,P|248:52|196:56,1,102.5,0|8,0:0|0:0,0:0:0:0:
52,132,99020,5,0,0:0:0:0:
172,136,99238,2,0,P|192:192|180:244,1,102.5,2|0,0:0|0:0,0:0:0:0:
104,296,99673,1,8,0:0:0:0:
289,262,99890,2,0,P|353:274|489:250,1,205,0|0,0:0|0:0,0:0:0:0:
388,156,100542,1,8,0:0:0:0:
272,36,100759,5,0,0:0:0:0:
172,136,100977,2,0,P|119:151|67:136,1,102.5,2|0,0:0|0:0,0:0:0:0:
32,44,101412,1,8,0:0:0:0:
32,248,101629,2,0,B|32:296|72:324|72:324|196:340,1,205,0|0,0:0|0:0,0:0:0:0:
284,308,102281,1,8,0:0:0:0:
320,296,102390,1,0,0:0:0:0:
356,288,102499,1,0,0:0:0:0:
392,276,102607,1,0,0:0:0:0:
428,268,102716,6,0,L|420:160,1,102.5,4|0,0:0|0:0,0:0:0:0:
352,104,103151,1,8,0:0:0:0:
239,224,103368,2,0,P|281:195|331:195,1,102.5,0|0,0:0|0:0,0:0:0:0:
216,40,103803,2,0,L|204:172,1,102.5,0|8,0:0|0:0,0:0:0:0:
136,208,104238,1,0,0:0:0:0:
24,128,104455,6,0,P|76:104|132:112,1,102.5,2|0,0:0|0:0,0:0:0:0:
136,208,104890,1,8,0:0:0:0:
20,328,105107,2,0,P|24:256|52:212,1,102.5,0|0,0:0|0:0,0:0:0:0:
204,320,105542,2,0,L|88:304,1,102.5,0|8,0:0|0:0,0:0:0:0:
252,216,105977,1,0,0:0:0:0:
424,328,106194,1,2,0:0:0:0:
424,328,106412,1,0,0:0:0:0:
452,224,106629,6,0,L|460:116,1,102.5,8|0,0:0|0:0,0:0:0:0:
368,32,107064,2,0,L|360:139,1,102.5,2|0,0:0|0:0,0:0:0:0:
252,216,107499,2,0,L|260:108,1,102.5,8|0,0:0|0:0,0:0:0:0:
108,48,107933,2,0,B|144:60|172:92|172:92|168:168|160:228,1,205,2|8,0:0|0:0,0:0:0:0:
88,288,108586,1,0,0:0:0:0:
172,344,108803,2,0,P|256:296|348:344,1,205,0|8,3:0|0:0,0:0:0:0:
492,200,109673,6,0,P|512:96|424:40,1,205,4|8,0:0|0:0,0:0:0:0:
308,116,110325,2,0,P|336:164|360:212,1,102.5,0|2,0:0|0:0,0:0:0:0:
216,204,110759,1,0,0:0:0:0:
155,54,110977,2,0,P|205:41|256:44,1,102.5,8|0,0:0|0:0,0:0:0:0:
104,180,111412,6,0,P|48:156|24:72,2,153.75,2|0|0,0:0|0:0|0:0,0:0:0:0:
144,268,112281,1,0,3:0:0:0:
144,268,112390,1,0,0:0:0:0:
144,268,112499,2,8,P|184:296|244:292,1,102.5,0|8,3:0|0:0,0:0:0:0:
320,236,112933,1,0,0:0:0:0:
408,184,113151,6,0,P|428:240|432:296,1,102.5,2|0,0:0|0:0,0:0:0:0:
348,344,113586,1,8,0:0:0:0:
308,148,113803,2,0,P|356:100|488:116,1,205
408,184,114455,1,8,0:0:0:0:
480,252,114673,1,0,0:0:0:0:
448,340,114890,6,0,P|404:352|336:340,2,102.5,0|2|2,3:0|3:0|3:0,0:0:0:0:
408,184,115542,1,0,0:0:0:0:
276,256,115759,2,0,B|208:232|204:144|204:144|168:152|132:132,1,205,0|0,0:0|3:0,0:0:0:0:
120,108,116303,1,0,3:0:0:0:
92,88,116412,1,0,3:0:0:0:
56,88,116520,1,0,3:0:0:0:
24,104,116629,6,0,P|36:152|24:208,1,102.5,4|0,0:0|0:0,0:0:0:0:
104,356,117064,2,0,P|92:308|104:252,1,102.5,8|0,0:0|0:0,0:0:0:0:
192,168,117499,1,0,3:0:0:0:
256,272,117716,1,0,0:0:0:0:
376,244,117933,1,8,0:0:0:0:
256,272,118151,5,0,0:0:0:0:
256,272,118259,1,0,0:0:0:0:
256,272,118368,2,0,L|292:152,1,102.5,2|0,0:0|0:0,0:0:0:0:
436,72,118803,2,0,L|396:188,1,102.5,8|0,0:0|0:0,0:0:0:0:
336,92,119238,2,0,P|288:64|204:76,1,102.5,2|0,0:0|0:0,0:0:0:0:
88,176,119673,2,0,P|136:204|220:192,1,102.5,8|0,0:0|0:0,0:0:0:0:
72,64,120107,5,2,0:0:0:0:
164,116,120325,1,0,0:0:0:0:
268,176,120542,2,0,P|276:232|256:272,1,102.5,8|0,0:0|0:0,0:0:0:0:
160,336,120977,1,0,3:0:0:0:
88,176,121194,1,0,0:0:0:0:
268,176,121412,1,8,0:0:0:0:
392,32,121629,5,0,0:0:0:0:
392,32,121738,1,0,0:0:0:0:
392,32,121846,2,0,P|396:100|416:136,1,102.5,2|0,0:0|0:0,0:0:0:0:
484,252,122281,2,0,P|416:268|376:264,1,102.5,8|0,0:0|0:0,0:0:0:0:
300,324,122716,5,2,0:0:0:0:
292,288,122825,1,0,0:0:0:0:
284,252,122933,1,0,0:0:0:0:
276,216,123042,1,0,0:0:0:0:
268,180,123151,1,0,0:0:0:0:
260,144,123259,1,0,0:0:0:0:
252,108,123368,1,0,0:0:0:0:
244,72,123477,1,0,0:0:0:0:
232,36,123586,6,0,B|184:48|184:48|124:32,1,102.5,4|0,0:0|0:0,0:0:0:0:
56,128,124020,2,0,P|28:184|16:240,1,102.5,8|0,0:0|0:0,0:0:0:0:
72,312,124455,1,0,3:0:0:0:
128,144,124673,1,0,0:0:0:0:
156,320,124890,1,8,0:0:0:0:
204,152,125107,5,0,0:0:0:0:
204,152,125216,1,0,0:0:0:0:
204,152,125325,2,0,L|305:167,1,102.5,2|0,0:0|0:0,0:0:0:0:
340,264,125759,2,0,B|308:316|308:316|248:336,1,102.5,8|0,0:0|0:0,0:0:0:0:
306,168,126194,2,0,P|338:116|398:96,1,102.5,2|0,0:0|0:0,0:0:0:0:
482,248,126629,2,0,P|450:300|390:320,1,102.5,8|0,0:0|0:0,0:0:0:0:
256,240,127064,5,2,0:0:0:0:
204,152,127281,1,0,0:0:0:0:
306,168,127499,2,0,L|422:160,1,102.5,8|0,0:0|0:0,0:0:0:0:
272,80,127933,1,0,3:0:0:0:
272,80,128042,1,0,0:0:0:0:
272,80,128151,2,0,L|152:68,1,102.5,0|8,3:0|0:0,0:0:0:0:
56,212,128586,5,0,0:0:0:0:
56,212,128694,1,0,0:0:0:0:
56,212,128803,2,0,P|112:172|104:104,1,102.5,2|0,0:0|0:0,0:0:0:0:
272,80,129238,2,0,P|304:116|304:168,1,102.5,8|0,0:0|0:0,0:0:0:0:
212,212,129673,5,2,0:0:0:0:
192,244,129781,1,0,0:0:0:0:
200,280,129890,1,0,0:0:0:0:
220,308,129999,1,0,0:0:0:0:
256,316,130107,1,0,0:0:0:0:
292,308,130216,1,0,0:0:0:0:
312,280,130325,1,0,0:0:0:0:
320,244,130433,1,0,0:0:0:0:
304,212,130542,6,0,L|412:208,1,102.5,4|0,0:0|0:0,0:0:0:0:
488,88,130977,2,0,P|456:40|376:24,1,102.5,8|0,0:0|0:0,0:0:0:0:
304,128,131412,1,2,0:0:0:0:
224,64,131629,2,0,L|116:76,1,102.5,0|8,0:0|0:0,0:0:0:0:
140,176,132064,5,0,0:0:0:0:
16,184,132281,2,0,P|48:255|106:270,1,102.5,2|0,0:0|0:0,0:0:0:0:
221,241,132716,2,0,L|236:136,1,102.5,8|0,0:0|0:0,0:0:0:0:
140,176,133151,1,2,0:0:0:0:
168,64,133368,2,0,P|232:40|300:52,1,102.5,0|8,0:0|0:0,0:0:0:0:
392,40,133803,1,0,0:0:0:0:
464,188,134020,5,6,0:0:0:0:
464,188,134238,2,0,P|436:264|464:308,1,102.5,0|8,0:0|0:0,0:0:0:0:
356,340,134673,1,0,0:0:0:0:
184,260,134890,2,0,L|296:264,1,102.5,2|0,0:0|0:0,0:0:0:0:
356,340,135325,1,8,0:0:0:0:
292,168,135542,2,0,P|280:112|288:60,1,102.5,2|0,0:0|0:0,0:0:0:0:
184,176,135977,2,0,P|143:142|112:85,1,102.5,2|8,0:0|0:0,0:0:0:0:
36,40,136412,1,0,0:0:0:0:
20,140,136629,5,0,3:0:0:0:
20,140,136738,1,0,0:0:0:0:
20,140,136846,2,0,L|8:248,1,102.5,0|8,0:0|0:0,0:0:0:0:
92,304,137281,1,0,0:0:0:0:
192,324,137499,6,0,P|256:304|296:312,1,102.5,6|0,0:0|0:0,0:0:0:0:
324,172,137933,2,0,L|292:52,1,102.5,8|0,0:0|0:0,0:0:0:0:
428,20,138368,2,0,P|476:52|504:112,1,102.5
496,228,138803,2,0,L|432:332,1,102.5,8|0,0:0|0:0,0:0:0:0:
300,324,139238,2,0,B|288:264|336:208|336:208|328:116,1,205,2|8,0:0|0:0,0:0:0:0:
268,64,139890,1,0,0:0:0:0:
176,112,140107,2,0,L|128:12,1,102.5
240,192,140542,2,0,P|172:216|132:208,1,102.5,8|0,0:0|0:0,0:0:0:0:
220,332,140977,5,6,0:0:0:0:
220,332,141194,2,0,L|336:316,1,102.5,0|8,0:0|0:0,0:0:0:0:
388,240,141629,1,0,0:0:0:0:
304,100,141846,2,0,P|284:164|304:212,1,102.5,2|0,0:0|0:0,0:0:0:0:
388,240,142281,1,8,0:0:0:0:
216,104,142499,2,0,P|164:96|108:108,1,102.5,2|0,0:0|0:0,0:0:0:0:
192,220,142933,2,0,P|128:284|112:324,1,102.5,2|8,0:0|0:0,0:0:0:0:
220,332,143368,1,0,0:0:0:0:
288,256,143586,5,0,3:0:0:0:
288,256,143694,1,0,0:0:0:0:
288,256,143803,2,0,P|336:280|400:272,1,102.5,0|8,3:0|0:0,0:0:0:0:
464,160,144238,1,0,0:0:0:0:
272,112,144455,6,0,P|188:52|68:84,1,205,4|8,0:0|0:0,0:0:0:0:
36,152,145107,1,0,0:0:0:0:
56,256,145325,1,0,0:0:0:0:
156,220,145542,2,0,P|140:276|124:320,1,102.5,0|8,0:0|0:0,0:0:0:0:
244,348,145977,2,0,P|264:264|324:152,1,205,2|0,0:0|0:0,0:0:0:0:
352,64,146629,1,8,0:0:0:0:
452,84,146846,2,0,P|464:124|472:192,1,102.5
356,334,147281,2,0,P|365:283|384:236,1,102.5,0|8,0:0|0:0,0:0:0:0:
488,312,147716,1,0,0:0:0:0:
384,236,147933,6,0,L|324:140,1,102.5,6|0,0:0|0:0,0:0:0:0:
252,80,148368,1,8,0:0:0:0:
196,164,148586,2,0,P|148:192|80:172,1,102.5
36,108,149020,1,0,0:0:0:0:
136,88,149238,1,8,0:0:0:0:
192,264,149455,2,0,P|196:319|251:363,1,102.5,2|0,0:0|0:0,0:0:0:0:
328,368,149890,1,0,0:0:0:0:
292,272,150107,1,8,0:0:0:0:
456,360,150325,6,0,P|480:304|408:168,1,205,2|0,0:0|0:0,0:0:0:0:
412,76,150977,2,0,L|280:64,1,102.5,8|0,0:0|0:0,0:0:0:0:
192,68,151412,1,2,0:0:0:0:
64,96,151629,1,0,0:0:0:0:
84,232,151846,1,0,3:0:0:0:
212,216,152064,2,0,B|272:228|288:340|384:344,1,205,2|0,0:0|0:0,0:0:0:0:
432,260,152716,1,0,0:0:0:0:
416,228,152825,1,0,0:0:0:0:
408,192,152933,1,0,0:0:0:0:
416,156,153042,1,0,0:0:0:0:
432,124,153151,6,0,P|408:76|264:52,1,205,4|0,0:0|0:0,0:0:0:0:
212,216,153803,2,0,P|112:276|44:216,1,205,2|0,0:0|0:0,0:0:0:0:
8,140,154455,1,0,0:0:0:0:
148,132,154673,1,0,3:0:0:0:
184,132,154781,1,0,3:0:0:0:
220,132,154890,2,0,P|272:164|296:212,1,102.5,4|0,3:0|0:0,0:0:0:0:
284,300,155325,1,0,0:0:0:0:
416,348,155542,6,0,P|472:318|508:296,1,102.5,0|0,1:0|0:0,0:0:0:0:
488,128,155977,1,0,3:0:0:0:
464,96,156086,1,0,3:0:0:0:
432,64,156194,2,0,P|400:40|336:24,1,102.5,4|0,3:0|0:0,0:0:0:0:
164,48,156629,6,0,P|96:100|60:220,1,205,4|0,0:0|0:0,0:0:0:0:
208,188,157281,2,0,P|228:252|368:300,1,205,0|0,1:0|0:0,0:0:0:0:
444,272,157933,1,0,0:0:0:0:
464,172,158151,5,4,0:0:0:0:
468,152,158586,1,4,0:0:0:0:
472,132,159020,1,4,0:0:0:0:
476,112,159455,1,4,0:0:0:0:
380,76,159673,6,0,L|364:116,5,34.1666666666667
356,132,160107,6,0,P|290:152|188:40,1,205,4|8,0:0|0:0,0:0:0:0:
292,52,160759,1,0,0:0:0:0:
88,60,160977,2,0,P|96:112|92:188,1,102.5,2|0,0:0|0:0,0:0:0:0:
20,232,161412,1,8,0:0:0:0:
52,328,161629,1,0,0:0:0:0:
184,228,161846,2,0,P|232:260|260:316,1,102.5,2|0,0:0|0:0,0:0:0:0:
344,348,162281,5,8,0:0:0:0:
428,288,162499,2,0,P|464:328|524:340,1,102.5,0|8,0:0|0:0,0:0:0:0:
384,184,162933,2,0,P|340:224|332:264,1,102.5,0|8,0:0|0:0,0:0:0:0:
512,232,163368,1,0,0:0:0:0:
476,136,163586,6,0,L|480:24,1,102.5,8|0,0:0|0:0,0:0:0:0:
384,184,164020,2,0,L|388:72,1,102.5,8|0,0:0|0:0,0:0:0:0:
284,224,164455,2,0,L|288:112,1,102.5,8|0,0:0|0:0,0:0:0:0:
188,268,164890,2,8,L|192:156,1,102.5,8|0,0:0|0:0,0:0:0:0:
156,68,165325,5,2,0:0:0:0:
120,64,165433,1,0,0:0:0:0:
84,60,165542,1,0,0:0:0:0:
48,56,165651,1,0,0:0:0:0:
24,84,165759,5,2,0:0:0:0:
8,116,165868,1,0,0:0:0:0:
8,152,165977,1,0,0:0:0:0:
20,184,166086,1,0,0:0:0:0:
44,212,166194,5,2,0:0:0:0:
40,248,166303,1,0,0:0:0:0:
36,284,166412,1,0,0:0:0:0:
32,320,166520,1,0,0:0:0:0:
60,340,166629,5,2,0:0:0:0:
92,352,166738,1,0,0:0:0:0:
128,352,166846,1,0,0:0:0:0:
160,336,166955,1,0,0:0:0:0:
192,320,167064,6,0,P|252:296|320:312,1,102.5,4|0,0:0|0:0,0:0:0:0:
384,332,167499,1,8,0:0:0:0:
472,168,167716,2,0,P|476:228|468:284,1,102.5
296,188,168151,2,0,P|356:200|400:252,1,102.5,0|8,0:0|0:0,0:0:0:0:
384,332,168586,1,0,0:0:0:0:
236,256,168803,6,0,P|208:204|220:152,1,102.5,2|0,0:0|0:0,0:0:0:0:
284,88,169238,1,8,0:0:0:0:
468,44,169455,2,0,L|368:88,1,102.5
480,240,169890,2,0,P|420:252|384:229,1,102.5,0|8,0:0|0:0,0:0:0:0:
296,188,170325,1,0,0:0:0:0:
180,84,170542,6,0,P|124:96|88:132,1,102.5,2|0,0:0|0:0,0:0:0:0:
24,240,170977,2,0,B|77:230|77:230|140:236,1,102.5,8|0,0:0|0:0,0:0:0:0:
216,344,171412,2,0,P|220:300|248:244,1,102.5
352,116,171846,2,0,B|300:113|300:113|255:88,1,102.5,8|0,0:0|0:0,0:0:0:0:
420,32,172281,6,0,P|448:100|388:216,1,205,2|8,0:0|0:0,0:0:0:0:
352,116,172933,1,0,0:0:0:0:
256,40,173151,2,0,L|256:96,2,51.25,2|0|0,0:0|0:0|0:0,0:0:0:0:
160,116,173586,2,0,L|148:232,1,102.5,8|0,0:0|0:0,0:0:0:0:
235,351,174020,6,0,P|171:339|151:215,1,205,4|8,0:0|0:0,0:0:0:0:
326,263,174673,1,0,0:0:0:0:
326,263,174890,2,0,L|207:258,1,102.5,2|0,0:0|0:0,0:0:0:0:
292,160,175325,2,0,L|404:156,1,102.5,8|0,0:0|0:0,0:0:0:0:
340,64,175759,2,0,L|168:56,2,153.75,2|0|2,0:0|0:0|0:0,0:0:0:0:
444,72,176629,1,0,3:0:0:0:
444,72,176738,1,0,0:0:0:0:
444,72,176846,2,0,P|464:132|472:172,1,102.5,0|8,3:0|0:0,0:0:0:0:
460,272,177281,1,0,0:0:0:0:
362,277,177499,6,0,P|369:327|408:360,2,102.5,2|0|8,0:0|0:0|0:0,0:0:0:0:
192,256,178151,2,0,P|232:212|272:204,1,102.5
444,72,178586,2,0,P|404:116|364:124,1,102.5,0|8,0:0|0:0,0:0:0:0:
268,92,179020,1,0,0:0:0:0:
144,92,179238,6,0,P|88:60|44:60,2,102.5,2|0|8,0:0|0:0|0:0,0:0:0:0:
56,272,179890,2,0,P|44:220|72:180,1,102.5,0|4,0:0|3:0,0:0:0:0:
268,92,180325,2,0,P|280:144|252:184,1,102.5,0|8,0:0|0:0,0:0:0:0:
228,204,180651,1,0,3:0:0:0:
208,232,180759,1,0,3:0:0:0:
204,268,180868,1,0,3:0:0:0:
212,304,180977,6,0,P|252:360|316:360,1,102.5,4|0,0:0|0:0,0:0:0:0:
380,332,181412,1,8,0:0:0:0:
428,184,181629,2,0,L|320:232,1,102.5
172,132,182064,2,0,L|280:84,1,102.5,0|8,0:0|0:0,0:0:0:0:
368,104,182499,1,0,0:0:0:0:
484,256,182716,6,0,P|496:312|480:356,1,102.5,2|0,0:0|0:0,0:0:0:0:
380,332,183151,1,8,0:0:0:0:
354,205,183368,2,0,L|368:104,1,102.5
186,30,183803,2,0,L|170:149,1,102.5,0|8,0:0|0:0,0:0:0:0:
260,184,184238,1,0,0:0:0:0:
72,264,184455,6,0,P|118:243|169:244,1,102.5,2|0,0:0|0:0,0:0:0:0:
347,286,184890,2,0,P|287:310|227:298,1,102.5,8|0,0:0|0:0,0:0:0:0:
265,83,185325,2,0,P|271:134|260:184,1,102.5,2|0,0:0|0:0,0:0:0:0:
164,344,185759,2,0,P|157:293|169:243,1,102.5,8|0,0:0|0:0,0:0:0:0:
60,72,186194,2,0,L|264:83,1,205,2|8,0:0|0:0,0:0:0:0:
368,84,186846,1,0,0:0:0:0:
460,128,187064,2,0,P|400:192|464:272,1,205,0|8,3:0|0:0,0:0:0:0:
264,300,187933,6,0,L|60:312,1,205,4|8,0:0|0:0,0:0:0:0:
88,232,188586,2,0,B|96:200|120:196|120:196|144:212|180:200,1,102.5,0|2,0:0|0:0,0:0:0:0:
184,32,189020,2,0,B|205:57|193:79|193:79|167:89|155:125,1,102.5,0|8,0:0|0:0,0:0:0:0:
256,160,189455,1,0,0:0:0:0:
320,32,189673,6,0,P|368:112|444:100,2,153.75,2|0|0,0:0|0:0|0:0,0:0:0:0:
476,44,190542,1,0,3:0:0:0:
476,44,190651,1,0,0:0:0:0:
476,44,190759,2,0,P|504:88|500:136,1,102.5,0|8,0:0|0:0,0:0:0:0:
440,220,191194,1,0,0:0:0:0:
344,184,191412,6,0,P|348:288|464:328,1,205,2|8,0:0|0:0,0:0:0:0:
344,184,192064,2,0,P|354:105|224:26,1,205
176,68,192716,1,8,0:0:0:0:
84,116,192933,1,0,0:0:0:0:
72,216,193151,2,0,P|132:236|244:152,1,205,4|8,0:0|0:0,0:0:0:0:
344,184,193803,1,0,0:0:0:0:
408,104,194020,5,2,0:0:0:0:
444,100,194129,1,0,0:0:0:0:
476,120,194238,1,0,0:0:0:0:
492,152,194346,1,0,0:0:0:0:
500,188,194455,1,0,3:0:0:0:
492,232,194564,1,0,3:0:0:0:
476,264,194673,1,0,3:0:0:0:
444,284,194781,1,0,3:0:0:0:
408,280,194890,5,4,0:0:0:0:
256,192,194999,12,0,196629,0:0:0:0:
256,192,197064,5,8,0:0:0:0:
152,96,197499,1,0,3:0:0:0:
152,96,197607,1,0,0:0:0:0:
152,96,197716,2,0,L|20:116,1,102.5,0|8,3:0|0:0,0:0:0:0:
120,188,198151,5,0,0:0:0:0:
124,224,198259,1,0,0:0:0:0:
128,260,198368,2,0,B|144:320|204:328,1,102.5,6|0,0:0|0:0,0:0:0:0:
384,260,198803,2,0,B|368:320|308:328,1,102.5,8|0,0:0|0:0,0:0:0:0:
256,208,199238,2,0,L|256:92,1,102.5
340,48,199673,1,8,0:0:0:0:
428,96,199890,5,0,0:0:0:0:
460,108,199999,1,0,0:0:0:0:
496,120,200107,2,0,P|516:188|508:248,1,102.5,2|0,0:0|0:0,0:0:0:0:
384,260,200542,2,0,P|361:305|354:356,1,102.5,8|0,0:0|0:0,0:0:0:0:
252,340,200977,5,0,3:0:0:0:
220,356,201086,1,0,3:0:0:0:
184,356,201194,1,0,3:0:0:0:
148,344,201303,1,0,3:0:0:0:
128,316,201412,1,8,0:0:0:0:
116,280,201520,1,0,3:0:0:0:
116,244,201629,1,0,3:0:0:0:
128,212,201738,1,0,3:0:0:0:
152,184,201846,6,0,L|268:168,1,102.5,4|0,0:0|0:0,0:0:0:0:
416,64,202281,2,0,L|296:76,1,102.5,8|0,0:0|0:0,0:0:0:0:
212,64,202716,1,0,3:0:0:0:
336,156,202933,1,0,0:0:0:0:
264,292,203151,1,8,0:0:0:0:
152,184,203368,1,0,0:0:0:0:
140,152,203477,1,0,0:0:0:0:
124,120,203586,6,0,P|68:112|0:140,1,102.5,6|0,0:0|0:0,0:0:0:0:
16,284,204020,2,0,P|72:292|139:264,1,102.5,8|0,0:0|0:0,0:0:0:0:
248,192,204455,1,0,3:0:0:0:
248,192,204564,1,0,0:0:0:0:
248,192,204673,1,0,3:0:0:0:
336,248,204890,1,2,0:0:0:0:
436,220,205107,5,0,0:0:0:0:
436,184,205216,1,0,0:0:0:0:
440,148,205325,2,0,L|500:52,1,102.5,2|0,0:0|0:0,0:0:0:0:
494,61,205759,1,2,0:0:0:0:
309,117,205977,2,0,L|369:21,1,102.5,2|0,0:0|0:0,0:0:0:0:
363,30,206412,1,2,0:0:0:0:
200,96,206629,6,0,P|144:136|212:272,1,205,4|0,0:0|0:0,0:0:0:0:
252,312,207281,1,0,0:0:0:0:
212,184,207499,1,8,0:0:0:0:
296,72,207716,1,0,0:0:0:0:
212,184,207933,1,0,0:0:0:0:
212,184,208042,1,0,0:0:0:0:
212,184,208151,2,0,L|320:244,1,102.5,0|8,0:0|0:0,0:0:0:0:
353,319,208586,2,0,L|404:312,1,51.25
404,312,208803,6,0,B|424:252|468:244|468:244|476:180|440:156|440:156|404:136|396:92|404:44,1,307.5,4|0,3:0|0:0,0:0:0:0:
304,56,210542,2,0,B|248:160|112:76|48:156|40:212,1,307.5,2|0,0:0|0:0,0:0:0:0:
256,188,225107,5,0,1:0:0:0:
60,116,225542,1,4,3:0:0:0:
0,192,225759,1,4,3:0:0:0:
64,272,225977,1,0,3:0:0:0:
64,272,226086,1,0,0:0:0:0:
64,272,226194,6,0,P|124:260|160:304,1,102.5,4|0,0:0|0:0,0:0:0:0:
256,288,226629,1,0,0:0:0:0:
412,240,226846,2,8,P|384:180|424:120,1,102.5,8|0,0:0|0:0,0:0:0:0:
492,36,227281,1,0,3:0:0:0:
388,40,227499,1,0,0:0:0:0:
228,80,227716,6,0,P|184:75|139:109,1,102.5,8|0,0:0|0:0,0:0:0:0:
52,168,228151,1,0,3:0:0:0:
136,228,228368,1,0,0:0:0:0:
172,324,228586,2,0,L|52:312,2,102.5,0|8|0,3:0|0:0|0:0,0:0:0:0:
340,324,229238,2,0,L|460:312,1,102.5
468,264,229673,6,0,B|488:204|480:96|376:16|316:36,1,307.5,4|0,3:0|0:0,0:0:0:0:
256,64,231194,1,0,0:0:0:0:
241,164,231629,6,0,B|232:148|200:132|162:136|129:153|113:197|123:241|145:284|206:295|255:350|255:350|305:295|364:284|386:241|397:197|381:153|347:132|311:128|279:160|284:164,1,666.25,2|0,0:0|0:0,0:0:0:0:
84,76,241412,5,0,0:0:0:0:
256,192,241846,1,4,2:0:0:0:
84,300,242281,1,0,0:0:0:0:
256,80,242716,2,0,P|324:108|340:152,1,102.5
256,304,243151,2,0,P|324:276|340:232,1,102.5
102,192,243586,2,0,L|256:192,2,153.75
12,144,244455,1,0,0:0:0:0:
60,52,244673,2,0,P|128:36|168:48,1,102.5
260,40,245107,1,0,0:0:0:0:
344,92,245325,5,0,1:0:0:0:
464,295,245542,1,0,1:0:0:0:
281,147,245759,1,0,1:0:0:0:
504,223,245977,1,0,1:0:0:0:
268,228,246194,1,0,1:0:0:0:
483,143,246412,1,0,1:0:0:0:
311,297,246629,1,0,1:0:0:0:
426,91,246846,1,0,1:0:0:0:
388,324,247064,1,4,0:0:0:0:
352,172,248151,5,0,0:0:0:0:
380,192,248259,1,0,0:0:0:0:
400,224,248368,1,0,0:0:0:0:
408,256,248477,1,0,0:0:0:0:
404,292,248586,1,0,0:0:0:0:
388,324,248694,1,0,0:0:0:0:
356,344,248803,6,0,P|288:356|252:332,1,102.5,4|0,0:0|0:0,0:0:0:0:
196,264,249238,1,8,0:0:0:0:
144,124,249455,2,0,P|88:160|72:212,1,102.5,0|2,0:0|0:0,0:0:0:0:
196,264,249890,1,0,0:0:0:0:
264,144,250107,1,8,0:0:0:0:
400,188,250325,1,0,0:0:0:0:
316,60,250542,6,0,P|264:40|216:56,1,102.5,2|0,0:0|0:0,0:0:0:0:
144,124,250977,1,8,0:0:0:0:
116,280,251194,2,0,P|144:332|190:355,1,102.5,0|2,0:0|0:0,0:0:0:0:
331,352,251629,2,0,P|374:325|396:280,1,102.5,0|8,0:0|0:0,0:0:0:0:
376,144,252064,1,0,0:0:0:0:
244,100,252281,6,0,P|200:44|160:24,1,102.5,2|0,0:0|0:0,0:0:0:0:
172,240,252716,2,0,P|216:296|256:316,1,102.5,8|0,0:0|0:0,0:0:0:0:
134,149,253151,2,0,P|97:183|72:228,1,102.5,2|0,0:0|0:0,0:0:0:0:
281,210,253586,2,0,P|318:176|344:132,1,102.5,8|0,0:0|0:0,0:0:0:0:
244,100,254020,6,0,P|320:32|412:56,1,205,2|8,0:0|0:0,0:0:0:0:
344,132,254673,1,0,0:0:0:0:
280,212,254890,1,0,3:0:0:0:
280,212,254999,1,0,0:0:0:0:
280,212,255107,1,0,3:0:0:0:
448,160,255325,2,0,P|408:212|344:216,1,102.5,8|0,0:0|0:0,0:0:0:0:
200,284,255759,6,0,L|156:64,1,205,4|8,0:0|0:0,0:0:0:0:
80,144,256412,2,0,P|86:206|123:236,1,102.5,0|2,0:0|0:0,0:0:0:0:
276,108,256846,2,0,P|269:45|232:15,1,102.5,0|8,0:0|0:0,0:0:0:0:
160,84,257281,1,0,0:0:0:0:
268,200,257499,2,0,B|328:212|360:152|432:160,2,153.75,2|0|0,0:0|0:0|0:0,0:0:0:0:
240,300,258368,1,0,3:0:0:0:
240,300,258477,1,0,0:0:0:0:
240,300,258586,2,0,P|200:352|148:360,2,102.5,0|8|0,3:0|0:0|0:0,0:0:0:0:
136,216,259238,6,0,P|67:151|69:38,1,205,4|8,0:0|0:0,0:0:0:0:
272,100,259890,2,0,P|341:165|339:278,1,205
428,328,260542,2,0,L|448:220,1,102.5,8|0,0:0|0:0,0:0:0:0:
428,128,260977,1,0,3:0:0:0:
256,208,261194,1,8,0:0:0:0:
80,128,261412,1,8,0:0:0:0:
256,296,261846,6,0,L|256:356,2,51.25
196,156,262281,1,0,3:0:0:0:
220,132,262390,1,0,3:0:0:0:
252,120,262499,1,0,3:0:0:0:
292,132,262607,1,0,3:0:0:0:
316,156,262716,6,0,P|368:176|420:168,1,102.5,4|0,0:0|0:0,0:0:0:0:
316,40,263151,1,8,0:0:0:0:
316,40,263368,2,0,P|244:28|200:40,1,102.5,0|0,0:0|3:0,0:0:0:0:
100,112,263803,1,0,0:0:0:0:
112,252,264020,1,8,0:0:0:0:
220,336,264238,5,0,0:0:0:0:
220,336,264346,1,0,0:0:0:0:
220,336,264455,2,0,B|240:284|240:284|268:284|292:276,1,102.5,2|0,0:0|0:0,0:0:0:0:
220,120,264890,2,0,B|258:160|258:160|243:210,1,102.5,8|0,0:0|0:0,0:0:0:0:
368,84,265325,2,0,B|313:97|313:97|277:59,1,102.5,2|0,0:0|0:0,0:0:0:0:
336,232,265759,2,0,B|349:177|349:177|400:163,1,102.5,8|0,0:0|0:0,0:0:0:0:
480,52,266194,5,2,0:0:0:0:
496,184,266412,1,0,0:0:0:0:
416,296,266629,2,0,P|372:340|312:344,1,102.5,8|0,0:0|0:0,0:0:0:0:
336,232,267064,2,0,P|304:212|284:148,1,102.5,0|0,3:0|0:0,0:0:0:0:
408,132,267499,1,8,0:0:0:0:
228,60,267716,5,0,0:0:0:0:
228,60,267825,1,0,0:0:0:0:
228,60,267933,2,0,L|116:75,1,102.5,2|0,0:0|0:0,0:0:0:0:
19,216,268368,2,0,L|131:201,1,102.5,8|0,0:0|0:0,0:0:0:0:
164,296,268803,5,2,0:0:0:0:
200,296,268912,1,0,0:0:0:0:
236,284,269020,1,0,0:0:0:0:
256,252,269129,1,0,0:0:0:0:
264,216,269238,1,0,0:0:0:0:
260,180,269346,1,0,0:0:0:0:
240,148,269455,1,0,0:0:0:0:
208,132,269564,1,0,0:0:0:0:
172,128,269673,6,0,L|52:116,1,102.5,4|0,0:0|0:0,0:0:0:0:
276,60,270107,1,8,0:0:0:0:
276,60,270325,2,0,L|396:48,1,102.5,0|0,0:0|3:0,0:0:0:0:
336,188,270759,1,0,0:0:0:0:
444,280,270977,1,8,0:0:0:0:
316,344,271194,5,0,0:0:0:0:
316,344,271303,1,0,0:0:0:0:
316,344,271412,2,0,P|292:300|280:240,1,102.5,2|0,0:0|0:0,0:0:0:0:
116,152,271846,2,0,P|60:176|48:220,1,102.5,8|0,0:0|0:0,0:0:0:0:
132,344,272281,2,0,P|84:332|56:268,1,102.5,2|0,0:0|0:0,0:0:0:0:
184,192,272716,2,0,P|200:260|184:300,1,102.5,8|0,0:0|0:0,0:0:0:0:
268,200,273151,6,0,L|392:188,1,102.5,2|0,0:0|0:0,0:0:0:0:
320,56,273586,1,8,0:0:0:0:
460,96,273803,1,0,0:0:0:0:
460,288,274020,1,0,3:0:0:0:
460,288,274129,1,0,0:0:0:0:
460,288,274238,1,0,3:0:0:0:
320,328,274455,1,8,0:0:0:0:
192,268,274673,5,0,0:0:0:0:
192,268,274781,1,0,0:0:0:0:
192,268,274890,2,2,L|76:240,1,102.5
300,208,275325,2,0,L|416:180,1,102.5,8|0,0:0|3:0,0:0:0:0:
384,80,275759,5,2,0:0:0:0:
348,68,275868,1,0,0:0:0:0:
316,52,275977,1,0,0:0:0:0:
288,40,276086,1,0,0:0:0:0:
256,28,276194,1,0,0:0:0:0:
224,40,276303,1,0,0:0:0:0:
196,52,276412,1,0,0:0:0:0:
164,68,276520,1,0,0:0:0:0:
128,80,276629,1,4,0:0:0:0:
